#TITLE:Silhoette of My Mind;
#SUBTITLE:;
#ARTIST:ReR;
#TITLETRANSLIT:;
#SUBTITLETRANSLIT:;
#ARTISTTRANSLIT:;
#GENRE:Goth;
#CREDIT:From IIDX 6th Style;
#MENUCOLOR:;
#METERTYPE:DDR;
#BANNER:;
#BACKGROUND:;
#LYRICSPATH:;
#CDTITLE:;
#MUSIC:14 - Silhoette of My Mind.mp3;
#OFFSET:-0.320;
#SAMPLESTART:101.600;
#SAMPLELENGTH:10.000;
#SELECTABLE:YES;
#LISTSORT:;
#BPMS:0.000=60.500,32.000=121.000;
#STOPS:;
#BGCHANGES:;
#ATTACKS:;

//---------------dance-single - ----------------
#NOTES:
     dance-single:
     :
     Easy:
     5:
     0.258,0.334,0.213,0.136,0.000: // measure 1
0000
0000
0000
0000
,  // measure 2
2000
0001
0001
3001
,  // measure 3
0020
0100
0100
0130
,  // measure 4
1000
0001
1000
0001
,  // measure 5
1000
1001
0001
1001
,  // measure 6
0100
0110
0010
0110
,  // measure 7
0100
0110
0010
0110
,  // measure 8
1000
0001
1000
0001
,  // measure 9
2002
0000
0000
0000
,  // measure 10
0000
0000
0000
3003
0000
0000
0000
0000
,  // measure 11
0001
1001
0001
1001
,  // measure 12
0100
1100
0100
1100
,  // measure 13
0010
0110
0010
0110
,  // measure 14
1000
1001
1000
1001
,  // measure 15
0000
0100
0000
0010
,  // measure 16
1001
0110
1001
0110
,  // measure 17
1000
1000
0001
0001
,  // measure 18
0100
0010
0001
0010
,  // measure 19
0100
1000
1000
1000
,  // measure 20
0001
0001
0001
1001
,  // measure 21
0000
1000
0001
1000
,  // measure 22
1000
0001
0001
1000
,  // measure 23
1000
0010
0100
0001
,  // measure 24
0000
1000
0100
0001
,  // measure 25
1000
0100
0001
0010
,  // measure 26
1000
0100
0001
1000
,  // measure 27
1001
0002
2003
3200
,  // measure 28
0320
0032
2003
3002
,  // measure 29
0003
1000
0100
0010
,  // measure 30
0001
1000
0100
0010
,  // measure 31
1001
0000
2000
0000
,  // measure 32
3002
0000
2000
0000
,  // measure 33
3003
1000
0001
1000
,  // measure 34
0001
0001
1000
1000
,  // measure 35
0001
0001
1000
1000
,  // measure 36
0001
0010
0100
1000
,  // measure 37
0100
0010
0001
1000
,  // measure 38
0100
0010
0001
1000
,  // measure 39
1000
0001
0001
1000
,  // measure 40
0001
1000
1000
0000
,  // measure 41
0110
0010
0100
0001
,  // measure 42
0100
1000
0100
0001
,  // measure 43
0010
0001
0010
0100
,  // measure 44
1000
0010
0100
0001
,  // measure 45
1000
0001
1000
1000
,  // measure 46
0001
0001
1000
0010
,  // measure 47
0100
0001
0010
0100
,  // measure 48
1001
0100
0010
0100
,  // measure 49
2002
0000
0000
0000
,  // measure 50
3003
0000
0000
0000
;

//---------------dance-single - ----------------
#NOTES:
     dance-single:
     :
     Hard:
     9:
     0.506,0.705,0.434,0.400,0.417:
0100
0000
0002
0000
0000
0000
0010
1000
,
0013
0000
0000
0000
0020
0000
0000
0000
0001
0000
0000
0030
0001
0000
0000
0000
,
1000
0000
0000
0000
0000
0000
0000
0000
0100
0000
0000
0000
0000
0000
0000
0000
0010
0000
0000
0000
0001
0000
0000
0000
0000
0000
0000
0000
0000
1000
0000
0000
,
0010
0100
0001
0010
0001
0010
0010
0001
0100
0010
1000
0100
0100
0100
1000
0000
,
1000
0100
1100
0011
0000
0000
0000
0000
0010
0001
0011
0101
0000
0000
0000
0000
,
1010
1010
1100
0011
0000
0000
0000
0000
0011
0011
0110
1100
0000
0000
0000
0000
,
1100
1010
1100
1100
0000
0000
0000
0000
1001
1100
0110
1001
0000
0000
0000
0000
,
0000
0000
0010
0000
0001
0000
0001
0100
0000
0001
0000
1000
0000
0100
1000
0000
,
2020
0000
0000
0000
,
3030
0000
0000
0000
1000
0010
0000
0000
1000
0100
0000
0000
0011
0000
0000
0000
,
0101
0000
0000
0000
0010
0001
0000
0000
0001
0100
0000
0000
0010
0000
0000
0000
,
1000
0000
0000
0000
0100
1000
0000
0000
1000
0100
0000
0000
1001
0000
0000
0000
,
0110
0000
0000
0000
0001
0100
0000
0000
1000
0010
0000
0000
0110
0000
0000
0000
,
1001
0000
0000
0000
1000
0001
0000
0000
1000
0001
0000
0000
1000
0000
0000
0000
,
2000
0000
0000
0000
3200
0000
0320
0000
0030
0002
0000
0020
0000
0003
0000
0000
,
0030
0000
0000
0000
0010
0001
0010
0001
0010
0100
1000
0100
0010
0001
0010
0100
,
2000
0000
0000
0000
3000
0000
0000
0000
0001
0010
0000
0000
0000
0000
0002
0000
,
0000
0000
0000
0003
1000
0000
0000
0000
0100
0000
1000
0000
0000
0000
2002
0000
,
3003
0000
0000
1000
0100
0000
0000
0100
0010
0000
0000
0010
0001
0000
0000
0001
,
0100
0000
0000
0100
0001
0000
0000
1000
0100
0000
0000
0000
0200
0000
0000
0000
,
0000
0000
0000
0300
1000
0000
0000
0000
0010
0000
0000
0000
1000
0001
0000
0000
,
0100
0000
0001
0100
0000
0001
0010
0000
,
0000
0001
1000
0001
1000
0010
1000
0010
1000
0010
1000
0100
0001
0100
1000
0100
,
0010
0000
0002
0000
2003
0000
3022
0033
,
1000
0000
0100
0000
0001
0000
0010
0000
1000
0000
0000
1000
0000
0000
0000
0000
,
1000
0100
0010
1100
,
0000
0000
0000
0000
1000
0001
0000
0000
0001
0100
0000
0000
0100
0010
0000
0000
,
0010
1000
0000
0000
1000
0001
0000
0000
0001
0000
0000
0000
1000
0000
0000
0000
,
0010
0001
0100
0010
1000
1000
0000
0000
,
1000
0100
1000
0100
0010
0001
0000
0000
,
1000
0100
0000
0000
0010
0001
0000
0000
1000
0010
0000
0000
1000
0001
0000
0000
,
0001
0100
0000
0000
0100
1000
0000
0000
1000
0100
0000
0000
0001
0000
0000
0000
,
2010
0001
0010
0001
,
3020
0000
2030
0000
,
3002
0100
1000
0103
,
2000
3200
0320
0230
,
2300
0000
0000
0000
3000
0001
0010
0100
,
0000
0000
1000
0100
0000
0000
0010
0001
,
1000
0010
1000
0100
1000
0010
1000
0100
0001
0100
1000
0010
0001
0010
1000
0100
,
0010
0001
1000
0100
1000
0100
1000
0100
0010
0001
0010
0100
1000
0100
0010
0001
,
0020
0000
0000
0000
0030
0000
0001
0010
0100
1000
0100
0000
1100
0000
0010
0000
,
0001
0000
0010
0000
0011
0000
0100
0010
0001
0010
0100
0000
1001
0000
0001
0000
,
0100
0010
2020
3030
2200
3300
0220
0330
,
0022
0033
0220
0330
2020
3030
2002
3003
,
0000
0000
0000
0000
2000
0000
0000
0000
3020
0000
0000
0000
2030
0000
0001
3000
,
0000
0000
1000
0000
0001
0010
0001
0000
,
1001
0100
0010
0100
1000
0100
0001
0100
1000
0100
0001
0100
1000
0100
0010
0000
,
1001
0110
1100
0110
0011
1100
0110
0011
,
2002
0000
0000
3003
;

//---------------dance-single - ----------------
#NOTES:
     dance-single:
     :
     Medium:
     7:
     0.399,0.500,0.408,0.374,0.106:
2000
0002
0000
3003
,
2000
3200
2300
3002
,
2000
3003
2002
0000
0000
0000
3003
0000
,
1000
0100
0001
0100
1000
0100
0001
0100
1000
0100
0001
0100
1000
0100
1001
0000
,
1000
0001
1000
0000
1001
0000
0000
0000
0010
0100
0010
0000
1001
0000
0000
0000
,
0010
0100
0001
0000
1001
0000
0000
0000
0001
0001
1000
0000
0110
0000
0000
0000
,
0100
0100
1000
0000
1001
0000
0000
0000
0010
0100
1000
0000
1001
0000
0000
0000
,
0000
0000
1001
0000
1001
0000
0010
0100
0000
1001
0000
1001
0000
0100
0010
0000
,
2002
0000
0000
0000
,
0000
3003
0000
0000
0000
0000
2000
0000
,
3002
0000
0000
0000
0000
0000
0000
0003
0000
0000
1000
0000
0100
0000
0010
0000
,
0001
0000
1000
0100
0000
0100
1000
0000
,
2002
0000
0000
0000
,
3003
0000
1000
0100
0010
0100
1000
0000
,
0110
0000
0010
0001
0000
1000
0100
0000
,
1000
0100
0010
0001
1000
0100
0010
0001
1000
0100
0010
0001
1000
0100
0010
0001
,
0000
0000
1000
0100
0010
0100
1000
0010
,
1000
0100
0010
0100
1000
0010
1000
0100
,
1000
1001
1100
1010
,
1001
0011
0101
0110
,
1001
0000
0001
0010
0100
0010
0001
0100
,
0010
1000
0100
0001
0100
1000
0010
0100
,
0110
1100
0110
0011
,
0110
1100
0011
1100
,
1000
0100
0001
0100
0000
0010
0001
0000
,
0001
0100
1000
0001
0000
0000
0000
0000
,
0000
0200
0302
2003
,
3200
0320
0031
2002
,
3003
0000
0200
0300
0010
0000
0001
2000
,
3000
0000
0010
0001
2000
0000
3000
0000
,
2000
3000
0200
0300
0002
0003
0200
0300
,
2000
3000
0200
0300
0020
0030
0200
0300
,
2000
0001
0001
3001
,
0010
0100
1000
0001
,
0002
1000
1000
1000
,
1003
0100
0010
0001
,
2000
0000
0000
3002
,
0100
0003
0000
0000
0000
0000
0000
0000
0000
0000
0000
0000
0000
0000
0000
0000
0000
0000
0000
0000
0000
0000
0000
0000
0000
0000
0000
0000
0000
0000
0000
0000
0000
0000
0000
0000
0000
0000
0000
0000
0000
0000
0000
0000
0000
0000
0000
0000
0000
0000
0000
0000
0000
0000
0000
0000
0000
0000
0000
0000
0000
0000
0000
0000
0000
0000
0000
0000
0000
0000
0000
0000
0000
0000
0000
0000
0000
0000
0000
0000
0000
0000
0000
0000
0000
0000
0000
0000
0000
0000
0000
0000
0000
0000
0000
0000
0000
0000
0000
0000
0000
0000
0000
0000
0000
0000
0000
0000
0000
0000
0000
0000
0000
0000
0000
0000
0000
0000
0000
0000
0000
0000
0000
0000
0000
0000
0000
0000
0000
0000
0000
0000
0000
0000
0000
0000
0000
0000
0000
0000
0000
0000
0000
0000
0000
0000
0000
0000
0000
0000
0000
0000
0000
0000
0000
0000
0000
0000
0000
0000
0000
0000
0000
0000
0000
0000
0000
0000
0000
0000
0000
0000
0000
0000
0000
0000
0000
0000
0000
0000
0000
0000
0000
0000
0000
0000
0000
0000
0000
0000
0000
0000
,
0100
0001
0010
0001
0100
0001
0010
0001
,
0100
1000
0100
0001
0100
1000
0100
0001
,
0002
0003
0000
0000
0010
0000
0001
0000
,
1000
0000
0010
0000
1000
0100
0000
0022
,
0000
0033
1100
0000
1001
0000
0110
0000
,
1100
0011
1100
0110
,
1001
0000
0001
0000
1000
0000
0100
0010
,
0000
0001
0100
0000
0010
0100
0000
0000
,
2002
0000
3003
0110
,
1100
0011
0011
0101
,
2200
0000
0000
0000
,
3300
0000
0000
0000
;
