#TITLE:Raison d'etre ~Kousa suru shukumei~;
#SUBTITLE:;
#ARTIST:Zektbach;
#TITLETRANSLIT:;
#SUBTITLETRANSLIT:;
#ARTISTTRANSLIT:;
#CREDIT:;
#BANNER:Raison d'être.png;
#BACKGROUND:Raison d'être-bg.png;
#LYRICSPATH:;
#CDTITLE:;
#MUSIC:Raison d'être.mp3;
#OFFSET:-6.240;
#SAMPLESTART:55.680;
#SAMPLELENGTH:10.970;
#SELECTABLE:YES;
#BPMS:0.000=155.000,64.000=87.500,68.000=175.000,100.000=87.500,116.000=175.000,148.000=43.750,156.000=175.000;
#STOPS:252.000=0.686
;
#BGCHANGES:;

//---------------dance-single - ----------------
#NOTES:
     dance-single:
     :
     Hard:
     9:
     0.574,0.591,0.394,0.331,0.094: // measure 1
2002
0000
0003
0000
,  // measure 2
0200
0000
3000
0000
,  // measure 3
0020
0000
0300
0000
,  // measure 4
0002
0000
0033
0000
,  // measure 5
1001
0000
1000
0100
1000
0100
0000
0010
,  // measure 6
0001
0100
0000
0010
0100
0001
1000
0100
,  // measure 7
0110
0000
0010
0001
1000
0001
0000
0100
,  // measure 8
0001
0000
0100
0000
0000
0000
0010
0000
1000
0001
1000
0000
0001
0000
0010
0000
,  // measure 9
0011
0000
0000
0001
1000
0000
0000
1000
0010
0000
0000
0010
0100
0000
0000
0000
,  // measure 10
0010
0000
0000
0010
0100
0000
0000
0100
0001
0000
0000
0001
1000
0000
0000
0000
,  // measure 11
1000
0000
0000
1000
0100
0000
0000
0100
0010
0000
0000
0010
0001
0000
0000
0000
,  // measure 12
0001
0000
0000
0001
0100
0000
0000
0100
0010
0000
0000
0010
1000
0000
0000
0000
,  // measure 13
1001
0000
0001
0010
0001
0100
0000
0010
,  // measure 14
1000
0100
0000
0010
0001
0100
0010
1000
,  // measure 15
1001
0000
0001
0100
0001
0010
0000
0100
,  // measure 16
0010
0000
0001
0000
0000
0000
1000
0000
0001
1000
0001
0000
0100
0000
0010
0000
,  // measure 17
2002
0000
0000
3003
,  // measure 18
1001
0000
0000
0000
1000
0000
0100
0000
1000
0000
0000
0001
0000
0000
0100
0000
,  // measure 19
0001
0000
1000
0100
0010
0001
0000
1000
,  // measure 20
0001
0100
0010
0000
0100
0010
1000
0000
,  // measure 21
0001
0000
1001
0000
0000
1000
0100
0010
,  // measure 22
0001
0000
0100
0000
0001
0000
0000
0000
1000
0000
0000
0100
0000
0000
1000
0000
,  // measure 23
0001
0000
1000
0100
0010
0001
1000
0001
,  // measure 24
0100
0010
0100
0000
0010
1000
0001
1000
,  // measure 25
0100
0000
0010
0000
0100
1000
0010
0100
,  // measure 26
0220
0000
0300
0000
1030
1000
0000
0000
,  // measure 27
2002
0000
0000
0000
0000
0000
0000
0000
0003
0000
0000
0000
3000
0000
0100
1000
0100
0000
0000
0000
0100
0000
0000
0000
0000
0000
0000
0000
0010
0000
0000
0000
,  // measure 28
0022
0000
0030
0000
1003
1000
0000
0000
,  // measure 29
0202
0000
0000
0000
0000
0000
0000
0000
0003
0000
0000
0000
0300
0000
0001
0100
0001
0000
0000
0000
1000
0000
0000
0000
0000
0000
0000
0000
0000
0000
0000
0000
,  // measure 30
0001
1000
0100
1000
0001
0010
0001
0000
,  // measure 31
1000
0001
0100
1000
0100
0001
1000
0000
,  // measure 32
0001
0010
0001
0100
0010
0100
0001
0010
,  // measure 33
0100
0010
0001
1000
0001
0100
0010
1000
,  // measure 34
0100
0010
0001
1000
0001
1000
0001
0100
,  // measure 35
1000
0100
0010
0100
0001
1000
0100
0010
,  // measure 36
0100
1000
0001
1000
0001
0010
0001
1000
,  // measure 37
0010
0100
0001
0010
0100
0010
0001
0000
,  // measure 38
2200
0000
0000
3300
0000
1001
0000
0000
2002
0000
0000
3003
0000
0011
0000
0000
,  // measure 39
0220
0000
0000
0330
0000
1001
0000
0000
2020
0000
0000
3030
0000
0101
0000
0000
,  // measure 40
1001
0000
1100
0000
0010
0001
0000
0001
,  // measure 41
0100
0010
0100
0001
0100
0010
1000
0100
,  // measure 42
0010
0001
0100
0001
1000
0001
0000
1000
,  // measure 43
0001
0100
1000
0100
0010
1000
0100
0010
,  // measure 44
0110
0000
0100
0010
0001
0100
0010
1000
,  // measure 45
1010
0000
0010
1000
0100
0010
0001
0100
,  // measure 46
0101
0000
0001
0010
0100
0010
0001
1001
,  // measure 47
0000
0110
0000
2002
0000
0000
3003
0000
,  // measure 48
0120
2000
0030
0200
,  // measure 49
3000
0020
0300
0002
,  // measure 50
0030
2000
0003
0020
,  // measure 51
3000
0200
0030
0001
,  // measure 52
0301
1000
2002
3003
,  // measure 53
1000
0100
0220
0330
,  // measure 54
0011
0001
2000
0000
3001
0100
0002
0000
,  // measure 55
1003
0100
0010
0002
0100
0100
0103
0000
,  // measure 56
0001
0100
0010
1000
0100
0010
0100
1000
,  // measure 57
0001
1000
0001
0010
0100
0100
0010
0010
,  // measure 58
0001
0100
1000
0100
0010
1000
0001
0010
,  // measure 59
0100
0010
0001
1000
0010
0000
0110
0000
,  // measure 60
0100
0001
1000
0100
0010
0100
1000
0000
,  // measure 61
0001
0010
0100
0010
0001
0100
0010
0000
,  // measure 62
0110
1010
1100
0101
,  // measure 63
0011
1010
1100
2002
,  // measure 64
3003
0000
0000
0000
1000
0100
1000
0100
,  // measure 65
0010
0001
0010
0001
1001
1000
0010
1000
,  // measure 66
0001
0100
0001
1000
1100
0100
0010
0100
,  // measure 67
1000
0100
0010
0001
0011
0010
0100
1000
,  // measure 68
0001
1000
0010
0100
0101
0001
0010
0100
,  // measure 69
1000
0100
0001
0100
0110
0010
0001
0100
,  // measure 70
1000
0100
0010
1000
1010
0010
0100
0001
,  // measure 71
0010
0100
0010
0001
1001
1000
0010
0100
,  // measure 72
0001
0010
0100
0010
1001
0000
0000
0000
;

//---------------dance-single - ----------------
#NOTES:
     dance-single:
     :
     Medium:
     6:
     0.431,0.421,0.260,0.291,0.016:
2001
0000
0000
0000
,
3200
0000
0000
0000
,
0320
0000
0000
0000
,
0032
0000
0000
0003
,
1001
0000
0001
0000
1000
0100
0000
1000
,
0100
0010
0000
0100
0010
0000
0001
1000
,
1001
0000
0001
0000
0100
0010
0000
0100
,
0010
1000
0000
0001
1000
0001
1000
0000
,
1002
1000
0100
0013
,
0020
0001
0100
0031
,
0200
0010
0001
0310
,
2000
0010
0100
3001
,
1001
0000
0000
1000
0001
1000
0000
0001
,
0100
0001
0000
0100
0001
1000
0001
0000
,
1001
0000
0000
1000
0100
1000
0000
0001
,
0010
0001
0000
0010
0100
0010
0100
0000
,
2002
0000
0000
3003
,
1001
0000
1000
0000
0001
0100
0000
0100
,
0001
0000
1000
0000
0001
0010
0000
0010
,
0001
1000
0001
0000
1000
0010
1000
0000
,
0010
0000
0100
0000
0001
0100
0001
0000
,
1000
0000
0100
0000
0010
0100
0000
0010
,
0001
0000
1000
0000
0001
0100
0001
0000
,
1000
0010
1000
0000
0010
0000
0100
0000
,
0010
0000
0001
0000
1000
0001
0100
0000
,
0220
0000
0030
0000
0301
0001
0000
0000
,
2002
0000
3000
0000
0010
0013
0000
0000
,
0220
0000
0300
0000
0001
0031
0000
0000
,
0202
0000
0003
0000
0010
0310
0000
0000
,
1001
0000
1000
0000
0001
0100
0001
0000
,
1000
0000
0001
0000
0010
0001
0010
0000
,
0001
0100
0010
0000
0100
0010
0000
0010
,
0100
0000
0010
0000
1000
0001
1000
0000
,
1001
0000
0001
0000
0000
0010
0001
1000
,
0100
0000
1000
0000
0001
0100
0001
0000
,
1000
0000
0001
0000
0000
0100
0001
0100
,
0010
0000
1000
0000
0010
1000
0001
0000
,
2001
0000
0000
0000
0000
3200
0000
0000
0320
0000
0000
0000
0000
0032
0000
0000
,
2003
0000
0000
0000
0000
3020
0000
0000
0230
0000
0000
0000
0000
0301
0000
0000
,
1001
0000
1000
0000
0001
0002
0000
0010
,
0000
1000
0000
0103
0000
0000
0100
0001
,
0100
0000
0010
0000
1000
2000
0000
0010
,
0000
0001
0000
3100
0000
0000
0100
1000
,
0001
0000
0100
0000
0001
0000
1000
0100
,
0010
0000
0100
0000
0010
0000
0001
0010
,
0001
0000
1000
0000
0010
0100
0000
0110
,
0000
1001
0000
0220
0000
0000
0330
0000
,
1001
0001
0000
0010
,
0000
0100
0000
1000
,
0000
0001
0000
0100
,
0000
0010
0000
1000
,
0001
1200
0000
0000
,
0310
0001
0200
0300
,
0010
0100
0010
0000
1000
0001
1000
0000
,
1100
0011
2002
3003
,
0001
0000
0100
0000
0001
0100
0001
0000
,
1000
0000
0100
0000
0010
0100
0010
0000
,
0100
1000
0001
0000
1000
0001
0100
0000
,
0010
0100
0220
0330
,
0010
1000
0100
0000
0010
0001
0100
0000
,
0001
1000
0001
0000
1000
0000
0100
0000
,
0110
0110
1001
1001
,
1100
1100
0011
0022
,
0033
0000
0000
0000
1000
0010
1000
0000
,
0010
1000
0010
0000
0100
0001
0100
0000
,
0001
0100
0001
0000
0010
0001
0100
0000
,
0001
0100
0010
0000
0100
0010
1000
0000
,
0010
1000
0100
0000
1000
0100
0010
0000
,
0100
0010
0001
0000
1000
0001
1000
0000
,
0001
0100
0001
0000
1000
0010
0100
0000
,
0010
0100
0001
0000
1000
0100
0010
0001
,
1000
0100
0010
0001
0000
0000
0000
0000
;

//---------------dance-single - ----------------
#NOTES:
     dance-single:
     :
     Easy:
     4:
     0.286,0.366,0.157,0.150,0.000:
1001
0000
0000
0000
,
1000
0000
0000
0000
,
0001
0000
0000
0000
,
0100
0000
0000
0000
,
0110
0000
0010
0000
,
1000
0000
0001
1000
,
1001
0000
0001
0000
,
0010
0000
0001
0000
,
1001
1000
0100
0010
,
0001
0010
0100
1000
,
0010
0100
0001
0100
,
0010
1000
0001
1000
,
1001
0000
0001
0000
,
0100
0000
0010
0100
,
0110
0000
0010
0000
,
1000
0000
0001
1000
,
2002
0000
0000
3003
,
1000
0100
1000
0001
,
0100
0000
0010
0100
,
0001
0100
0001
0100
,
0001
1000
0100
0000
,
0010
0001
0100
0010
,
0100
0000
0010
1000
,
0001
1000
0001
1000
,
0100
0010
0100
0000
,
2002
0000
3003
0000
,
0220
0000
0330
0000
,
2002
0000
3003
0000
,
0220
0000
0330
0000
,
1001
0000
1000
0001
,
1000
0000
0001
0010
,
0100
0010
0001
0100
,
0010
0000
0100
0010
,
1000
0000
0001
1000
,
0100
0010
0100
1000
,
0001
0000
1000
0001
,
0100
0000
0010
1000
,
2002
0000
0000
0000
0000
3003
0000
0000
0220
0000
0000
0000
0000
0330
0000
0000
,
2002
0000
0000
0000
0000
3003
0000
0000
0220
0000
0000
0000
0000
0330
0000
0000
,
1001
0000
1000
0100
,
0010
0001
0100
0000
,
0010
0100
0001
1000
,
0100
0010
0100
0000
,
0010
0001
0010
0001
,
1000
0100
1000
0000
,
0001
0100
0010
0100
,
0001
1000
0010
0000
,
0110
0010
0000
0100
,
0000
0001
0000
1000
,
0000
0001
0000
0010
,
0000
0100
0000
1000
,
0100
0010
0001
0000
,
1000
0010
0100
0000
,
0001
1000
0001
1000
,
0010
0100
0010
0000
,
1001
0001
1000
0100
,
0010
0100
0010
0010
,
0001
0100
0010
1000
,
0001
0100
0010
0000
,
0100
0001
1000
0100
,
0010
0001
1000
1000
,
0001
0100
1000
0100
,
0010
1000
0001
2000
,
3000
0000
0001
0010
,
0001
0010
0100
1000
,
0100
1000
0001
1000
,
0010
0100
0001
1000
,
0100
0010
0100
1000
,
0100
0001
1000
0010
,
0001
0100
0010
1000
,
0100
0010
0001
1000
,
0001
0100
0110
0000
;

//---------------dance-single - ----------------
#NOTES:
     dance-single:
     :
     Beginner:
     1:
     0.128,0.169,0.134,0.000,0.000:
1001
0000
0000
0000
,
1000
0000
0000
0000
,
0100
0000
0000
0000
,
0010
0000
0000
0000
,
1001
0000
0000
0000
,
0000
0000
0000
0000
,
0110
0000
0000
0000
,
0000
0000
0000
0000
,
1001
0000
0000
0000
,
1000
0000
0000
0000
,
0100
0000
0000
0000
,
0010
0000
0000
0000
,
1001
0000
0000
0000
,
0000
0000
0000
0000
,
0110
0000
0000
0000
,
0000
0000
0000
0000
,
1001
0000
0000
0000
,
1001
0000
0000
0000
,
1000
0000
0100
0000
,
1000
0000
0000
0000
,
0001
0000
0000
0000
,
0100
0000
0000
0000
,
0001
0000
1000
0000
,
0001
0000
0000
0000
,
1000
0000
0001
0000
,
1001
0000
0000
0000
,
1000
0000
0000
0000
,
0001
0000
0000
0000
,
0100
0000
0100
0000
,
0110
0000
0000
0000
,
0010
0000
1000
0000
,
0001
0000
1000
0000
,
0100
0000
0010
0000
,
0100
0000
0000
0000
,
0010
0000
0001
0000
,
1000
0000
0000
0000
,
0001
0000
0000
0000
,
1001
0000
1000
0000
,
0001
0000
1000
0000
,
1001
0000
0000
0000
,
0001
0000
0100
0000
,
0001
0000
0000
0000
,
1000
0000
0100
0000
,
1000
0000
0000
0000
,
0001
0000
0010
0000
,
0100
0000
1000
0000
,
0100
0000
0010
0000
,
1001
0000
0000
0000
,
0000
0000
0000
0000
,
0000
0000
0000
0000
,
0000
0000
0000
0000
,
1001
0000
0000
0000
,
1001
0000
0000
0000
,
1000
0000
0001
0000
,
0110
0000
0000
0000
,
1001
0000
0001
0000
,
1000
0000
0001
0000
,
0100
0000
0010
0000
,
0100
0000
0000
0000
,
0010
0000
0100
0000
,
0001
0000
1000
0000
,
0100
0000
0010
0000
,
0100
0000
0010
0010
,
0000
0000
0001
0000
,
0100
0000
0001
0000
,
0100
0000
0010
0000
,
1000
0000
0010
0000
,
1000
0000
0001
0000
,
1000
0000
0100
0000
,
0010
0000
0001
0000
,
1000
0000
0001
0000
,
0100
0000
0010
0000
;
