#TITLE:Mermaid girl;
#SUBTITLE:-Akiba Koubou MIX-;
#ARTIST:Remixed by DJ Command;
#TITLETRANSLIT:;
#SUBTITLETRANSLIT:;
#ARTISTTRANSLIT:;
#CREDIT:;
#BANNER:Mermaid girl -Akiba Koubou MIX- BN.png;
#BACKGROUND:Mermaid girl -Akiba Koubou MIX- BG.png;
#LYRICSPATH:;
#CDTITLE:;
#MUSIC:Mermaid girl -Akiba Koubou MIX-.mp3;
#OFFSET:-0.068;
#SAMPLESTART:55.605;
#SAMPLELENGTH:15.620;
#SELECTABLE:YES;
#BPMS:0.000=150.000;
#STOPS:;
#BGCHANGES:;

//---------------dance-single - ----------------
#NOTES:
     dance-single:
     :
     Hard:
     9:
     0.647,0.579,0.187,0.187,0.347: // measure 1
0000
0000
0000
0000
,  // measure 2
0000
0000
0000
0000
0000
0000
1000
0100
,  // measure 3
0001
0000
0000
0100
0000
0000
1000
0000
0010
0000
1000
0000
0100
0000
0000
0000
,  // measure 4
0010
0001
1000
0010
1000
0001
0010
0000
,  // measure 5
0001
0000
1000
0001
0000
0001
1000
0000
0010
0000
1000
0000
0100
0000
0000
0000
,  // measure 6
0010
0000
0001
0000
0100
0000
0010
0000
2000
0000
0000
0000
3001
0000
1000
0001
,  // measure 7
1000
0000
0000
0001
0000
0000
0010
0000
0000
0001
0000
0000
1000
0000
0100
0000
,  // measure 8
1100
0000
0000
0100
0000
0000
0010
0000
0000
0001
0000
0000
0010
0000
0100
0000
,  // measure 9
1100
1000
0010
0000
0110
0100
0001
0000
,  // measure 10
0010
0000
0100
0010
0000
0010
0100
0000
0010
0000
0001
0000
1000
0000
0010
0000
,  // measure 11
0100
0000
0001
0100
0000
0001
0100
0000
0010
0000
1000
0000
0100
0000
0000
0000
,  // measure 12
0010
0001
0010
0001
0000
0010
0100
0000
1000
0000
0010
0000
0100
0000
0000
0000
,  // measure 13
0001
0000
1000
0001
0000
1000
0001
0000
1000
0000
0010
0000
1000
0100
1000
0000
,  // measure 14
0100
0000
0010
0001
0000
0010
0001
0000
0010
0000
0000
0000
1001
0000
0000
0000
,  // measure 15
0001
0000
0100
0001
0000
0100
0001
0000
0100
0000
0010
0000
1000
0000
0000
0000
,  // measure 16
0100
1000
0100
1000
0000
0100
1000
0000
0001
0000
1000
0000
0010
0000
0000
0000
,  // measure 17
1000
0010
0100
0001
1000
0100
0010
0001
,  // measure 18
1000
0000
0001
1000
0000
0001
1000
0000
0010
0100
0010
0000
0100
0000
0000
0000
,  // measure 19
0101
0000
1010
0000
2000
0000
3001
0100
,  // measure 20
0010
0000
1000
0000
0100
0000
0010
0001
,  // measure 21
1000
0000
0000
0010
0000
1000
0010
0000
1000
0000
0000
0001
0000
1000
0001
0000
,  // measure 22
0100
0000
0001
0000
0010
0000
0001
0100
,  // measure 23
0010
0000
0000
1000
0000
0010
1000
0000
0010
0000
0000
0100
0000
0010
0100
0000
,  // measure 24
0001
0100
0010
1000
,  // measure 25
1001
0000
1100
0000
1001
1000
1100
0000
,  // measure 26
0100
0000
0010
0000
0001
0000
0010
0100
,  // measure 27
1000
0000
0000
0010
0000
1000
0010
0000
1000
0000
0100
0000
1000
0000
0001
0000
,  // measure 28
1001
0001
0010
1000
0010
0001
0100
0000
,  // measure 29
0001
0100
0010
1000
0100
0001
0100
1000
,  // measure 30
0020
0230
0302
2003
,  // measure 31
3100
0000
1000
0000
0001
1000
0000
0001
0000
0100
0001
0000
1000
0000
0000
0000
,  // measure 32
1001
0001
0100
0010
1000
0100
0010
0001
,  // measure 33
0011
0000
1000
0000
1010
0000
0010
0100
,  // measure 34
0201
0301
0012
0013
,  // measure 35
0011
0000
1100
0000
1000
0010
0100
0001
,  // measure 36
1000
0000
0000
0001
0000
0000
0010
0000
0100
0000
1000
0000
0100
0000
0000
0000
,  // measure 37
0010
0001
0100
0010
1000
0100
0001
0000
,  // measure 38
0100
0000
1000
0001
0000
0001
1000
0000
0001
0000
0100
0000
0010
0000
0000
0000
,  // measure 39
1000
0100
0010
0001
2000
0000
3001
0100
,  // measure 40
0010
0000
0000
1000
0000
0000
0100
0000
1000
0000
0010
0000
0100
0000
0000
0000
,  // measure 41
0001
0010
1000
0010
0001
0100
1000
0000
,  // measure 42
0100
0000
0001
0010
0000
0010
0001
0000
0010
0000
0100
0000
1000
0000
0000
0000
,  // measure 43
0001
0000
1000
0100
0000
0100
1000
0000
0001
0000
0100
0000
0010
0000
0000
0000
,  // measure 44
1000
0000
0001
1000
0000
0001
1000
0000
0001
0000
0100
0000
0010
0000
0000
0000
,  // measure 45
1000
0100
0010
0001
0010
0100
1000
0000
,  // measure 46
0001
0000
0100
0001
0000
0100
0001
0000
0100
0000
0010
0000
1000
0000
0000
0000
,  // measure 47
0100
0010
0001
1000
0002
0000
1003
0001
,  // measure 48
0100
0000
0010
0100
0000
0010
1000
0000
0010
0000
0100
0000
0001
0000
0000
0000
,  // measure 49
1000
0100
1000
0100
0000
1000
0001
0000
0100
0000
0001
0000
0010
0000
0000
0000
,  // measure 50
0100
1000
0001
0100
0001
0010
1000
0010
,  // measure 51
0001
0000
0100
0001
0000
0100
0001
0000
1000
0001
1000
0000
0200
0000
0000
0000
,  // measure 52
1300
0010
0100
0000
0001
0010
1000
0000
,  // measure 53
0010
0001
0100
0001
1000
0100
0001
0100
,  // measure 54
2000
3020
0230
0302
,  // measure 55
0013
0100
1000
0001
0000
0001
1000
0100
,  // measure 56
1000
0010
0100
0001
0010
1000
0010
0001
,  // measure 57
0200
0000
0320
0000
2030
0000
3001
0010
,  // measure 58
0012
0013
0120
0130
,  // measure 59
0110
0000
1100
0000
1000
0001
0100
0010
,  // measure 60
1000
0000
0001
1000
0000
0001
1000
0000
0001
0000
0100
0000
0020
0000
0000
0000
,  // measure 61
1030
0000
0000
0010
0000
0000
0100
0000
0001
0000
0010
0000
1000
0000
0000
0000
,  // measure 62
0010
0001
0100
0001
1000
0100
1000
0000
,  // measure 63
0001
0000
1000
0001
0000
0001
1000
0000
0001
0000
0100
0000
0010
0000
0000
0000
,  // measure 64
1000
0100
0010
0001
2000
0000
3100
1000
,  // measure 65
0010
0000
0000
0100
0000
0000
0001
0000
0010
0000
1000
0000
0010
0000
0000
0000
,  // measure 66
0001
0100
0010
1000
0100
0001
0100
0000
,  // measure 67
1000
0000
0010
1000
0000
1000
0010
0000
1000
0000
0010
0000
0100
0000
0000
0000
,  // measure 68
0001
0000
1000
0100
0000
0100
1000
0000
0010
0000
0100
0000
0001
0000
0000
0000
,  // measure 69
0100
0000
0001
0100
0000
0001
0100
0000
0010
0000
1000
0000
0100
0000
0000
0000
,  // measure 70
0010
0001
0010
0001
0000
0010
0100
0000
1000
0000
0010
0000
0100
0000
0000
0000
,  // measure 71
0001
0000
1000
0001
0000
1000
0001
0000
1000
0000
0010
0000
1000
0100
1000
0000
,  // measure 72
0100
0000
0010
0001
0000
0010
0001
0000
0010
0000
0000
0000
1001
0000
0000
0000
,  // measure 73
0001
0000
0100
0001
0000
0100
0001
0000
0100
0000
0010
0000
1000
0000
0000
0000
,  // measure 74
0100
1000
0100
1000
0000
0100
1000
0000
0001
0000
1000
0000
0010
0000
0000
0000
,  // measure 75
1000
0010
0100
0001
1000
0100
0010
0001
,  // measure 76
1000
0000
0001
1000
0000
0001
1000
0000
0010
0100
0010
0000
0100
0000
0000
0000
,  // measure 77
0220
0000
0000
0000
,  // measure 78
0000
0000
0000
0000
,  // measure 79
0330
0000
0000
0000
;

//---------------dance-single - ----------------
#NOTES:
     dance-single:
     :
     Beginner:
     1:
     0.108,0.148,0.008,0.000,0.000:
0000
0000
0000
0000
,
0000
0000
0000
0000
,
1000
0000
0000
0000
,
0001
0000
0000
0000
,
0100
0000
0000
0000
,
0010
0000
0010
0000
,
0010
0000
0000
0000
,
1000
0000
0000
0000
,
0001
0000
0000
0000
,
0010
0000
0010
0000
,
0010
0000
0000
0000
,
0001
0000
0000
0000
,
0100
0000
0000
0000
,
0010
0000
0010
0000
,
0010
0000
0000
0000
,
1000
0000
0000
0000
,
0001
0000
0000
0000
,
0100
0000
0100
0000
,
0100
0000
0000
0000
,
0010
0000
0000
0000
,
1000
0000
0000
0000
,
0001
0000
0000
0000
,
1000
0000
1000
0000
,
1000
0000
0000
0000
,
0010
0000
0000
0000
,
0100
0000
0000
0000
,
0001
0000
0001
0000
,
0001
0000
0000
0000
,
0010
0000
0000
0000
,
0100
0000
0100
0000
,
0100
0000
0000
0000
,
1000
0000
0000
0000
,
0001
0000
0000
0000
,
1000
0000
1000
0000
,
1000
0000
0000
0000
,
0010
0000
0000
0000
,
0100
0000
0100
0000
,
0100
0000
0000
0000
,
0001
0000
0001
0000
,
0001
0000
0000
0000
,
1000
0000
1000
0000
,
1000
0000
0000
0000
,
0010
0000
0010
0000
,
0010
0000
0000
0000
,
1000
0000
0000
0000
,
0001
0000
0000
0000
,
1000
0000
1000
0000
,
1000
0000
0000
0000
,
0010
0000
0000
0000
,
0100
0000
0000
0000
,
0001
0000
0001
0000
,
0001
0000
0000
0000
,
0010
0000
0000
0000
,
0100
0000
0100
0000
,
0100
0000
0000
0000
,
1000
0000
0000
0000
,
0001
0000
0000
0000
,
0010
0000
0010
0000
,
0010
0000
0000
0000
,
0000
0000
0000
0000
,
0001
0000
0000
0000
,
0100
0000
0100
0000
,
0100
0000
0000
0000
,
0010
0000
0010
0000
,
0010
0000
0000
0000
,
1000
0000
1000
0000
,
1000
0000
0000
0000
,
0001
0000
0001
0000
,
0001
0000
0000
0000
,
1000
0000
0000
0000
,
0100
0000
0000
0000
,
0010
0000
0010
0000
,
0010
0000
0000
0000
,
0001
0000
0000
0000
,
0100
0000
0000
0000
,
0010
0000
0010
0000
,
0110
0000
0000
0000
;

//---------------dance-single - ----------------
#NOTES:
     dance-single:
     :
     Easy:
     4:
     0.290,0.297,0.055,0.023,0.000:
0000
0000
0000
0000
,
0000
0000
0000
1000
,
0001
0000
1000
0000
,
0010
0100
0001
0100
,
0010
0000
1000
0000
,
0100
0010
0001
0000
,
1000
0000
0001
0000
,
0010
0001
0100
0001
,
0010
0000
0100
0000
,
1000
0010
0100
0010
,
1000
0000
0001
1000
,
0001
0000
1000
0010
,
1000
0000
0010
0100
,
0010
0000
0100
0001
,
0100
0000
0001
0010
,
0001
0000
1000
0010
,
1000
0000
0001
0100
,
0001
0000
1000
0001
,
1001
1001
0000
0000
,
1000
0100
0010
0001
,
0010
0100
0000
1000
,
0010
0100
0001
0100
,
0010
1000
0000
0100
,
1000
0001
0010
1000
,
0010
0001
0100
0000
,
0010
1000
0100
1000
,
0001
1000
0010
1010
,
0010
0100
0001
0010
,
1000
0010
0001
0000
,
0100
0010
1000
0100
,
0002
0000
0103
0000
,
0001
0100
1000
0010
,
0100
0001
0010
0000
,
1000
0010
0001
0100
,
0010
0100
0110
0000
,
0010
0000
1000
0001
,
0010
0001
1000
0100
,
1000
0000
0001
0010
,
1000
0010
0001
0000
,
0100
0000
0010
1000
,
0100
1000
0001
0010
,
0001
0000
0010
0001
,
0100
0000
0010
1000
,
0100
1000
0001
0010
,
0001
0000
1000
0000
,
0001
1000
0010
1000
,
0001
0000
1000
1001
,
1000
0010
0100
0001
,
0010
0100
1000
0001
,
0010
1000
0010
0001
,
0100
0010
1000
0100
,
0010
0000
0001
0000
,
0100
0010
1000
0000
,
0001
0010
1000
0010
,
0002
0000
1003
0000
,
0001
0000
0100
0000
,
0010
1000
0100
0000
,
0010
0001
1000
0010
,
0100
0001
1000
0001
,
2000
0000
0000
3001
,
1000
0010
0100
0001
,
1000
0100
0010
0001
,
1000
0010
0001
0010
,
1000
0100
0001
0000
,
0100
1000
0010
0100
,
0001
0010
0100
1000
,
0001
0010
1000
0010
,
0001
0100
0010
1010
,
0010
0100
0001
0010
,
1000
0010
0001
0100
,
0010
1000
0100
0001
,
0100
1000
0010
0000
,
0100
0001
0010
1000
,
0010
0001
0100
0010
,
1000
0100
0001
0100
,
1000
0010
0100
0001
,
1001
0000
0000
0000
;

//---------------dance-single - ----------------
#NOTES:
     dance-single:
     :
     Medium:
     6:
     0.434,0.445,0.250,0.000,0.000:
0000
0000
0000
0000
,
0000
0000
0000
0000
0000
0000
1000
0100
,
1000
0000
0100
0000
0010
0100
0010
0000
,
0100
0000
0010
0000
0001
0010
0001
0000
,
1000
0000
0001
0000
1000
0100
1000
0000
,
0001
0000
1000
0001
1000
0000
0001
0000
,
1001
0000
1000
0000
0010
1000
0010
0000
,
0100
0000
0001
0000
0010
0001
0010
0000
,
0011
0010
0110
0100
,
1100
0000
0000
0000
1000
0001
1000
0001
,
1000
0000
0010
0000
1000
0001
1000
0000
,
0001
0000
0010
0000
0001
0100
0001
0000
,
0100
0000
0010
0000
1000
0010
1000
0000
,
0010
0000
1000
0100
1000
0000
1100
0000
,
0100
0000
0010
0000
0001
0010
0100
0000
,
1000
0000
0010
0000
0100
0001
1000
0000
,
0010
1000
0010
0000
0100
0001
0100
0000
,
0001
0000
0010
0000
0100
1000
0001
0000
,
1001
0000
1001
0000
0000
0000
1000
0001
,
1000
0010
1000
0100
,
0010
0001
0010
0001
0000
0000
0100
0001
,
0100
0010
1000
0001
,
1000
0100
1000
0100
0000
0000
0010
0001
,
0010
0100
1000
0001
,
1001
0000
0110
0000
1001
0000
1000
0001
,
1000
0010
0100
0001
,
0010
0100
0010
0000
0100
0000
0010
0000
,
0110
0100
0010
1000
,
0001
0010
0001
0000
1000
0010
1000
0000
,
0001
0010
1000
0010
,
0001
0100
0001
0000
1000
0100
1000
0000
,
1100
0100
0010
0001
,
0011
0110
1100
1000
,
1010
0010
0110
0100
,
0101
1001
1010
1000
,
0010
0000
0100
0000
0001
0100
0001
0000
,
0100
0000
0010
0000
1000
0010
1000
0000
,
0010
0000
1000
0000
0100
1000
0100
0000
,
0010
0000
0001
0010
0001
0000
0011
0000
,
0010
0000
0100
0000
1000
0100
1000
0000
,
0100
0000
1000
0000
0001
1000
0001
0000
,
0100
0000
0010
0000
1000
0010
1000
0000
,
0001
0000
0010
0000
0001
0100
0001
0000
,
0100
0000
0010
0000
1000
0010
1000
0000
,
0100
1000
0001
0010
,
0001
0000
0100
0000
0010
1000
0010
0000
,
0100
0000
0001
1000
0001
0000
1001
0000
,
1000
0000
0010
0000
1000
0100
1000
0000
,
0100
0000
0010
0000
0001
0010
0001
0000
,
1000
0010
1000
0000
0001
0010
0001
0000
,
1000
0000
0010
0000
0100
0001
0100
0000
,
0010
1000
0100
0010
,
0001
1000
0001
0000
1000
0000
0000
0000
,
0001
0010
0100
1000
,
0010
0100
0000
0100
,
0110
0100
0001
0010
,
0100
1000
0001
1000
,
1010
0010
0110
0100
,
0101
1010
1100
0011
,
0001
0000
0010
0000
0100
1000
0100
0000
,
0010
0000
0001
0000
1000
0001
0010
0000
,
0001
0000
1000
0000
0010
0100
0001
0000
,
0010
0000
0100
0000
1000
0001
0010
0000
,
0001
0000
1000
0010
0100
0000
0110
0000
,
0100
0000
0001
0000
0010
0100
1000
0000
,
0001
0000
0010
0000
0001
1000
0010
0000
,
0100
0000
0001
0000
0010
0100
1000
0000
,
0001
0000
0010
0000
1000
0010
0001
0000
,
0100
0000
0010
0000
1000
0001
0010
0000
,
0001
0000
1000
0000
0100
1000
0001
0000
,
0010
0000
0001
0000
0100
0010
1000
0000
,
0010
0000
0100
0001
0010
0000
0011
0000
,
0010
0000
0100
0000
1000
0001
0010
0000
,
0001
0000
1000
0000
0010
1000
0100
0000
,
0010
0000
0001
0000
0100
0010
1000
0000
,
0001
0000
0010
0000
0001
1000
0010
0000
,
0110
0000
0000
0000
;
