#TITLE:祭;
#SUBTITLE:;
#ARTIST:喜多郎;
#TITLETRANSLIT:Matsuri;
#SUBTITLETRANSLIT:;
#ARTISTTRANSLIT:Kitaro;
#CREDIT:348;
#BANNER:Matsuri Banner.png;
#BACKGROUND:Matsuri Background.png;
#LYRICSPATH:;
#CDTITLE:;
#MUSIC:matsuri.mp3;
#OFFSET:-0.081;
#SAMPLESTART:41.042;
#SAMPLELENGTH:15.000;
#SELECTABLE:YES;
#BPMS:0.000=104.000;
#STOPS:;
#BGCHANGES:;

//---------------dance-single - ----------------
#NOTES:
     dance-single:
     :
     Beginner:
     2:
     0.101,0.212,0.055,0.000,0.000: // measure 1
0000
0000
0000
0000
,  // measure 2
0000
0000
0000
0000
,  // measure 3
0000
0000
0000
0000
,  // measure 4
0000
0000
0000
0000
,  // measure 5
1000
0000
1000
0000
,  // measure 6
0001
0000
0001
0000
,  // measure 7
1000
0000
1000
0000
,  // measure 8
0001
0000
0001
0000
,  // measure 9
0100
0000
0000
0000
,  // measure 10
0100
0000
0000
0000
,  // measure 11
0010
0000
0000
0000
,  // measure 12
0010
0000
0000
0000
,  // measure 13
1000
0000
0000
0000
,  // measure 14
1000
0000
0000
0000
,  // measure 15
0001
0000
0000
0000
,  // measure 16
0001
0000
0000
0000
,  // measure 17
1000
0000
0100
0000
,  // measure 18
0010
0000
0001
0000
,  // measure 19
1000
0000
0000
1000
,  // measure 20
0100
0000
0000
0100
,  // measure 21
0010
0000
0000
0010
,  // measure 22
0001
0000
0000
0001
,  // measure 23
1000
0000
0010
0000
,  // measure 24
0100
0000
0001
0000
,  // measure 25
1000
0000
0000
0000
,  // measure 26
0001
0000
0000
0000
,  // measure 27
0001
0000
0000
0001
,  // measure 28
0010
0000
0000
0010
,  // measure 29
0100
0000
0000
0100
,  // measure 30
1000
0000
0000
1000
,  // measure 31
0001
0000
0100
0000
,  // measure 32
0010
0000
1000
0000
,  // measure 33
0001
0000
0000
0000
,  // measure 34
1000
0000
0000
0000
,  // measure 35
0010
0000
1000
0000
,  // measure 36
0001
0000
0100
0000
,  // measure 37
0001
0000
1000
0000
,  // measure 38
0010
0000
0000
0000
,  // measure 39
0100
0000
0001
0000
,  // measure 40
1000
0000
0010
0000
,  // measure 41
1000
0000
0001
0000
,  // measure 42
0100
0000
0000
0000
,  // measure 43
0001
0000
0010
0000
,  // measure 44
0100
0000
1000
0000
,  // measure 45
0010
0000
0100
0000
,  // measure 46
0001
0000
0000
0000
,  // measure 47
1000
0000
0100
0000
,  // measure 48
0010
0000
0001
0000
,  // measure 49
0100
0000
0010
0000
,  // measure 50
1000
0000
0000
0000
,  // measure 51
1001
0000
0000
0000
,  // measure 52
0110
0000
0000
0000
,  // measure 53
1001
0000
0110
0000
,  // measure 54
1001
0000
0000
0000
0110
0000
0000
1001
;

//---------------dance-single - ----------------
#NOTES:
     dance-single:
     :
     Easy:
     5:
     0.264,0.343,0.425,0.291,0.000: // measure 1
0000
0000
0000
0000
,  // measure 2
0000
0000
0000
0000
,  // measure 3
0000
0000
0000
0000
,  // measure 4
0000
0000
0000
0000
,  // measure 5
1100
0000
1001
0000
,  // measure 6
0011
0000
1001
0000
,  // measure 7
0101
0000
0110
0000
,  // measure 8
1010
0000
0110
0000
,  // measure 9
1000
0100
1000
1100
,  // measure 10
0001
0010
0001
0011
,  // measure 11
1000
0001
1000
1001
,  // measure 12
0220
0000
0000
0330
,  // measure 13
0001
0100
0001
0101
,  // measure 14
1000
0010
1000
1010
,  // measure 15
0010
0100
0010
0110
,  // measure 16
2002
0000
0000
3003
,  // measure 17
0200
0300
1001
0000
,  // measure 18
2002
3003
0010
0000
,  // measure 19
1001
0000
1000
0100
,  // measure 20
1010
0000
0001
0010
,  // measure 21
0101
0000
1000
0010
,  // measure 22
1100
0000
0001
0100
,  // measure 23
0011
0000
0101
0000
,  // measure 24
1010
0000
1100
0000
,  // measure 25
0002
0000
2003
0000
,  // measure 26
3020
0000
0200
0330
,  // measure 27
0110
0000
0100
0001
,  // measure 28
1010
0000
0010
1000
,  // measure 29
0101
0000
0010
0001
,  // measure 30
1100
0000
0100
1000
,  // measure 31
0011
0000
1010
0000
,  // measure 32
1100
0000
0101
0000
,  // measure 33
0200
0000
0320
0000
,  // measure 34
2030
0000
0002
3003
,  // measure 35
0002
0100
0100
0103
,  // measure 36
0200
0010
0010
0310
,  // measure 37
0020
1000
1000
1030
,  // measure 38
2000
0000
0002
3003
,  // measure 39
0200
0001
0001
0301
,  // measure 40
0002
1000
1000
1003
,  // measure 41
2000
0010
0010
3010
,  // measure 42
0020
0000
0200
0330
,  // measure 43
0200
0001
0301
1010
,  // measure 44
0020
1000
1030
0101
,  // measure 45
2000
0001
3001
1001
,  // measure 46
0220
0000
0000
0330
,  // measure 47
0002
0010
0013
1100
,  // measure 48
2000
0100
3100
0011
,  // measure 49
0200
0010
0310
0110
,  // measure 50
2002
0000
0000
3003
,  // measure 51
1100
0000
0011
0000
,  // measure 52
0101
0000
1010
0000
,  // measure 53
1100
0011
0101
1010
,  // measure 54
1001
0000
0110
0000
0110
0000
0000
2002
,  // measure 55
0000
0000
3003
0000
;

//---------------dance-single - ----------------
#NOTES:
     dance-single:
     :
     Medium:
     7:
     0.363,0.386,0.212,0.291,0.059: // measure 1
0000
0000
0000
0000
,  // measure 2
0000
0000
0000
0000
,  // measure 3
0000
0000
0000
0000
,  // measure 4
0000
0000
0000
0000
,  // measure 5
1000
0000
0000
0100
0000
0000
1000
0000
0001
0000
0000
0010
0000
0000
0001
0000
,  // measure 6
1000
0000
0000
0010
0000
0000
1000
0000
0001
0000
0000
0100
0000
0000
0001
0000
,  // measure 7
1000
0000
0000
0010
0000
0000
0100
0000
0010
0000
0000
0100
0000
0000
0001
0000
,  // measure 8
0100
0000
0000
0001
0000
0000
1000
0000
0001
0000
0000
1000
0000
0000
0010
0000
,  // measure 9
1000
0000
0100
1000
0100
0000
0010
0001
,  // measure 10
0010
0000
0001
1000
0001
0000
0100
0010
,  // measure 11
0200
0000
0301
0000
0020
0000
1030
0001
,  // measure 12
2000
0000
0100
0000
0010
0000
3001
1000
,  // measure 13
0001
0000
0100
0001
0100
0000
0010
1000
,  // measure 14
0010
0000
0100
0010
0100
0000
0001
1000
,  // measure 15
0002
0103
2000
3010
,  // measure 16
2002
0000
0000
3003
,  // measure 17
1000
0000
0000
0100
0000
0000
0010
0000
0001
0000
0000
0010
0000
0000
0100
0000
,  // measure 18
1000
0000
0000
0001
0000
0000
1000
0000
1001
0000
0000
0000
0001
0000
0010
0000
,  // measure 19
0200
0000
1000
0000
1300
0000
1000
0100
,  // measure 20
0020
0000
0001
0000
0031
0000
0001
1000
,  // measure 21
0020
0000
1000
0000
1030
0000
1000
0001
,  // measure 22
0200
0000
0001
0000
0301
0000
0001
1000
,  // measure 23
0002
0000
0000
0103
0020
0000
0000
1030
,  // measure 24
0200
0000
0000
0310
0002
0000
1003
0100
,  // measure 25
2000
0000
0000
0100
3100
0000
0010
0001
,  // measure 26
0020
0000
0000
0001
0031
0000
1000
0010
,  // measure 27
0100
0000
0020
0100
0130
0000
0001
0100
,  // measure 28
0010
0000
0200
0010
0310
0000
1000
0010
,  // measure 29
1000
0000
0002
1000
1003
0000
0001
0100
,  // measure 30
0001
0000
2000
0001
3001
0000
0100
0010
,  // measure 31
0200
0000
0000
0301
2000
0000
0000
3001
,  // measure 32
0020
0000
0000
0130
2000
0000
3100
1000
,  // measure 33
0002
0000
0000
1000
1003
0000
0100
0001
,  // measure 34
2000
0000
0000
0001
3001
0000
0110
0000
,  // measure 35
1001
0000
1000
0100
0001
0000
0001
0100
,  // measure 36
1000
0000
1000
0010
0001
0000
0001
0010
,  // measure 37
1000
0000
0110
0000
0001
0000
0100
0010
,  // measure 38
0220
0000
0000
0000
0330
0000
0010
0100
,  // measure 39
0110
0000
0001
0100
1000
0000
1000
0100
,  // measure 40
0001
0000
0001
0010
1000
0000
1000
0010
,  // measure 41
0001
1001
1000
1001
,  // measure 42
2002
0000
0000
3003
,  // measure 43
0110
0000
0001
0010
0011
0000
1000
0100
,  // measure 44
1100
0000
0001
0100
0101
0000
1000
0010
,  // measure 45
1010
1000
0101
0001
,  // measure 46
2000
0000
0000
0001
0002
0000
3003
0000
,  // measure 47
1001
0000
0100
0001
0101
0000
0010
1000
,  // measure 48
1010
0000
0100
1000
1100
0000
0010
0001
,  // measure 49
0011
0010
1100
0100
,  // measure 50
0200
0000
0000
0010
0020
0000
0330
0000
,  // measure 51
0001
0000
0000
1100
0000
0000
0001
0000
0100
0000
0000
0101
0000
0000
0100
0000
,  // measure 52
0010
0000
0000
1010
0000
0000
0010
0000
1000
0000
0000
0011
0000
0000
1000
0000
,  // measure 53
0001
0010
0100
0010
0001
0010
0100
1000
,  // measure 54
0100
0001
0100
1000
0001
0100
0010
2002
,  // measure 55
0000
0000
3003
0000
;

//---------------dance-single - ----------------
#NOTES:
     dance-single:
     :
     Hard:
     9:
     0.540,0.579,0.268,0.291,0.429: // measure 1
0000
0000
0000
0000
,  // measure 2
0000
0000
0000
0000
,  // measure 3
0000
0000
0000
0000
,  // measure 4
0000
0000
0000
0000
,  // measure 5
1100
0000
0000
0001
0010
0000
0001
0000
0011
0000
0000
1000
0100
0000
1000
0000
,  // measure 6
0101
0000
0000
1000
0010
0000
1000
0000
1010
0000
0000
0001
0100
0000
0001
0000
,  // measure 7
0110
0000
0000
0001
1000
0000
0001
0000
1001
0000
0000
0100
0010
0000
0100
0000
,  // measure 8
0110
0000
0000
1000
0001
0000
1000
0000
1001
0000
0000
0010
0100
0000
0010
0000
,  // measure 9
0110
0000
0000
0000
1000
0000
0001
0010
0002
0000
0000
0000
1003
0000
0010
0100
,  // measure 10
0020
0000
0000
0000
1030
0000
0100
1000
0200
0000
0000
0000
1300
0000
0001
1000
,  // measure 11
0001
0000
0012
0000
1003
0000
1000
0100
,  // measure 12
0002
0000
0000
0000
0103
0000
1000
0001
1000
0000
0001
0000
1000
0000
0001
0000
,  // measure 13
1001
0000
0000
0000
0001
0000
1000
0100
2000
0000
0000
0000
3001
0000
0100
0010
,  // measure 14
0200
0000
0000
0000
0301
0000
0010
0001
0020
0000
0000
0000
0031
0000
1000
0100
,  // measure 15
1000
0000
0000
0000
2100
0000
0000
0000
3001
0000
0000
0000
0110
0000
0001
1000
,  // measure 16
0001
0000
0000
0000
0110
0000
0001
0010
0100
0000
1000
0000
0100
0000
0010
0000
,  // measure 17
1001
0000
0000
1000
0100
0000
0100
0000
1001
0000
0000
0001
0010
0000
0010
0000
,  // measure 18
1001
0000
0000
1000
0100
0000
0010
0000
1001
0000
0000
0000
0001
0000
0010
0000
,  // measure 19
0201
0000
0010
0010
0310
0000
1000
0100
,  // measure 20
1020
0000
0100
0100
0130
0000
0001
0100
,  // measure 21
2010
0000
0001
0001
3001
0000
1000
0010
,  // measure 22
0102
0000
1000
1000
1003
0000
1000
0001
,  // measure 23
1000
0000
0000
0001
0010
0000
0001
0010
0001
0000
0000
1000
0100
0000
1000
0100
,  // measure 24
1000
0000
0000
0010
1000
0000
0010
1000
0010
0000
0000
0100
0001
0000
0100
0001
,  // measure 25
0200
0000
0301
0010
1000
0010
0001
1000
,  // measure 26
0002
0000
0103
0010
1000
0010
0001
0010
,  // measure 27
1010
0000
0000
1000
0002
0000
0010
0000
0013
0000
0000
0000
0001
0000
0100
0000
,  // measure 28
0101
0000
0000
0001
2000
0000
0100
0000
3100
0000
0000
0000
1000
0000
0100
0000
,  // measure 29
1100
0000
0000
0010
0200
0000
0001
0000
0301
0000
0000
0000
0001
0000
0010
0000
,  // measure 30
0011
0000
0000
0100
0020
0000
1000
0000
1030
0000
0000
0000
0010
0000
0100
0000
,  // measure 31
0010
0000
0000
1000
0100
0000
0010
0001
0010
0000
0000
0001
0010
0000
0100
1000
,  // measure 32
0100
0000
0000
1000
0010
0000
0100
0001
0100
0000
0000
0001
0100
0000
0010
1000
,  // measure 33
0020
0000
0000
1030
0100
0000
0001
0100
1000
0000
0100
0000
0010
0000
0001
0000
,  // measure 34
2000
0000
0000
3001
0010
0000
0100
1000
0100
0000
0001
0000
0100
0000
1000
0000
,  // measure 35
0001
0000
0000
0001
0010
0000
0010
0001
0010
0000
0000
0100
1000
0000
1000
0100
,  // measure 36
1000
0000
0000
1000
0100
0000
0100
1000
0100
0000
0000
0010
0001
0000
0001
0010
,  // measure 37
0002
0000
1003
0000
0110
0000
0100
0010
,  // measure 38
1002
0000
0000
0000
1003
0000
0100
1000
0010
0000
0100
0001
0010
0000
0001
0000
,  // measure 39
1000
0000
0000
0010
1000
0000
1000
0010
1000
0000
0000
0001
0100
0000
0100
0001
,  // measure 40
0100
0000
0000
0100
0001
0000
0001
0100
0001
0000
0000
1000
0010
0000
0010
1000
,  // measure 41
0020
0000
0000
0000
0130
0000
0000
0000
1001
0000
0000
0000
0001
0000
0010
0100
,  // measure 42
2000
0000
0000
0000
3001
0000
0010
1000
0010
0000
0001
0000
0001
1000
0001
1000
,  // measure 43
0002
0000
0000
0100
0000
0000
0103
0001
0200
0000
0000
0010
0000
0000
0310
1000
,  // measure 44
0020
0000
0000
1000
0000
0000
1030
0010
2000
0000
0000
0001
0000
0000
3001
1000
,  // measure 45
0001
0000
1100
0000
0101
0000
1000
0001
,  // measure 46
2000
0000
0000
0000
3001
0000
0100
0010
0100
0000
0001
1000
0100
0000
0010
0001
,  // measure 47
2000
0000
0000
0100
0000
0000
3100
1000
0200
0000
0000
0010
0000
0000
0310
0100
,  // measure 48
0020
0000
0000
0001
0000
0000
0031
0010
0002
0000
0000
1000
0000
0000
1003
0001
,  // measure 49
1000
0000
0000
0000
0011
0000
0000
0000
1010
0000
0000
0000
1000
0000
0100
0010
,  // measure 50
0002
0000
0000
0000
1003
0000
0100
0010
0100
0000
1000
0010
0100
0000
0010
0100
,  // measure 51
0001
0010
0000
0010
0001
0000
1000
0000
1000
0100
0000
0100
1000
0000
0001
0000
,  // measure 52
0100
0001
0000
0001
0100
0000
0010
0000
0010
1000
0000
1000
0010
0000
1000
0000
,  // measure 53
0001
0000
0010
0001
0010
0000
0100
0010
0100
0000
1000
0100
1000
0000
0001
1000
,  // measure 54
0001
0010
0001
0010
0100
1000
0100
1000
0001
1000
0001
1000
0001
0000
2002
0000
,  // measure 55
0000
0000
3003
0000
;

//---------------dance-single - ----------------
#NOTES:
     dance-single:
     :
     Challenge:
     10:
     0.620,0.708,0.071,0.291,0.673: // measure 1
0000
0000
0000
0000
,  // measure 2
0000
0000
0000
0000
,  // measure 3
0000
0000
0000
0000
,  // measure 4
0000
0000
0000
0000
,  // measure 5
1000
0100
0000
0100
1000
0000
0001
0000
0100
0010
0000
0010
0100
0000
0001
0000
,  // measure 6
0010
0001
0000
0001
0010
0000
0001
0000
1000
0100
0010
0001
1000
0000
0001
0000
,  // measure 7
0001
0010
0000
0010
0001
0000
1000
0000
0010
0100
0000
0100
0010
0000
1000
0000
,  // measure 8
0100
1000
0000
1000
0100
0000
1000
0000
0001
0010
0100
1000
0001
0000
1000
0000
,  // measure 9
1001
0000
0000
0001
0100
0000
1000
0100
0001
0000
0000
1000
0010
0000
0001
0010
,  // measure 10
1000
0000
0000
0001
0010
0000
1000
0010
0001
0000
0000
1000
0100
0000
0001
0100
,  // measure 11
1000
0100
1000
0100
1000
0000
0001
0000
1000
0010
1000
0010
1000
0000
0100
0000
,  // measure 12
1000
0000
0010
1000
0100
0000
0010
0001
0200
0000
0000
0000
0310
0000
0100
0000
,  // measure 13
0110
0000
0000
1000
0001
0000
0001
0010
0100
0000
0000
0100
0010
0000
0010
0100
,  // measure 14
1000
0000
0000
0001
1000
0000
1000
0100
0010
0000
0000
0010
0100
0000
0100
0010
,  // measure 15
0001
0010
0001
0010
0001
0000
1000
0000
0001
0100
0001
0100
0001
0000
0010
0000
,  // measure 16
0001
0000
0010
0001
0100
0000
0010
1000
0200
0000
0000
0000
1300
0000
0001
0000
,  // measure 17
1000
0100
1000
0100
0010
0001
0010
0001
0100
0001
0100
0001
1000
0010
1000
0000
,  // measure 18
0001
0100
0001
0100
0010
1000
0010
1000
0001
1000
0001
1000
0001
0000
0100
0000
,  // measure 19
0020
0000
0000
1030
0001
0000
0100
0000
0002
0000
0000
0103
0010
0000
1000
0000
,  // measure 20
2000
0000
0000
3010
0100
0000
0001
0000
0200
0000
0000
0301
1000
0000
0010
0000
,  // measure 21
2000
0000
0000
3010
1000
0000
0001
0000
0002
0000
0000
0103
0001
0000
1000
0000
,  // measure 22
0020
0000
0000
1030
0001
0000
0010
0000
0200
0000
0000
1300
0001
0000
0100
0000
,  // measure 23
0010
0100
0000
0100
0010
0000
1000
0000
0001
1000
0000
1000
0001
0000
0100
0000
,  // measure 24
0100
0010
0000
0010
0100
0000
0001
0000
1000
0001
0000
0001
1000
0000
0010
0000
,  // measure 25
2000
0000
0000
3001
0010
0000
0010
0000
0100
1000
0200
0000
1000
0000
1300
0000
,  // measure 26
0002
0000
0000
1003
0100
0000
0100
0000
0010
0001
0020
0000
0001
0000
0031
0000
,  // measure 27
2000
0000
0000
3100
0010
0000
0001
0000
1000
0000
0100
0010
0100
0000
1000
0000
,  // measure 28
0002
0000
0000
0103
0010
0000
1000
0000
0001
0000
0010
0100
0010
0000
0001
0000
,  // measure 29
0200
0000
0000
0301
1000
0000
0010
0000
0100
0000
0001
1000
0001
0000
0100
0000
,  // measure 30
0020
0000
0000
1030
0001
0000
0100
0000
0010
0000
1000
0001
1000
0000
0010
0000
,  // measure 31
1000
0010
0000
0010
0100
0000
0001
0000
0100
0001
0000
0001
0010
0000
0010
0000
,  // measure 32
0001
0100
0000
0100
0010
0000
1000
0000
0010
1000
0000
1000
0100
0000
0100
0000
,  // measure 33
1000
0000
0100
1000
0100
0000
0010
0001
0020
0000
0001
0000
0031
0000
0010
0000
,  // measure 34
0001
0000
0100
0001
0100
0000
0010
1000
0010
0000
1000
0000
1001
0000
0000
0000
,  // measure 35
1000
0100
0000
0010
0001
0000
1000
0000
0001
0100
0000
0010
1000
0000
0001
0000
,  // measure 36
1000
0010
0000
0100
0001
0000
0100
0000
0001
0010
0000
0100
1000
0000
0010
0000
,  // measure 37
2100
0000
3001
0010
0012
0000
1003
0001
,  // measure 38
2000
0000
0000
3010
1000
0000
0100
0000
0001
0000
0100
0000
1000
0000
0001
0000
,  // measure 39
0100
0001
0000
1000
0010
0000
1000
0000
0010
1000
0000
0001
0100
0000
0001
0000
,  // measure 40
0010
0001
0000
1000
0100
0000
0010
0000
0100
1000
0000
0001
0010
0000
0100
0000
,  // measure 41
1020
0000
0130
0001
0201
0000
0310
0100
,  // measure 42
0020
0000
0000
0130
0001
0000
1000
0000
0010
0000
0100
0000
0110
0000
0000
0000
,  // measure 43
2000
0100
0000
3010
1000
0000
0001
1000
0002
0100
0000
0013
0001
0000
1000
0000
,  // measure 44
0020
0100
0000
1030
0010
0000
0100
0010
0200
0001
0000
0310
0100
0000
0010
0000
,  // measure 45
1000
0000
0100
0001
0100
0000
1000
0000
0001
0000
0010
1000
0010
0000
0001
1000
,  // measure 46
0002
0000
1000
0100
0010
0100
1003
0000
,  // measure 47
0002
0100
0000
1003
0001
0000
0100
0001
0200
0010
0000
0301
0100
0000
0001
0000
,  // measure 48
2000
0010
0000
3001
1000
0000
0010
1000
0020
1000
0000
0130
0010
0000
1000
0000
,  // measure 49
0001
0000
0010
1000
0010
0000
0001
0000
1000
0000
0100
0001
0100
0000
1000
0001
,  // measure 50
2000
0000
0001
0010
0100
0010
3001
0000
,  // measure 51
1000
0100
1000
0100
1000
0010
1000
0010
0100
0001
0100
0001
0010
0001
0010
0001
,  // measure 52
0100
0001
0100
0001
1000
0001
1000
0001
0100
0010
0100
0010
1000
0010
1000
0010
,  // measure 53
1000
0100
0010
0001
1000
0010
0100
0001
1000
0100
0010
0001
1000
0010
0100
0001
,  // measure 54
1000
0100
0010
0001
0100
0010
1000
0100
0010
0001
0100
0010
1000
0000
2002
0000
,  // measure 55
0000
0000
3003
0000
;
