#TITLE:Last Burning;
#SUBTITLE:;
#ARTIST:Dirty Androids;
#TITLETRANSLIT:;
#SUBTITLETRANSLIT:;
#ARTISTTRANSLIT:;
#CREDIT:;
#BANNER:bn.png;
#BACKGROUND:bg.png;
#LYRICSPATH:;
#CDTITLE:;
#MUSIC:Last Burning.mp3;
#OFFSET:-0.356;
#SAMPLESTART:52.040;
#SAMPLELENGTH:12.000;
#SELECTABLE:YES;
#BPMS:0.000=130.000;
#STOPS:;
#BGCHANGES:;

//---------------dance-single - Pandy (The AAA TEAM)----------------
#NOTES:
     dance-single:
     Pandy (The AAA TEAM):
     Hard:
     8:
     0.502,0.498,0.410,0.246,0.119:
0000
0000
0000
0000
,
0000
0000
0000
0000
,
0000
0000
0000
0000
,
0000
0000
0000
0000
,
0001
0001
0001
1000
,
0010
0000
0000
0000
0010
0000
0010
0100
0000
0010
0000
0100
0000
0010
0100
0000
,
0010
1000
1000
1000
,
0202
0000
0003
0300
,
0010
1000
0010
1000
0010
0000
0101
0000
,
0001
0010
0001
0010
0001
0000
1100
0000
,
0100
0010
0100
0010
0100
0000
1001
0000
,
0001
0100
0001
0100
0001
0000
1010
0000
,
1000
0100
0010
0100
1000
0000
0011
0000
,
0001
0100
0010
0100
0001
0000
1010
0000
,
0100
0010
1000
0010
0100
0000
1001
0000
,
0010
1000
0010
0001
0010
0000
0101
0001
,
0010
0010
0001
0001
1000
0001
0101
0000
,
0001
0001
1000
1000
0010
0100
0101
0000
,
0010
0010
0100
0100
0010
1000
1100
0000
,
1000
0001
0010
0001
0100
0010
0110
0000
,
0100
0001
1000
0100
0010
0001
0101
0000
,
0001
0100
0010
1000
0001
0010
0110
0000
,
0100
1000
0010
0100
0001
1000
1100
0000
,
1000
0000
1000
0000
0001
0000
0001
0100
0000
0010
0000
0100
0010
0000
1000
0000
,
0100
0010
0100
1000
0100
0010
0100
2000
,
3010
0100
0001
0010
0001
0100
0010
0200
,
0301
0010
0001
1000
0001
0100
0001
0020
,
0130
1000
0100
0010
0100
1000
0010
0200
,
0310
0100
0001
1000
1100
0000
0011
0000
,
0001
0100
1000
0100
0110
0000
1001
0000
,
1000
0001
0100
0010
,
1000
0000
0000
0000
0010
0000
0000
0000
0100
0000
0000
0000
0001
0000
0000
0000
1000
0000
0000
0000
0100
0000
0000
0000
0010
0000
0000
0000
0001
0000
0000
0000
0010
0000
0000
0000
0001
0000
0000
0000
0000
0000
0010
0000
0000
0001
0000
0000
,
0020
0000
0000
0000
,
0230
0000
0000
0000
,
2300
0000
0000
0000
,
3002
0000
0000
0000
,
0203
0010
0320
1000
,
2030
0100
3200
0010
,
0310
0000
0010
0000
0000
0100
0000
0000
1000
0000
0001
0000
0000
0001
0000
0000
,
0001
0010
0100
1000
0001
0010
0100
0000
,
0010
0001
0011
0000
0100
0000
1100
0000
,
0100
1000
1100
0000
0100
0000
0110
0000
,
0010
0100
1100
0000
1000
0000
1010
0000
,
0010
0100
0110
0000
0010
1000
1001
0000
,
0001
0100
1010
0000
0100
0000
1001
0000
,
0001
0100
0110
0000
0010
0000
1001
0000
,
1000
0100
0110
0000
0010
0000
0011
0000
,
0001
0100
0110
0000
0001
0000
0011
0000
,
0010
0000
0001
0000
0100
0000
0000
0020
0000
0000
0130
0000
0001
0000
0000
0020
,
0000
0000
0130
0000
1000
0000
0000
0200
0000
0000
0310
0000
0001
0000
1000
0000
,
0001
0000
1000
0000
0010
0000
0000
0200
0000
0000
0310
0000
1000
0000
0000
0002
,
0000
0000
0013
0000
0001
0000
0000
0200
0000
0000
0310
0000
1000
0000
0010
0000
,
1000
0000
0100
0000
0010
0000
0000
0002
0000
0000
0013
0000
0001
0000
0000
0200
,
0000
0000
0310
0000
1000
0000
0000
0200
0000
0000
0310
0000
0001
0000
0010
0000
,
0100
0000
1000
0000
0100
0000
0010
0002
2000
0000
0000
0000
0000
0000
3003
0000
,
1000
0000
0001
1000
0000
0002
0000
0020
0000
0000
0000
0000
0000
0000
0033
0000
,
0010
0001
0100
0001
0011
0000
1100
0000
,
1000
0100
1000
0100
0110
0000
1001
0000
,
0001
0100
0010
1000
1100
0000
0011
0000
,
0001
0100
0010
1000
1010
0000
0101
0000
,
0001
1000
0001
0010
0110
0000
0011
0000
,
0001
1000
0001
0100
0101
0000
0011
0000
,
0002
0023
0130
0000
1001
0000
0011
0000
,
0001
0100
0001
1000
0002
0000
0100
0103
;

//---------------dance-single - Pandy (The AAA TEAM)----------------
#NOTES:
     dance-single:
     Pandy (The AAA TEAM):
     Medium:
     6:
     0.402,0.419,0.459,0.066,0.000:
0000
0000
0000
0000
,
0000
0000
0000
0000
,
0000
0000
0000
0000
,
0000
0000
0000
0000
,
0001
0001
0001
1001
,
1000
1000
1000
1000
,
0010
1000
0100
0001
,
0200
0010
1000
0310
,
0100
0110
1001
0101
,
0001
0000
1000
0000
0100
1000
1010
0000
,
0100
0010
1010
1001
,
1000
0000
0001
0000
0010
0100
0110
0000
,
0010
0001
0101
1100
,
1000
0000
0010
0000
0100
0001
0011
0000
,
0001
1000
1010
0110
,
0100
0000
0101
0000
0001
1000
1100
0100
,
1000
0100
0010
0000
0100
0000
1100
0000
,
1000
0001
0100
0000
0010
0000
0101
0000
,
0100
0010
1000
0000
0100
0000
0110
0000
,
0100
1000
0010
0000
0100
0001
1000
0000
,
0001
0000
0001
0000
0001
0100
0010
0000
,
0100
0000
0100
0000
0100
0010
1000
0000
,
0100
0000
0100
0000
0100
1000
0010
0000
,
0100
0010
1000
0000
1000
0001
0010
0000
,
0001
1000
0001
0000
1001
0000
0110
0000
,
0010
1000
0010
0000
1010
0000
0101
0000
,
0001
0010
0001
0000
0011
0000
1100
0000
,
1000
0100
0010
0000
0110
0000
1001
0000
,
0001
0100
1000
0000
0100
0000
0110
0000
,
0010
0001
0010
0000
0010
0000
0101
0000
,
0001
1000
0100
0000
0100
1000
0010
0010
,
0200
1000
0010
0001
,
0320
0000
0000
0030
,
2000
0000
0000
3000
,
0002
0000
0000
0003
,
0020
0000
0000
0030
,
0000
0100
0000
0010
,
0000
0001
0000
1000
,
0001
1000
0001
0000
0001
0100
0001
0000
,
0001
0100
0010
1000
0100
0010
0110
0000
,
0001
0000
1001
0000
0001
0100
1000
0000
,
1100
0000
0110
0000
0010
1000
0001
0000
,
0011
0000
0011
0000
0001
0100
0010
0000
,
0110
0000
1001
0000
0001
0100
0101
0000
,
0001
0000
1100
0000
0100
1000
0010
0000
,
0100
0000
0101
0000
0001
0100
0010
0000
,
0100
0000
1001
0000
0001
1000
0100
0000
,
1000
0000
0110
0000
0010
1000
1001
0000
,
0001
0100
1000
0000
1000
0100
0001
0000
,
0001
0100
0010
0000
0100
0100
0100
0000
,
0010
1000
0001
0000
0001
0010
0100
0000
,
0010
0001
1000
0000
1000
0010
0001
0010
,
1000
0100
1000
0000
0100
1000
0010
0000
,
0100
0001
1000
0000
0001
0001
0100
0000
,
0010
1000
0010
0100
,
0001
0010
0100
2000
0200
0000
0000
3300
,
1000
0100
0110
1001
,
0001
0100
1010
0101
,
0001
1000
1100
0110
,
0100
1000
1010
0101
,
0001
1000
0010
0000
0100
0000
0101
0000
,
0001
0100
1000
0000
1100
0000
0110
0000
,
0010
0010
1000
0000
0001
0000
0010
0000
,
0001
0000
0100
0000
0110
0000
1001
1001
;

//---------------dance-single - Pandy (The AAA TEAM)----------------
#NOTES:
     dance-single:
     Pandy (The AAA TEAM):
     Easy:
     4:
     0.264,0.288,0.139,0.057,0.000:
0000
0000
0000
0000
,
0000
0000
0000
0000
,
0000
0000
0000
0000
,
0000
0000
0000
0000
,
0001
0000
0000
0000
,
1000
0000
0000
0000
,
0010
0000
0100
0000
,
0202
0000
0300
0003
,
1000
1000
1000
0000
,
0001
0001
0001
0000
,
0100
0100
0100
0000
,
0010
0010
1000
0010
,
0100
0100
0100
0000
,
0001
0001
1000
0000
,
1000
1000
0010
0000
,
0100
0001
1000
0001
,
0100
0100
0100
0000
,
0010
0010
0010
0000
,
1000
0001
1000
0000
,
0100
0010
0100
0000
,
1000
0001
0100
0000
,
0001
1000
0010
0000
,
0100
0010
1000
0000
,
0001
1000
0001
0200
,
0310
1000
0010
0110
,
0010
1000
0001
0011
,
0001
0100
0010
0101
,
0010
0010
0100
0100
,
0001
1000
0100
0110
,
0100
1000
0010
0101
,
0001
1000
0100
1000
,
0020
0000
0000
0030
,
0100
0000
0000
0000
,
0001
0000
0000
0000
,
1000
0000
0000
0000
,
0100
0000
0000
0000
,
0010
1001
0100
0100
,
0010
1001
0100
0100
,
0010
0010
0001
0001
,
1000
0000
0001
0000
1000
0000
0001
1000
,
0001
0001
1000
1000
,
0010
0010
0100
0101
,
0001
0001
1000
1000
,
0001
0001
1000
1100
,
1000
1000
0010
0010
,
1000
1000
0010
0110
,
0100
0100
0001
0001
,
0100
0100
0001
0011
,
0001
1000
0100
1000
,
0001
0100
0001
1000
,
1000
0001
0010
0001
,
1000
0010
1000
0001
,
0010
0100
1000
0100
,
0010
0100
1000
0001
,
0100
0001
0100
1000
,
0100
0010
2000
0000
,
3001
0001
1000
1001
,
0001
0100
0010
0110
,
0010
1000
0100
0110
,
0100
1000
0010
0100
,
0010
1000
0001
0011
,
0001
0100
0010
1010
,
0020
0130
0010
1000
,
0001
0000
0010
0000
0200
0000
0010
0300
;

//---------------dance-double - Pandy (The AAA Team)----------------
#NOTES:
     dance-double:
     Pandy (The AAA Team):
     Challenge:
     9:
     0.493,0.576,0.320,0.164,0.103: // measure 1
00000000
00000000
00000000
00000000
,  // measure 2
00000000
00000000
00000000
00000000
,  // measure 3
00000000
00000000
00000000
00000000
,  // measure 4
00000000
00000000
00000000
00000000
,  // measure 5
10000000
10000000
10000000
11000000
,  // measure 6
01000000
00100000
00010000
00100000
,  // measure 7
00001000
00100000
00001000
00000000
00001000
00010000
00000100
00000000
,  // measure 8
00000100
00000001
00000100
00001000
00000010
00010000
00011000
00000000
,  // measure 9
00001000
00100000
00010000
01000000
00100000
00000000
10010000
00000000
,  // measure 10
10000000
01000000
00010000
01000000
00100000
00000000
01100000
00000000
,  // measure 11
00100000
00001000
00010000
00000100
00001000
00000000
00010100
00000000
,  // measure 12
00000100
00001000
00000010
00000100
00000001
00000010
00001000
00000010
,  // measure 13
00000001
00000100
00000010
00001000
00000100
00000000
00010100
00000000
,  // measure 14
00000100
00010000
00001000
00100000
00010000
00100000
10000000
00000000
,  // measure 15
10000000
00100000
00010000
01000000
00010000
00100000
00101000
00000000
,  // measure 16
00001000
00010000
00011000
00000000
00001000
00100000
00110000
00000000
,  // measure 17
00010000
01000000
00100000
10000000
01000000
00100000
00010000
00000000
,  // measure 18
00010000
01000000
00100000
10000000
01000000
00100000
00010000
00000000
,  // measure 19
00100000
00001000
00010000
00000100
00010000
00000100
00001000
00000000
,  // measure 20
00001000
00000100
00000010
00000001
00000010
00000100
00001000
00000001
,  // measure 21
00001000
00000010
00000100
00000001
00001000
00000100
00001100
00000000
,  // measure 22
00000100
00010000
00001000
00100000
10000000
00100000
00110000
00000000
,  // measure 23
00010000
01000000
00100000
10000000
01000000
00100000
00110000
00000000
,  // measure 24
00001000
00000000
00001000
00000000
00010000
00000000
00000100
00010000
00000000
00001000
00000000
00100000
01000000
00000000
10000000
00000000
,  // measure 25
00010000
01000000
00010000
10000000
00100000
10000000
10100000
00000000
,  // measure 26
10000000
01000000
00100000
01000000
10000000
00010000
00110000
00000000
,  // measure 27
00100000
00001000
00010000
00000100
00001000
00000100
00010100
00000000
,  // measure 28
00010000
00000100
00001000
00000100
00000001
00000100
00000010
00000002
,  // measure 29
00000103
00000010
00001000
00000100
00000001
00000100
00000110
00000000
,  // measure 30
00000010
00000100
00001000
00000100
00010000
00001000
00101000
00000000
,  // measure 31
01010000
00000000
10100000
00000000
10010000
00000000
11000000
10000000
,  // measure 32
10000000
00000000
00000000
00000000
01000000
00000000
00000000
00000000
00100000
00000000
00000000
00000000
01000000
00000000
00000000
00000000
00100000
00000000
00000000
00000000
00001000
00000000
00000000
00000000
00010000
00000000
00000000
00000000
00000100
00000000
00000000
00000000
00001000
00000000
00000000
00000000
00000010
00000000
00000000
00000000
00000000
00000000
00000100
00000000
00000000
00000001
00000000
00000000
,  // measure 33
00002000
00000000
00000000
00000000
,  // measure 34
00003020
00000000
00000000
00000000
,  // measure 35
00020030
00000000
00000000
00000000
,  // measure 36
00032000
00000000
00000000
00000000
,  // measure 37
00013000
00000100
00000100
00010000
,  // measure 38
00001000
00100000
00100000
00001000
,  // measure 39
00100000
00010000
01000000
10000000
,  // measure 40
01000000
00000000
00100000
00000000
10000000
00000000
00010000
00100000
,  // measure 41
00102000
00000000
00013000
00000000
00010000
00000010
00000110
00000000
,  // measure 42
00000102
00000000
00000013
00000000
00000001
00000100
00001000
00000100
,  // measure 43
00000120
00000000
00001030
00000000
00000100
00010000
00001000
00000000
,  // measure 44
00201000
00000000
00310000
00000000
00010000
01000000
10000000
01000000
,  // measure 45
01200000
00000000
10300000
00000000
10000000
01000000
01100000
00000000
,  // measure 46
02100000
00000000
03100000
00000000
00100000
00001000
00010000
00000100
,  // measure 47
00001200
00000000
00010300
00000000
00010000
00000010
00000100
00000000
,  // measure 48
00000100
00000010
00001000
00000000
00001000
00000001
00000010
00000000
,  // measure 49
00000010
00000000
00000100
00000000
00001000
00000000
00000100
00010000
00000000
00000000
00001000
00000000
00001000
00000000
00000000
00100000
,  // measure 50
00000000
00000000
00010000
00000000
00010000
00000000
00000000
01000000
00000000
00000000
10000000
00000000
01000000
00000000
00100000
00000000
,  // measure 51
10000000
00000000
00010000
00000000
00100000
00000000
00001000
00010000
00000000
00000000
00000100
00000000
00001000
00000000
00000000
00000010
,  // measure 52
00000000
00000000
00000100
00000000
00000001
00000000
00000000
00000010
00000000
00000000
00000100
00000000
00001000
00000000
00000010
00000000
,  // measure 53
00001000
00000000
00000100
00000000
00010000
00000000
00001000
01000000
00000000
00000000
00100000
00000000
01000000
00000000
00000000
00010000
,  // measure 54
00000000
00000000
00100000
00000000
00010000
00000000
00000000
01000000
00000000
00000000
00100000
00000000
10000000
00000000
10000000
00000000
,  // measure 55
01000000
00000000
00100000
00000000
00001000
00000000
00010000
00000010
00000000
00000010
00000000
00000010
00000000
00000000
00000000
00000000
,  // measure 56
00000100
00000000
00000010
00001000
00000000
00000200
00000000
00020000
00000000
00000000
00000000
00000000
00030300
00000000
00000000
00000000
,  // measure 57
00000100
00010000
00001000
00100000
01000000
00010000
01010000
00000000
,  // measure 58
01000000
10000000
01000000
00010000
00000100
00001000
00000110
00000000
,  // measure 59
00000001
00000100
00000001
00000010
00000100
00001000
00001100
00000000
,  // measure 60
00001000
00000001
00000010
00001000
00000010
00000001
00000220
00000000
,  // measure 61
00000330
00000010
00001000
00000100
00010000
00001000
00101000
00000000
,  // measure 62
00001000
00100000
10000000
00100000
00010000
01000000
00100000
00000000
,  // measure 63
02020000
03030000
00110000
00000000
00100000
00001000
00011000
00000000
,  // measure 64
00001000
00010000
01000000
00100000
02200000
00000000
03000000
00300000
;

//---------------dance-single - Pandy (The AAA Team)----------------
#NOTES:
     dance-single:
     Pandy (The AAA Team):
     Beginner:
     1:
     0.105,0.209,0.057,0.008,0.000:
0000
0000
0000
0000
,
0000
0000
0000
0000
,
0000
0000
0000
0000
,
0000
0000
0000
0000
,
1000
0000
0000
0000
,
0001
0000
0000
0000
,
0100
0000
0000
0000
,
0010
0000
0000
0000
,
1001
0000
0000
0000
,
1000
0000
1000
0000
,
1000
0000
0000
0000
,
0001
0000
0001
0000
,
0001
0000
0000
0000
,
0100
0000
0100
0000
,
0100
0000
0000
0000
,
0010
0000
0010
0000
,
0110
0000
0000
0000
,
0001
0000
0000
0000
,
1000
0000
0000
0000
,
0010
0000
0100
0000
,
0001
0000
0000
0000
,
1000
0000
0000
0000
,
0001
0000
0000
0000
,
0010
0000
0010
0000
,
0010
0000
0000
0000
,
0100
0000
0000
0000
,
1000
0000
0000
0000
,
0010
0000
0100
0000
,
0001
0000
0000
0000
,
1000
0000
0000
0000
,
0010
0000
0010
0000
,
0200
0000
0000
0300
,
0110
0000
0000
0000
,
0000
0000
0000
0000
,
0000
0000
0000
0000
,
0000
0000
0000
0000
,
1000
0000
0001
0000
,
1000
0000
0001
0000
,
1000
0000
1000
0000
,
1000
1000
1000
1000
,
1001
0000
0000
0000
,
0010
0000
0000
0000
,
0100
0000
0000
0000
,
0001
0000
0001
0000
,
0001
0000
0000
0000
,
0010
0000
0000
0000
,
0001
0000
0000
0000
,
1000
0000
1000
0000
,
0100
0000
0000
0000
,
1000
0000
0000
0000
,
0010
0000
0000
0000
,
0100
0000
0100
0000
,
0100
0000
0000
0000
,
0010
0000
0000
0000
,
1000
0000
0000
0000
,
0001
0001
0001
0000
,
1001
0000
0000
0000
,
0010
0000
0000
0000
,
0110
0000
0000
0000
,
1000
0000
0000
0000
,
0001
0001
0001
0000
,
1000
1000
1000
0000
,
0110
0000
0000
0000
,
0010
0000
0100
0100
;
