#TITLE:Halfway Around the World;
#SUBTITLE:(Almighty Definitive Mix);
#ARTIST:A-Teens;
#TITLETRANSLIT:;
#SUBTITLETRANSLIT:;
#ARTISTTRANSLIT:;
#CREDIT:Chewphoria~;
#BANNER:I WANNA DANCE WITH SOMEBODY (Q-Tex Club Mix).PNG;
#BACKGROUND:I WANNA DANCE WITH SOMEBODY (Q-Tex Club Mix)-bg.PNG;
#LYRICSPATH:;
#CDTITLE:Dancemania TRANCE Z.png;
#MUSIC:07 - A-Teens - Halfway Around The World (Almighty Definitive Mix).mp3;
#OFFSET:0.387;
#SAMPLESTART:58.210;
#SAMPLELENGTH:15.000;
#SELECTABLE:YES;
#BPMS:0.000=136.000;
#STOPS:;
#BGCHANGES:;

//---------------dance-single - ----------------
#NOTES:
     dance-single:
     :
     Hard:
     8:
     0.404,0.475,0.071,0.118,0.031:
0000
0000
0000
0000
,
0000
0000
0000
0000
,
0000
0000
0000
0000
,
0000
0000
0000
0000
,
0000
0000
0000
0000
,
0000
0000
0000
0000
,
0000
0000
0000
0000
,
0000
0000
0000
0000
,
0000
0000
0000
0000
,
0000
0000
1000
0100
1000
0010
0100
0001
,
1000
0000
0100
0010
0001
0100
0010
0100
,
0001
0000
0100
0001
0100
0010
1000
0100
,
0010
0001
0000
1000
0000
0100
0000
0010
,
0000
0001
1000
0000
0001
0000
1000
0100
,
0001
0000
0100
0000
1000
0000
0010
0100
,
0001
0000
1000
0000
0001
0000
1000
0010
,
0001
0000
0010
0000
1000
0000
0100
0010
,
0001
0000
0000
0000
1000
0000
0100
0000
0010
0000
0001
0000
0100
0001
0100
0001
,
0100
0000
0001
0000
1000
0000
0100
0000
1000
0000
0010
0000
0100
0010
0100
0010
,
0100
0001
1000
0000
0001
0000
1000
0010
,
0001
0000
0010
0000
1000
0000
0100
0010
,
0001
0000
0100
0000
0010
0000
1000
0001
,
0010
0000
0001
0000
0100
0000
0010
1000
,
0001
0000
0000
0000
1000
0000
0001
0000
0100
0000
0001
0000
1000
0100
1000
0100
,
1000
0000
0001
0000
1000
0000
0010
0000
0100
0000
0001
0000
0010
0001
0010
0001
,
0010
0001
0200
0000
0301
0000
1000
0100
,
0010
0000
0002
0000
0103
0000
0010
1000
,
0001
2000
0100
0010
,
3100
0000
0010
0001
0100
1000
0100
0001
,
0010
0020
0001
0100
,
0031
0010
0001
1010
,
0101
0000
0001
0100
0010
2000
0000
3001
,
0000
1000
0010
0100
0001
0020
0000
0031
,
0000
0000
0001
0010
1000
0010
0001
0000
,
1000
0001
2000
0000
3010
0100
0000
0100
,
0000
0010
1000
0001
0100
0000
0001
1000
,
0100
0000
1000
0010
0100
0010
1000
0100
,
0010
0010
0001
0100
1000
0100
0001
0000
,
0100
0010
2000
0000
3001
0010
0000
0100
,
0000
0010
0001
0100
0010
0000
1000
0001
,
0010
0000
0100
1000
0010
0100
0001
0010
,
0100
0100
2000
0000
0100
0000
0001
0000
,
3100
0000
0010
0001
0100
0000
0010
1000
,
0001
0200
0010
1000
,
0310
0100
0000
0100
0001
0000
0110
0000
,
1001
0000
0001
0100
1000
0100
0001
0010
,
1000
0010
0001
1000
0001
0100
0010
1000
,
0100
0010
0002
0000
0000
0000
0000
0000
,
0000
0000
0000
0000
,
0003
0000
1000
0010
0001
0010
1000
0000
,
1000
0010
0200
0000
0301
1000
0000
0010
,
0000
0100
0001
1000
0010
0000
1000
0001
,
0010
0000
0100
1000
0001
0100
0010
1000
,
0100
0100
1000
0010
0001
0010
1000
0000
,
0100
0010
0002
0000
0103
0010
0000
0100
,
0000
0001
0100
0010
1000
0000
0001
0010
,
0100
0000
1000
0010
0001
0010
1000
0100
,
0010
0010
0002
0000
0010
0000
1000
0000
,
0013
0000
0001
0100
0010
0000
1000
0100
,
0010
0200
1000
0010
,
1300
0100
0000
0100
0010
0000
0011
0000
,
0101
1001
0000
0000
,
0000
0110
0000
0000
,
0000
0000
0001
1000
0001
0010
0001
0100
,
0010
0000
0010
0100
0010
1000
0100
0010
,
0001
0000
0001
0100
0001
0100
0010
1000
,
0100
0000
0100
1000
0001
0100
0010
1000
,
0100
1001
0000
0000
;

//---------------dance-single - ----------------
#NOTES:
     dance-single:
     :
     Medium:
     6:
     0.307,0.370,0.055,0.094,0.000:
0000
0000
0000
0000
,
0000
0000
0000
0000
,
0000
0000
0000
0000
,
0000
0000
0000
0000
,
0000
0000
0000
0000
,
0000
0000
0000
0000
,
0000
0000
0000
0000
,
0000
0000
0000
0000
,
0000
0000
0000
0000
,
0000
0000
1000
0001
0100
0000
0001
0000
,
1000
0100
0000
0001
0000
0100
0000
1000
,
0000
0010
0000
0100
0001
0000
0010
0000
,
0001
0010
0000
1000
0000
0010
0000
0001
,
0000
0100
0010
0000
1000
0000
0100
0000
,
0001
0100
1000
0010
,
0100
0001
0100
0010
,
0010
0100
0001
1000
,
0100
0000
1000
0000
1000
0000
0010
0001
,
0010
0000
1000
0000
1000
0000
0100
0001
,
0100
1000
0010
0100
,
0100
0001
0010
0100
,
0100
0010
0001
1000
,
1000
0100
0001
0100
,
0100
0000
1000
0000
0010
0000
0100
0001
,
0100
0000
0001
0000
0010
0000
0100
1000
,
0100
2000
3010
0100
,
0001
2000
3100
0010
,
0001
0021
0001
0100
,
0001
0100
0031
0100
,
0010
2010
0010
0100
,
0010
0100
3010
1010
,
1001
0000
0001
1000
0001
1000
0000
0001
,
0000
0000
0100
0010
0100
0010
0000
0100
,
0000
0001
1000
0100
,
0010
0002
0000
0003
1000
0100
0000
1000
,
0000
0001
0100
0010
1000
0000
1000
0100
,
0010
0000
0001
0000
1000
0000
0001
0001
,
0100
0010
1000
0010
,
0100
0002
0000
0003
1000
0100
0000
1000
,
0000
0010
0001
0010
1000
0000
0100
0010
,
0001
0000
1000
0000
0100
0000
1000
1000
,
0001
2000
0100
0001
,
0100
0010
0001
0010
,
3100
0020
1000
0100
,
0130
0001
0000
0001
0100
0000
0101
0000
,
1001
0000
0001
0010
0001
0000
0001
0100
,
0001
0000
0100
0010
0100
0000
0010
1000
,
0100
0010
0001
0000
0000
0000
0000
0000
,
0000
0000
0000
0000
,
0000
0001
0100
0001
,
0100
0020
0000
0000
1030
0100
0000
1000
,
0000
0001
0100
0010
0100
0000
0001
0100
,
0001
0000
1000
0000
0100
0000
0010
0010
,
0001
0100
0001
0100
,
0010
2000
0000
3000
0100
0001
0000
0100
,
0000
1000
0010
0100
0001
0000
0001
0100
,
0010
0000
1000
0000
0100
0000
0010
0010
,
0001
0200
0010
0001
,
0010
0001
0310
1000
,
0100
0020
0001
0100
,
0031
0100
0000
0100
0010
0000
1000
0000
,
1100
0001
0000
0000
,
0000
1000
0000
0000
,
0000
0000
0001
0100
0010
0000
0100
0000
,
0001
0010
0000
1000
0000
0010
0000
0001
,
0000
0100
0000
0010
1000
0000
0100
0000
,
1000
0001
0000
0100
0000
0001
0000
0100
,
0000
0010
1000
0000
0000
0000
0000
0000
;

//---------------dance-single - ----------------
#NOTES:
     dance-single:
     :
     Easy:
     4:
     0.240,0.264,0.039,0.133,0.000:
0000
0000
0000
0000
,
0000
0000
0000
0000
,
0000
0000
0000
0000
,
0000
0000
0000
0000
,
0000
0000
0000
0000
,
0000
0000
0000
0000
,
0000
0000
0000
0000
,
0000
0000
0000
0000
,
0000
0000
0000
0000
,
0000
1000
1000
0100
,
1000
0010
0100
0001
,
0001
0100
0010
0100
,
0100
0001
1000
0100
,
0100
0020
0000
0031
,
0100
0001
0100
0010
,
1000
0200
0000
1300
,
0100
0100
1000
0010
,
0100
0001
0001
0100
,
0100
0001
0001
0010
,
0010
2000
0000
3010
,
0010
0001
0100
0010
,
1000
0200
0000
1300
,
0001
0100
0100
0001
,
0010
0100
0100
1000
,
1000
0010
0010
0001
,
0001
0020
1030
0100
,
1000
0002
0103
0001
,
0100
0020
0000
0000
,
0130
0001
1000
1000
,
0100
0020
0000
0000
,
0031
0100
0010
1000
,
0100
1000
0001
1000
,
0001
0100
0001
0100
,
0010
1000
0100
1000
,
0001
0002
0000
0103
,
0100
0010
1000
0100
,
1000
0001
0100
0001
,
0100
0010
1000
0100
,
1000
0002
0000
0103
,
0100
0001
0010
1000
,
0010
0001
0001
0100
,
0001
0200
0001
0000
,
0001
0000
0301
0000
,
0001
0200
0010
0000
,
0010
0000
0310
1001
,
1001
1000
1000
0100
,
0100
0001
0001
0010
,
0010
2000
0000
0000
,
0000
0000
0000
0000
,
3000
0001
0001
0100
,
0010
2000
0000
0000
,
3001
0001
0100
0010
,
0010
0100
0001
1000
,
1000
0100
1000
0001
,
0100
0020
0000
1030
,
0100
1000
1000
0001
,
0100
0010
0010
0100
,
0001
2000
0100
0000
,
0100
0000
0100
0000
,
3100
0020
0001
0000
,
0001
0000
0001
0000
,
0031
0101
0000
0000
,
0000
1001
0000
0000
,
0000
1000
0100
1000
,
0001
0000
0001
0000
,
0001
0001
0100
0001
,
1000
0000
1000
0000
,
0001
1001
0000
0000
;

//---------------dance-single - Copied from----------------
#NOTES:
     dance-single:
     Copied from:
     Beginner:
     1:
     0.140,0.185,0.031,0.063,0.000: // measure 1
0000
0000
0000
0000
,  // measure 2
0000
0000
0000
0000
,  // measure 3
0000
0000
0000
0000
,  // measure 4
0000
0000
0000
0000
,  // measure 5
0000
0000
0000
0000
,  // measure 6
0000
0000
0000
0000
,  // measure 7
0000
0000
0000
0000
,  // measure 8
0000
0000
0000
0000
,  // measure 9
0000
0000
0000
0000
,  // measure 10
0000
0100
0000
0100
,  // measure 11
0000
0001
0000
0001
,  // measure 12
0000
0010
0000
0010
,  // measure 13
0000
0100
0000
0000
,  // measure 14
0000
1000
1000
0000
,  // measure 15
1000
0000
1000
0000
,  // measure 16
0001
0000
0001
0000
,  // measure 17
0001
0000
0100
0000
,  // measure 18
0100
0100
0010
0010
,  // measure 19
0010
0000
0100
0100
,  // measure 20
0100
0000
0001
0000
,  // measure 21
0001
0000
1000
0000
,  // measure 22
1000
0000
0100
0000
,  // measure 23
0100
0000
0010
0000
,  // measure 24
0010
0001
0001
0001
,  // measure 25
0000
1000
1000
1000
,  // measure 26
0000
0002
0000
0003
,  // measure 27
0000
2000
0000
3000
,  // measure 28
0000
0001
0000
0001
,  // measure 29
0000
0001
0001
0001
,  // measure 30
0000
0100
0000
0100
,  // measure 31
0000
0010
0010
0010
,  // measure 32
0000
2000
0000
3000
,  // measure 33
0000
0002
0000
0003
,  // measure 34
0000
1000
1000
1000
,  // measure 35
0000
0100
0000
0100
,  // measure 36
0000
0010
0010
0010
,  // measure 37
0000
0001
0001
0001
,  // measure 38
0000
0100
0000
0100
,  // measure 39
0000
1000
0000
1000
,  // measure 40
0000
0100
0100
0100
,  // measure 41
0000
0001
0001
1001
,  // measure 42
0000
2000
0000
0000
,  // measure 43
0000
3000
0000
0000
,  // measure 44
0000
0002
0000
0000
,  // measure 45
0003
0000
0000
1000
,  // measure 46
0001
0100
0000
0000
,  // measure 47
0000
0010
0000
0000
,  // measure 48
0000
1001
0000
0000
,  // measure 49
0000
0000
0000
0000
,  // measure 50
0000
1000
1000
1000
,  // measure 51
0000
0001
0000
0001
,  // measure 52
0000
0100
0000
0100
,  // measure 53
0000
0001
0000
0001
,  // measure 54
0000
0010
0000
0010
,  // measure 55
0000
1000
0000
1000
,  // measure 56
0000
0001
0000
0001
,  // measure 57
0000
1000
0000
1000
,  // measure 58
0000
0200
0000
0000
,  // measure 59
0300
0000
0000
0000
,  // measure 60
0000
0020
0000
0000
,  // measure 61
0030
0000
0000
0001
,  // measure 62
1001
0001
0000
0000
,  // measure 63
0000
0100
0000
0000
,  // measure 64
0000
0010
0010
0010
,  // measure 65
0000
1000
0000
1000
,  // measure 66
0000
0001
0001
0001
,  // measure 67
0000
0100
0000
0100
,  // measure 68
0000
1001
0000
0000
;
