#TITLE:Elisha;
#SUBTITLE:;
#ARTIST:DJ YOSHITAKA;
#TITLETRANSLIT:;
#SUBTITLETRANSLIT:;
#ARTISTTRANSLIT:;
#GENRE:;
#CREDIT:Telperion;
#BANNER:Elisha-bn.png;
#BACKGROUND:Elisha-bg.png;
#LYRICSPATH:;
#CDTITLE:;
#MUSIC:Elisha.ogg;
#OFFSET:-0.196213;
#SAMPLESTART:10.899000;
#SAMPLELENGTH:20.716999;
#SELECTABLE:YES;
#DISPLAYBPM:92.500000:185.000000;
#BPMS:0.000000=185.000000,62.000000=370.000000,63.000000=138.750000,63.500000=277.500000,64.000000=92.500000,144.250000=201.188995,145.000000=444.000000,146.000000=317.143005,147.000000=444.000000,148.000000=317.141998,149.000000=444.000000,150.000000=317.143005,151.000000=444.000000,152.000000=317.143005,153.000000=444.000000,154.000000=317.141998,155.000000=444.000000,156.000000=317.143005,157.000000=444.000000,158.000000=317.143005,159.000000=444.000000,160.000000=317.141998,161.000000=443.959991,162.000000=460.493988,163.000000=431.928986,164.000000=504.192017,165.000000=543.997009,166.000000=640.987976,167.000000=645.995972,168.000000=578.234009,169.000000=581.921997,170.000000=661.995972,171.000000=699.815002,172.000000=599.864014,173.000000=731.744995,174.000000=660.674011,175.000000=715.478027,176.000000=92.500000,177.000000=185.000000,270.000000=370.000000,271.000000=138.750000,271.500000=277.500000,272.000000=92.500000;
#STOPS:58.500000=0.162154
,59.000000=0.162177
,62.000000=0.040521
,62.250000=0.040544
,62.500000=0.040521
,62.750000=0.040544
,266.500000=0.162154
,267.000000=0.162177
,270.000000=0.040544
,270.250000=0.040544
,270.500000=0.040544
,270.750000=0.040544
;
#DELAYS:;
#TIMESIGNATURES:0.000000=4=4
;
#BGCHANGES:;
#KEYSOUNDS:;
#ATTACKS:;

//---------------dance-single - Telperion----------------
#NOTES:
     dance-single:
     Telperion:
     Hard:
     9:
     0.398,0.760,0.122,0.203,0.240,303.000,15.000,25.000,35.000,0.000,0.000,0.000,0.398,0.760,0.122,0.203,0.240,303.000,15.000,25.000,35.000,0.000,0.000,0.000:
0000
0000
0000
0000
,
0000
0000
0000
0000
,
0000
0000
0000
0000
,
0000
0000
0000
0000
,
0000
0000
0000
0000
,
0000
0000
0000
0000
,
0000
0000
0000
0000
,
0000
0000
0000
0000
,
0000
0000
1000
0100
0001
0000
0100
0000
,
0000
0000
1000
0100
0001
0000
0200
0000
,
0300
0000
1000
0010
0001
0000
0010
0000
,
1000
0000
2001
0000
3020
0000
1030
0001
,
0002
0000
1003
0010
0001
0000
0110
0000
,
0100
0001
0010
0000
0110
0000
0100
1000
,
0001
1000
0010
0000
0100
0010
0010
0010
,
0100
0001
0100
0010
2000
0000
3100
0000
,
0020
0000
0000
0000
,
0002
0000
0000
0033
,
2000
0000
0000
0000
,
0020
3000
0200
0330
,
0002
0000
0000
0000
,
0200
0000
0000
0303
,
0020
0000
0000
0000
,
0002
0003
0200
0330
,
1000
0000
0000
0000
1000
0000
0000
0000
0001
0000
0000
0100
0000
0000
0010
0000
0000
0000
0000
0000
0100
0000
0000
0000
0001
0000
0000
0000
0000
0000
0000
0000
,
1000
0000
0000
0000
0001
0000
0000
0000
0010
0000
0000
0100
0000
0000
1000
0000
0000
0000
0000
0000
0001
0000
0000
0000
0000
0000
0000
0000
0001
0000
0000
0000
,
0100
0000
0000
0000
0010
0000
0000
0000
1000
0000
0000
0010
0000
0000
0100
0000
0000
0000
0000
0000
0001
0000
0000
0000
0000
0000
0000
0000
1000
0000
0000
0000
,
0000
0001
0000
0010
0100
0000
1000
0000
0000
0000
0001
0000
0000
0000
1000
0000
,
0001
0000
0000
0000
0001
0000
0000
0000
1000
0000
0000
0010
0000
0000
0100
0000
0000
0000
0000
0000
0001
0000
0000
0000
1000
0000
0000
0001
0000
0000
0100
0000
,
0001
0000
0000
0000
1000
0000
0000
0000
0100
0000
0000
0010
0000
0000
0100
0000
0000
0000
0000
0000
1000
0000
0000
0000
0000
0000
0000
0000
1000
0000
0000
0000
,
0001
0000
0000
0000
0010
0000
0000
0000
0001
0000
0000
1000
0000
0000
0010
0000
0000
0000
0000
0000
0100
0000
0000
0000
0010
0000
0000
1000
0000
0000
0010
0000
,
0100
0000
0000
0000
0001
0000
0000
0000
0010
0000
0000
0001
0000
0000
1000
0000
0001
0000
0000
0000
0100
0000
0000
0000
0020
0000
0000
0000
0000
0000
0000
0000
,
1030
0000
0000
0000
0010
0000
0000
0000
0100
0000
0000
0001
0000
0000
0100
0000
0000
0000
0010
0000
1000
0000
0000
0000
0100
0000
0000
1000
0000
0000
0100
0000
,
0000
0000
0010
0000
0001
0000
1000
0000
0001
0000
0000
0100
0000
0000
0010
0000
0000
0000
1000
0000
0010
0000
1000
0000
0001
0000
0000
1000
0000
0000
0100
0000
,
0010
0000
0000
0100
0000
0000
1000
0000
0001
0000
0000
0100
0000
0000
0010
0000
0001
0000
0000
0010
0000
0000
1000
0000
0001
0000
0000
0010
0000
0000
0100
0000
,
0001
0100
0010
0000
0001
1000
0010
0100
1000
0100
0001
0000
1000
0001
0100
0010
,
M200
000M
M000
000M
,
M000
000M
M000
000M
,
M000
000M
M000
000M
,
M000
000M
M000
000M
,
M000
000M
M000
000M
,
M000
000M
M000
000M
,
M000
000M
M000
000M
,
M000
000M
M000
000M
,
M3MM
0000
1000
0001
1000
0010
0100
0000
,
0010
0000
1001
0000
0001
0010
0001
1000
,
0100
0010
0000
0100
1000
0001
0100
0000
,
0010
0000
1010
0000
1000
0001
0010
0001
,
1000
0010
0000
0100
0001
0010
0001
0000
,
1100
0000
0001
0000
1000
1000
0010
0100
,
0010
0000
0000
0001
0000
0010
1000
0000
,
0001
0101
1001
0011
,
1100
0000
0001
0010
0001
1000
0020
0000
,
0100
0000
0000
0000
1030
0000
0000
0000
0010
0000
1000
0000
0001
0000
0000
0010
,
0000
0100
1000
0010
1000
0001
0020
0000
,
0100
0000
0031
0000
1000
0001
0000
0001
,
0000
0010
0001
0100
0010
0001
0010
0000
,
0100
0000
0000
0000
0010
0000
0000
0000
0100
0000
0010
0000
1000
0000
0000
0100
,
0000
0010
0000
1000
0000
0010
0001
0000
,
1000
1010
1001
1100
,
0001
0000
0000
0000
0100
0000
0001
0000
0100
0000
0010
0000
1000
0000
0010
0100
,
0000
0000
0010
0000
1000
0000
0100
0010
0000
0000
0100
0000
1000
0000
0010
0100
,
0000
0000
0000
0000
0001
0000
0010
0000
0100
0000
1000
0000
0001
0000
0010
0100
,
0000
0000
0010
0000
0001
0000
0100
0010
0000
0000
1000
0000
0000
0001
0000
0000
,
1000
0000
0000
0000
0011
0000
0000
0010
0000
0000
0100
0000
0000
1000
0000
0000
,
0001
0000
0000
0000
1010
0000
0000
0010
0000
0000
0100
0000
0000
0001
0000
0000
,
1000
0100
0001
0001
0100
0010
0010
0100
,
1000
0010
0100
0010
2000
0000
3002
0000
,
0023
0000
0000
0000
,
0000
0000
0000
0030
,
0200
0000
0000
0000
,
2300
0000
0002
0000
,
3003
0000
0000
0000
;

//---------------dance-single - Telperion----------------
#NOTES:
     dance-single:
     Telperion:
     Medium:
     7:
     0.311,0.468,0.032,0.309,0.000,226.000,4.000,38.000,35.000,0.000,0.000,0.000,0.311,0.468,0.032,0.309,0.000,226.000,4.000,38.000,35.000,0.000,0.000,0.000:
0000
0000
0000
0000
,
0000
0000
0000
0000
,
0000
0000
0000
0000
,
0000
0000
0000
0000
,
0000
0000
0000
0000
,
0000
0000
0000
0000
,
0000
0000
0000
0000
,
0000
0000
0000
0000
,
0000
2000
0001
3200
,
0300
0100
0020
0000
0001
0000
0230
0000
,
0300
2000
0001
3020
,
0030
0010
0200
0000
0302
0000
0010
0000
,
2003
3002
1000
0023
,
0030
0010
0100
0000
0020
0000
0031
1000
,
0001
1000
0020
0000
0130
0002
0000
0000
,
0103
0010
2000
3002
,
0023
0000
0000
0000
,
0030
0000
0000
0000
,
0200
0000
0000
0000
,
2300
0000
3002
0000
,
0023
0000
0000
0000
,
0030
0000
0000
0000
,
0200
0000
0000
0000
,
2300
0000
3020
0030
,
0100
0001
0100
0010
,
1000
0000
0100
0000
0010
0000
0100
1000
,
0010
0000
0100
0000
0001
0000
0100
0010
,
0000
1000
0100
0010
0000
0001
0010
0100
,
1000
0000
0001
0000
0100
1000
0100
0001
,
1000
0000
0001
0000
0010
1000
0010
0001
,
0100
0000
0010
0000
0100
1000
0100
0010
,
1000
0010
0100
0000
0001
0010
0200
0000
,
0320
1000
0001
0230
,
2300
0010
0001
3020
,
0130
0010
0100
0010
0100
1000
0100
1000
,
0001
0010
0100
0010
1000
0100
0010
0100
,
M002
M000
M000
M000
,
M000
M000
M000
M000
,
M000
M000
M000
M000
,
M000
M000
M000
M000
,
M000
M000
0M00
0M00
,
0M00
0M00
0M00
0M00
,
0M00
00M0
00M0
00M0
,
00M0
00M0
00M0
00M0
,
MMM3
0000
1000
0000
0001
1000
0010
0000
,
0100
0000
0010
0000
0000
0000
1000
0100
,
1000
0100
0010
0000
0001
1000
0010
0000
,
0100
0000
0010
0000
0000
0000
1000
0001
,
1000
0000
0010
0000
1000
0001
0010
0000
,
0100
0000
0010
0000
0000
0000
0001
0100
,
0001
0000
0000
0010
0000
0100
1000
0000
,
0010
0100
0100
0010
,
0100
0000
0110
0000
1000
0001
0100
0000
,
0001
0000
0010
0000
0000
0000
0100
1000
,
0100
1000
0001
0000
1000
0001
0100
0000
,
0010
0000
1000
0000
0000
0000
0010
0100
,
0010
0100
0001
0000
0001
0010
0100
0000
,
1000
0000
0100
0000
1000
0010
0100
0000
,
0001
0000
0010
0100
0000
0010
0001
0000
,
0100
0010
0020
0130
,
0000
0000
1001
0000
0001
0000
1000
0100
,
1000
0000
0100
0010
0100
0000
0010
0001
,
0010
0000
0001
0000
1000
0000
0001
0100
,
0001
0000
0100
0010
0100
0000
0010
0000
,
1000
0000
1010
0000
0001
0000
0010
0001
,
1000
0000
0011
0000
1000
0000
0001
1000
,
0010
0100
0010
1000
0000
0002
0000
0000
,
1003
0100
0020
0230
,
2300
0000
0000
0000
,
3000
0000
0000
0000
,
0002
0000
0000
0000
,
0203
0000
0020
0000
,
0330
0000
0000
0000
;

//---------------dance-single - Telperion----------------
#NOTES:
     dance-single:
     Telperion:
     Easy:
     3:
     0.181,0.292,0.024,0.089,0.000,142.000,3.000,11.000,34.000,0.000,0.000,0.000,0.181,0.292,0.024,0.089,0.000,142.000,3.000,11.000,34.000,0.000,0.000,0.000:
0000
0000
0000
0000
,
0000
0000
0000
0000
,
0000
0000
0000
0000
,
0000
0000
0000
0000
,
0000
0000
0000
0000
,
0000
0000
0000
0000
,
0000
0000
0000
0000
,
0000
0000
0000
0000
,
0000
1000
0001
0010
,
0000
0001
1000
0010
,
0000
0100
0010
1000
,
0000
1000
0100
0010
,
0001
1000
0001
0010
,
0000
0001
1000
0010
,
0000
0100
0010
0000
,
0010
0100
0001
0000
,
2000
0000
0000
0000
,
3000
0000
0000
0000
,
0002
0000
0000
0000
,
0203
0000
0300
0000
,
0002
0000
0000
0000
,
0003
0000
0000
0000
,
0020
0000
0000
0000
,
0230
0000
1300
0001
,
0100
0000
0100
0000
,
0010
0000
0010
0000
,
1000
0000
1000
0000
,
0001
0000
1000
0000
,
0100
0000
0100
0000
,
0010
0000
0010
0000
,
0001
0000
0010
0000
,
0100
0000
1000
0001
,
0100
0100
0010
0010
,
1000
1000
0001
0001
,
1000
0001
1000
0001
,
1000
1001
0001
1001
,
02M0
00M0
00M0
00M0
,
00M0
00M0
00M0
00M0
,
00M0
00M0
00M0
00M0
,
00M0
00M0
00M0
00M0
,
00M0
00M0
00M0
00M0
,
00M0
00M0
00M0
00M0
,
00M0
00M0
00M0
00M0
,
00M0
00M0
00M0
00M0
,
M30M
0010
0100
0001
,
0000
0100
0001
1000
,
0000
0100
1000
0010
,
0000
1000
0100
0010
,
0000
0001
1000
0010
,
0000
0100
0100
0100
,
0000
0010
1000
0001
,
0000
0010
0010
0100
,
0000
0110
0010
0001
,
0000
1000
0001
0100
,
0000
0010
0100
0001
,
0000
0100
0010
1000
,
0000
0001
0010
0100
,
0000
1000
0001
0100
,
0000
0010
1000
0010
,
0100
0001
0001
0001
,
0000
1000
1000
0001
,
1000
0001
0001
0100
,
0000
0010
0010
1000
,
0010
1000
0100
0100
,
0000
0010
0000
0100
,
1000
0010
0000
0100
,
0001
0010
0000
0000
,
0100
0000
0100
0000
,
0200
0000
0000
0000
,
0300
0000
0000
0000
,
0020
0000
0000
0000
,
0032
0000
2000
0000
,
3003
0000
0000
0000
;

//---------------dance-single - Blank----------------
#NOTES:
     dance-single:
     Blank:
     Beginner:
     1:
     0.077,0.166,0.032,0.008,0.000,61.000,4.000,1.000,17.000,0.000,0.000,0.000,0.077,0.166,0.032,0.008,0.000,61.000,4.000,1.000,17.000,0.000,0.000,0.000:
0000
0000
0000
0000
,
0000
0000
0000
0000
,
0000
0000
0000
0000
,
0000
0000
0000
0000
,
0000
0000
0000
0000
,
0000
0000
0000
0000
,
0000
0000
0000
0000
,
0000
0000
0000
0000
,
0000
0001
0000
0000
,
0000
0000
0000
0000
,
0000
1000
0000
0000
,
0000
0000
0000
0000
,
0000
0010
0000
0000
,
0000
0010
0000
0000
,
0000
0100
0000
0000
,
0100
0000
0000
0000
,
0110
0000
0000
0000
,
0000
0000
0000
0000
,
0001
0000
0000
0000
,
1000
0000
0000
0000
,
0100
0000
0000
0000
,
0000
0000
0000
0000
,
0010
0000
0000
0000
,
0100
0000
0000
0000
,
1000
0000
1000
0000
,
0001
0000
0001
0000
,
0100
0000
0100
0000
,
0010
0000
0010
0000
,
1000
0000
0001
0000
,
1000
0000
0001
0000
,
0010
0000
0100
0000
,
1000
0000
0100
0000
,
0010
0000
0000
0000
,
0010
0000
0000
0000
,
0010
0000
0010
0000
,
0010
0010
0010
0010
,
M020
0000
M000
0000
,
M000
0000
M000
0000
,
M000
0000
M000
0000
,
M000
0000
M000
0000
,
M000
0000
M000
0000
,
M000
0000
M000
0000
,
M000
0000
M000
0000
,
M000
0000
M000
0000
,
M030
0001
0000
0000
,
0000
0100
0000
0000
,
0000
0010
0000
0000
,
0000
0100
0000
0000
,
0000
0001
0000
0000
,
0000
0010
0000
0000
,
0000
0100
0000
0000
,
0000
1000
0000
0000
,
0000
0010
0000
0000
,
0000
0100
0000
0000
,
0000
0010
0000
0000
,
0000
1000
0000
0000
,
0000
0001
0000
0000
,
0000
0010
0000
0000
,
0000
0001
0000
0000
,
0000
0100
0000
0100
,
0000
0100
0000
0000
,
0000
0000
0000
0000
,
0000
0110
0000
0000
,
0000
0000
0000
0000
,
0000
1001
0000
0000
,
0000
0000
0000
0000
,
0000
0110
0000
0000
,
0100
0000
0010
0000
,
0100
0000
0000
0000
;

//---------------dance-double - Telperion----------------
#NOTES:
     dance-double:
     Telperion:
     Hard:
     9:
     0.383,0.848,0.057,0.284,0.150,288.000,7.000,35.000,52.000,0.000,0.000,0.000,0.383,0.848,0.057,0.284,0.150,288.000,7.000,35.000,52.000,0.000,0.000,0.000: // measure 1
00000000
00000000
00000000
00000000
,  // measure 2
00000000
00000000
00000000
00000000
,  // measure 3
00000000
00000000
00000000
00000000
,  // measure 4
00000000
00000000
00000000
00000000
,  // measure 5
00000000
00000000
00000000
00000000
,  // measure 6
00000000
00000000
00000000
00000000
,  // measure 7
00000000
00000000
00000000
00000000
,  // measure 8
00000000
00000000
00000000
00000000
,  // measure 9
00000000
00000000
10000000
00010000
00000000
10000000
00100000
00000000
,  // measure 10
00010000
00001000
00000000
00000010
00000001
00000000
00000200
00000000
,  // measure 11
00000300
00000000
00000001
00000100
00000000
00000010
00000100
00000000
,  // measure 12
00001000
00000100
00002000
00003000
00020000
00030000
01000000
10000000
,  // measure 13
00200000
00000000
01300000
00100000
00000000
01000000
00001000
00000000
,  // measure 14
00010000
00000100
00002000
00000000
00003100
00000000
00010000
00000100
,  // measure 15
00000010
00000100
00002000
00000000
00003001
00000100
00000010
00001000
,  // measure 16
00000010
00000100
00001000
00000000
00020000
00000000
02030000
00000000
,  // measure 17
23000000
00000000
00000000
00000000
,  // measure 18
00020000
00000000
00000000
30030000
,  // measure 19
00002000
00000000
00000000
00000000
,  // measure 20
00200000
00300000
02000000
03003000
,  // measure 21
00020000
00000000
00000000
00000000
,  // measure 22
00000200
00000000
00000000
00030300
,  // measure 23
00002000
00000000
00000000
00000000
,  // measure 24
00000020
00000030
00003002
00000013
,  // measure 25
00000110
00000000
00010000
00000000
00000100
00000000
00000010
00001000
,  // measure 26
00010000
00000000
00100000
00000000
01000000
00100000
10000000
00100000
,  // measure 27
01000000
00000000
00001000
00000000
00010000
01000000
00100000
00001000
,  // measure 28
00000000
00010000
00000000
00000100
00000010
00000000
00000100
00000000
00001000
00000000
00000001
00000000
00000010
00000000
00001000
00000000
,  // measure 29
00020000
00000000
00000000
00000000
00031000
00000000
01000000
00000000
00010000
00000000
01000000
00100000
00000000
10000000
00000000
00100000
,  // measure 30
02000000
00000000
00000000
00000000
03001000
00000000
00010000
00000000
00000100
00000000
00001000
00000100
00000000
00000010
00000000
00000001
,  // measure 31
00000200
00000000
00000000
00000000
00000310
00000000
00000100
00000000
00001000
00000000
00010000
00001000
00000000
00100000
00000000
00000000
,  // measure 32
00000000
01000000
00000000
00100000
00001000
00000000
00010000
00000000
00001000
00000000
00000000
00000000
00002000
00000000
00000000
00000000
,  // measure 33
00103000
00000000
00000000
00000000
00000000
00000000
00000000
00000000
01000000
00000000
00000000
10000000
00000000
00000000
00100000
00000000
00000000
00000000
00000000
00000000
00000000
00000000
00000000
00000000
01000000
00000000
00000000
00010000
00000000
00000000
00100000
00000000
,  // measure 34
01000000
00000000
00000000
00000000
00000000
00000000
00000000
00000000
00100000
00000000
00000000
00001000
00000000
00000000
00010000
00000000
00100000
00000000
00000000
00000000
00000000
00000000
00000000
00000000
00010000
00000000
00000000
00001000
00000000
00000000
00000100
00000000
,  // measure 35
00000010
00000000
00001000
00000001
00000010
00000000
00000100
00010000
00001000
00000000
00100000
00010000
01000000
00000000
00100000
10000000
,  // measure 36
01000000
00010000
02000000
00000000
13000000
00100000
00020000
00000000
00031000
00000010
00002000
00003000
00010000
00001000
00000200
00000301
,  // measure 37
00000020
M0000000
0M000000
M0000000
,  // measure 38
0M000000
M0000000
00M00000
M0000000
,  // measure 39
00M00000
0M000000
000M0000
0M000000
,  // measure 40
000M0000
M0000000
00M00000
0M000000
,  // measure 41
000M0000
0M000000
00M00000
000M0000
,  // measure 42
0000M000
00000M00
0000MM00
000MM000
,  // measure 43
00MM0000
0MM00000
MM000000
MM000000
,  // measure 44
MMM00000
0MMM0000
00MMM000
0M0M0M00
,  // measure 45
MMMMMM3M
00000000
00000011
00000000
00000001
00000100
00001000
00000000
,  // measure 46
00000100
00000000
00000110
00000000
00000001
00000010
00000000
00001000
,  // measure 47
00000000
00010000
00001000
00000000
00010000
00100000
10000000
00000000
,  // measure 48
01000000
00000000
01100000
00000000
00010000
10000000
00000000
00100000
,  // measure 49
00000000
00010000
00001000
00000000
00100000
01000000
10000000
00000000
,  // measure 50
00010000
00000000
01001000
00000000
00010000
00000100
00000000
00001000
,  // measure 51
00000000
00000100
00000000
00000010
00000000
00001000
00010000
00000000
,  // measure 52
00101000
00000000
00010000
00000000
00100000
01000000
10000000
00010000
,  // measure 53
00100000
00010000
01000000
00000000
00100000
10000000
00010000
00000000
,  // measure 54
00100000
00000000
01000000
00010000
01000000
00100000
01000000
10000000
,  // measure 55
01000000
00010000
00001000
00000000
00000010
00000100
00001000
00000000
,  // measure 56
00000010
00000000
00000100
00001000
00000100
00000010
00000100
00001000
,  // measure 57
00010000
00100000
01000000
00000000
00001000
00010000
00000100
00000000
,  // measure 58
00010000
00000000
00001000
00000000
00100000
01000000
00100000
00000000
,  // measure 59
00010000
10000000
00000000
00100000
00000000
00010000
00001000
00000100
,  // measure 60
00000010
00000100
00000001
00000000
00001000
00000000
00002002
00000000
,  // measure 61
00003003
00000000
00000000
00000000
00000001
00000000
00000010
00000000
00000100
00000000
00001000
00000000
00000100
00000000
00000000
00010000
,  // measure 62
00000000
00000000
00001000
00000000
01000000
00000000
00000000
00001000
00000000
00000000
00010000
00000000
00100000
00000000
00000000
00010000
,  // measure 63
00000000
00000000
00001000
00000000
00100000
00000000
01000000
00000000
10000000
00000000
01000000
00000000
00100000
00000000
00000000
00001000
,  // measure 64
00000000
00000000
00010000
00000000
00000010
00000000
00000000
00010000
00000000
00000000
00001000
00000000
00000000
00000100
00000000
00000000
,  // measure 65
00000010
00000000
00000100
00000000
00000001
00000000
00000000
00000010
00000000
00000000
00001000
00000000
00000000
00000000
00010000
00000000
,  // measure 66
00001000
00000000
00000000
00000000
01000000
00000000
00000000
00100000
00000000
00000000
00010000
00000000
00000000
00000000
00001000
00000000
,  // measure 67
00010000
01000000
10000000
10000000
00010000
10000000
01000000
10000000
,  // measure 68
00100000
01000000
00001000
00010000
00000200
00000000
00000320
00000000
,  // measure 69
00000032
00000000
00000000
00000000
,  // measure 70
00000003
00000000
00000000
00000000
,  // measure 71
00002000
00000000
00000000
00000000
,  // measure 72
00003020
00000000
00000200
00000000
,  // measure 73
00000330
00000000
00000000
00000000
;

//---------------dance-double - Telperion----------------
#NOTES:
     dance-double:
     Telperion:
     Medium:
     5:
     0.268,0.351,0.000,0.276,0.000,197.000,0.000,34.000,69.000,0.000,0.000,0.000,0.268,0.351,0.000,0.276,0.000,197.000,0.000,34.000,69.000,0.000,0.000,0.000:
00000000
00000000
00000000
00000000
,
00000000
00000000
00000000
00000000
,
00000000
00000000
00000000
00000000
,
00000000
00000000
00000000
00000000
,
00000000
00000000
00000000
00000000
,
00000000
00000000
00000000
00000000
,
00000000
00000000
00000000
00000000
,
00000000
00000000
00000000
00000000
,
00000000
00100000
00002000
00023000
,
00030000
00000010
00020000
00001000
,
01030000
00100000
00002000
00023000
,
00030000
00000000
00000020
00000000
00000230
00000000
00000301
00001000
,
00000100
00000010
00002000
00023000
,
00030000
00001000
00100000
00000000
02000000
00000000
13000000
00010000
,
10000000
00000000
00100000
00000000
01000000
00020000
00000000
00000000
,
00130000
01000000
00200000
00302000
,
00023000
00000000
00000000
00000000
,
00030000
00000000
00000000
00000000
,
00000200
00000000
00000000
00000000
,
00002300
00000000
00003200
00000000
,
00020300
00000000
00000000
00000000
,
00030000
00000000
00000000
00000000
,
00002000
00000000
00000000
00000000
,
02003000
00000000
03200000
00300000
,
10000000
01000000
00010000
01000000
,
10000000
00100000
00010000
00100000
,
01000000
00001000
00100000
00001000
,
00010000
00000010
00010000
00000100
,
00000010
00000000
00000001
00000000
00000100
00000010
00001000
00000000
,
00000100
00000000
00010000
00000000
00001000
01000000
00010000
00000000
,
00100000
00000000
01000000
00000000
00010000
01000000
10000000
00100000
,
00000000
01000000
00100000
00000000
01000000
00000000
00002000
00000000
,
00010000
00000000
00010000
00000000
,
00023000
00000000
00001000
00000000
,
00031000
00010000
00001000
00010000
,
00001000
00010000
00001000
00010000
00000100
00010000
00001000
01000000
,
0020000M
0000000M
0000000M
0000000M
,
0000000M
0000000M
0000000M
0000000M
,
0000000M
0000000M
0000000M
0000000M
,
0000000M
0000000M
0000000M
0000000M
,
0000000M
0000000M
0000000M
0000000M
,
000000MM
000000MM
000000MM
00000MMM
,
00000MMM
00000MMM
0000MMMM
0000MMMM
,
0000MMMM
000MMMMM
000MMMMM
000MMMMM
,
MM3MMMMM
00000000
10000000
00000000
01000000
00100000
01000000
00000000
,
10000000
00010000
01000000
10000000
,
01000000
00000000
00010000
00000000
00100000
01000000
00100000
00000000
,
00001000
00010000
00100000
00010000
,
00001000
00000000
00000100
00000000
00000010
00001000
00000010
00000000
,
00000100
00001000
00000100
00000001
,
00000010
00000000
00000000
00000100
00000000
00001000
00000100
00000000
,
00000010
00000100
00010000
00001000
,
00000100
00000000
00000001
00000000
00000100
00000010
00000100
00000000
,
00000001
00000010
00000100
00010000
,
00000100
00000000
00001000
00000000
00000010
00000100
00000010
00000000
,
00001000
00000100
00010000
00001000
,
00010000
00000000
01000000
00000000
00100000
00010000
00100000
00000000
,
01000000
00000000
10000000
00000000
00010000
01000000
00010000
00000000
,
00100000
00000000
00000000
00001000
00000000
00010000
00000010
00000000
,
00000100
00002000
00003200
00000302
,
00000003
00000010
00000001
00000010
,
00000100
00010000
00001000
00010000
,
01000000
00100000
00010000
00100000
,
01000000
00010000
01000000
10000000
,
00010000
01000000
00100000
00010000
,
00001000
00000100
00000001
00000010
,
00001000
00000000
00010000
00000000
00000100
00002000
00000000
00000000
,
00003100
00000010
00000002
00000203
,
00000320
00000000
00000000
00000000
,
00000030
00000000
00000000
00000000
,
00000200
00000000
00000000
00000000
,
00000302
00000000
00002000
00000000
,
00003003
00000000
00000000
00000000
;

//---------------dance-double - Telperion----------------
#NOTES:
     dance-double:
     Telperion:
     Easy:
     3:
     0.184,0.263,0.000,0.211,0.000,133.000,0.000,26.000,1.000,0.000,0.000,0.000,0.184,0.263,0.000,0.211,0.000,133.000,0.000,26.000,1.000,0.000,0.000,0.000:
00000000
00000000
00000000
00000000
,
00000000
00000000
00000000
00000000
,
00000000
00000000
00000000
00000000
,
00000000
00000000
00000000
00000000
,
00000000
00000000
00000000
00000000
,
00000000
00000000
00000000
00000000
,
00000000
00000000
00000000
00000000
,
00000000
00000000
00000000
00000000
,
00000000
10000000
01000000
00100000
,
00000000
01000000
00100000
00020000
,
00030000
00100000
00001000
00010000
,
00000000
00001000
00010000
00000010
,
00000100
00000001
00000100
00000010
,
00000000
00000100
00000010
00001000
,
00000000
00000100
00010000
00000000
,
00001000
00010000
00002000
00000000
,
02003000
00000000
00000000
00000000
,
03000000
00000000
00000000
00000000
,
00020000
00000000
00000000
00000000
,
00230000
00000000
00300000
00000000
,
00002000
00000000
00000000
00000000
,
00003000
00000000
00000000
00000000
,
02000000
00000000
00000000
00000000
,
03200000
00000000
00300000
20000000
,
30020000
00000000
00000000
00000000
,
00230000
00000000
00000000
00000000
,
02300000
00000000
00000000
00000000
,
03200000
00000000
00302000
00000000
,
00023000
00000000
00000000
00000000
,
00030020
00000000
00000000
00000000
,
00000230
00000000
00000000
00000000
,
00000302
00000000
00002003
00000100
,
00003001
00000000
00000001
00000000
,
00000010
00000000
00000010
00000000
,
00000100
00000000
00000100
00000000
,
00010000
01000000
00100000
01000000
,
20000000
00000000
00000000
00000000
,
00000000
00000000
00000000
00000000
,
00000000
00000000
00000000
00000000
,
00000000
00000000
00000000
00000000
,
00000000
00000000
00000000
00000000
,
00000000
00000000
00000000
00000000
,
00000000
00000000
00000000
00000000
,
00000000
00000000
00000000
00000000
,
3000000M
10000000
00100000
01000000
,
00000000
00010000
01000000
00100000
,
00000000
01000000
00001000
00010000
,
00000000
00000100
00010000
00001000
,
00000000
00000100
00000010
00000100
,
00000000
00000100
00001000
00000100
,
00000000
00010000
00000010
00010000
,
00000000
00001000
00010000
00000100
,
00000000
00001000
00000010
00000100
,
00000000
00000001
00000100
00000010
,
00000000
00001000
00000100
00000010
,
00000000
00000100
00010000
00001000
,
00000000
01000000
00010000
00100000
,
00000000
01000000
10000000
00100000
,
00000000
01000000
00100000
01000000
,
00010000
20000000
00100000
00020000
,
30030000
10000000
01000000
10000000
,
01000000
00100000
01000000
00100000
,
00010000
00100000
00001000
00010000
,
00000010
00010000
00001000
00100000
,
00000000
00001000
00010000
00000100
,
00001000
00000100
00000010
00000100
,
00000010
00000001
00000100
00000000
,
00000100
00000010
00002000
00000000
,
00003200
00000000
00000000
00000000
,
00000300
00000000
00000000
00000000
,
00020000
00000000
00000000
00000000
,
00002000
00000000
00000000
00000000
,
00033000
00000000
00000000
00000000
;
