#TITLE:Bubble Pop;
#SUBTITLE:;
#ARTIST:HYUNA;
#TITLETRANSLIT:;
#SUBTITLETRANSLIT:;
#ARTISTTRANSLIT:;
#GENRE:;
#CREDIT:Mr.Music;
#BANNER:Bubble Pop.PNG;
#BACKGROUND:Bubble Pop-bg.PNG;
#LYRICSPATH:;
#CDTITLE:;
#MUSIC:Bubble Pop.mp3;
#OFFSET:-3.620;
#SAMPLESTART:58.020;
#SAMPLELENGTH:14.820;
#SELECTABLE:YES;
#BPMS:0.000=146.000
,170.000=73.000
,186.000=109.000
,206.000=109.000
,206.250=73.000
;
#STOPS:169.000=2.740
;
#BGCHANGES:;
#KEYSOUNDS:;
#ATTACKS:;

//---------------dance-single - Blank----------------
#NOTES:
     dance-single:
     :
     Beginner:
     1:
     0.144,0.153,0.000,0.010,0.005,102.000,0.000,1.000,0.000,0.000,0.000,0.144,0.153,0.000,0.010,0.005,102.000,0.000,1.000,0.000,0.000,0.000:
0000
0000
1000
0000
,
0001
0000
1000
0000
,
0100
0000
1000
0000
,
0001
0000
1000
0000
,
0100
0000
1000
0000
,
0001
0000
1000
0000
,
0001
0000
1000
0000
,
0100
0000
1000
0000
,
0100
0000
0001
0000
,
0100
0000
0001
0000
,
0100
0000
1000
0000
,
0100
0000
1000
0000
,
0100
0000
0001
0000
,
0100
0000
0001
0000
,
0100
0000
1000
0000
,
1000
0000
0001
0000
,
0001
0000
1000
0000
,
1000
0000
0100
0000
,
0100
0000
0001
0000
,
0001
0000
1000
0000
,
1000
0000
0100
0000
,
0100
0000
0010
0000
,
0010
0000
0100
0000
,
0000
1000
0000
0000
,
0001
0000
1000
0000
,
0001
0000
1000
0000
,
0000
0100
0000
1000
,
0000
0100
0000
0001
,
0000
1000
0000
0001
,
0000
1000
0000
0001
,
0000
1000
0000
0100
,
0000
1000
0000
0100
,
0000
0001
0000
1000
,
0000
0001
0000
0100
,
0000
0000
0100
0000
,
1000
0000
0100
0000
,
1000
0000
0100
0000
,
1000
0000
0000
0000
,
0100
0000
1000
0000
,
0100
0000
0000
1000
,
0000
0001
0000
1000
,
0000
0001
0000
1000
,
0000
0010
1000
0001
,
1000
0100
1000
0000
,
0100
0000
1000
0000
,
0001
0000
1000
0000
,
0100
0000
1000
0000
,
0001
0000
1000
0000
,
0100
0000
1000
0000
,
0001
0000
1000
0000
,
0100
0000
1000
0000
,
0001
0000
0000
0000
0000
0000
0000
0000
0000
2000
0000
0000
0000
0000
0000
0000
,
0000
3000
0000
0000
0000
0000
0000
0000
0000
0000
0000
0000
0000
0000
0000
0000
;

//---------------dance-single - Blank----------------
#NOTES:
     dance-single:
     :
     Easy:
     3:
     0.176,0.204,0.020,0.039,0.005,120.000,2.000,4.000,0.000,0.000,0.000,0.176,0.204,0.020,0.039,0.005,120.000,2.000,4.000,0.000,0.000,0.000:
1000
0000
0001
0000
,
1000
0000
0001
0000
,
1000
0000
0100
1000
,
0200
0300
0001
2000
,
0000
3000
0010
0001
,
0010
0000
0100
0000
,
1000
0000
0001
1000
,
0001
0000
2000
0000
,
3000
0000
0001
1000
,
0000
0100
1000
0100
,
0000
0001
0000
1000
,
0000
0001
0000
1000
,
0100
1000
0000
0001
,
0000
1000
0000
0001
,
0000
1000
0000
0001
,
0001
0000
0000
1000
,
0000
0001
0000
1000
,
1000
0000
0000
0001
,
0000
1000
0000
0100
,
0000
1000
0000
0001
,
0000
1000
0000
0100
,
0000
1000
0000
0010
,
0000
1000
0000
0001
,
0001
0000
0000
1000
,
0000
0100
0000
1000
,
0000
0001
0000
0000
,
0000
1000
0001
1000
,
0000
0100
1000
0100
,
0000
1000
0000
0001
,
0000
1000
0100
1000
,
0000
0100
0000
0010
,
0000
0100
0000
1000
,
0000
0001
0001
0001
,
1000
0000
0000
0001
,
1001
0000
1000
0001
,
1000
0000
0100
0000
,
0000
1000
0000
0000
,
0001
0000
0000
0000
,
1000
0000
0000
0000
,
0000
0000
0000
0000
,
1000
1000
1000
1001
,
0000
0001
0001
0001
,
0000
1000
1000
0100
,
0001
1000
0100
0000
,
1000
0000
0001
1000
,
0001
1000
0100
1000
,
0100
0001
0100
1000
,
0100
0000
1000
0000
,
1000
0100
0001
0000
,
1000
0100
0001
0000
,
1000
0100
0001
0000
,
0001
0000
0000
0000
0100
0000
0000
0000
0000
2000
0000
0000
0000
0000
0000
0000
,
0000
3000
0000
0000
0000
0000
0000
0000
0000
0000
0000
0000
0000
0000
0000
0000
;

//---------------dance-single - Blank----------------
#NOTES:
     dance-single:
     :
     Medium:
     5:
     0.321,0.382,0.127,0.039,0.005,213.000,13.000,4.000,0.000,0.000,0.000,0.321,0.382,0.127,0.039,0.005,213.000,13.000,4.000,0.000,0.000,0.000:
1000
0001
1000
0001
,
1000
0100
1000
0100
,
0001
0000
0100
0000
0001
0000
0100
1000
,
0100
1000
0000
0100
0001
0000
0200
0000
,
0000
0300
1000
0001
,
1000
0000
0100
0000
1000
0100
1000
0000
,
0100
0000
0000
0000
0100
0000
1000
0100
,
0000
0001
0000
0100
1000
0000
0200
0000
,
0000
0300
1000
0100
,
1000
0100
1000
0100
,
0001
0000
0100
0000
0010
0100
0010
0000
,
1000
0100
1000
0000
0001
0000
1000
0000
,
0001
1000
0100
1000
,
0100
0010
0100
0010
,
0100
0000
1000
0000
0100
0000
0001
0100
,
0001
0100
0000
0000
1000
0000
0100
0000
,
1000
0000
0100
0000
0001
0000
0100
0001
,
0100
0001
0000
0000
0000
0000
0000
0000
,
1000
0100
1000
0100
,
0001
0100
0001
0100
,
1000
0100
0001
0100
,
0001
0100
0001
0100
,
1000
0000
0100
0000
1100
0000
0001
0100
,
0001
0100
0000
0000
0000
0000
1000
0000
,
0001
1000
0100
1000
,
0100
0001
0100
0000
,
1000
0100
1000
0100
,
0001
0100
0001
0100
,
0000
1000
0100
1000
,
0100
0000
0001
0000
0100
0001
0000
1000
,
0000
0100
0000
0000
1000
0000
0100
0001
,
0010
0000
1000
0000
0100
0010
0000
1000
,
0000
0001
1000
0001
,
1001
1000
0100
1100
,
0101
1000
0001
1000
,
0100
0000
1000
0000
0001
1000
0000
0000
,
0100
0000
1000
0000
0100
0000
1000
0100
,
0000
0001
1000
0001
,
0000
1000
0100
1000
,
0100
0001
0100
0001
,
0100
1100
1100
1100
,
0101
1100
1100
0101
,
0101
0000
1000
0000
1000
0100
0001
0000
,
1000
0001
0000
1000
0001
1000
0000
0100
,
1000
0100
0000
0001
0000
1000
0100
0000
,
0001
1000
0001
0000
1000
0100
0000
1000
,
0100
0001
0000
0000
1000
0001
1000
0000
,
0000
1000
0100
0000
0001
0000
0000
1000
,
0100
0001
0000
0000
1000
0000
0100
0000
,
0001
0000
1000
0100
0001
0100
1000
0000
,
1000
0100
0001
1000
,
0001
0000
0000
0000
1000
0000
0000
0000
0000
2002
0000
0000
0000
0000
0000
0000
,
0000
3003
0000
0000
0000
0000
0000
0000
0000
0000
0000
0000
0000
0000
0000
0000
;

//---------------dance-single - Blank----------------
#NOTES:
     dance-single:
     :
     Hard:
     6:
     0.397,0.509,0.245,0.039,0.112,255.000,25.000,4.000,0.000,0.000,0.000,0.397,0.509,0.245,0.039,0.112,255.000,25.000,4.000,0.000,0.000,0.000: // measure 0
1100
0001
1000
0100
,  // measure 1
1000
0100
0001
0100
,  // measure 2
1100
0000
0100
0000
0001
0000
0100
0001
,  // measure 3
0100
0001
0000
0100
1000
0000
0200
0000
,  // measure 4
0000
0300
1000
0001
,  // measure 5
1000
0100
0000
0010
1000
0001
0010
0000
,  // measure 6
0000
0000
1000
0000
0100
0000
1000
0001
,  // measure 7
1000
0001
0000
1000
0100
0000
0200
0000
,  // measure 8
0000
0300
1000
0100
,  // measure 9
1000
0000
1001
0000
1000
0001
0000
1000
,  // measure 10
0000
0001
0000
0000
1000
0001
1000
0000
,  // measure 11
0010
1000
0010
0000
1000
0000
0001
0000
,  // measure 12
0100
1000
0001
0010
,  // measure 13
1000
0100
0010
0000
1000
0100
0001
0100
,  // measure 14
1000
0000
0001
0000
1000
0000
1000
0100
,  // measure 15
0010
0001
0000
0000
0000
0000
1000
0000
,  // measure 16
0100
0000
0001
0000
1000
0000
0001
1000
,  // measure 17
0001
0100
0000
0000
0110
0000
0110
0000
,  // measure 18
1000
0000
0001
0000
1000
0001
1000
0000
,  // measure 19
0100
1000
0100
0000
0001
1000
0001
0000
,  // measure 20
1000
0000
0100
0000
1000
0100
1000
0000
,  // measure 21
0001
1000
0001
0000
0010
0100
0010
0000
,  // measure 22
1000
0000
0100
0000
1000
0000
0100
0010
,  // measure 23
0100
0110
0000
0000
1000
0000
0001
1000
,  // measure 24
0001
0000
1000
0000
0100
0000
1000
0100
,  // measure 25
1000
0100
0000
0000
1000
0100
0000
0001
,  // measure 26
0000
0000
1000
0000
0001
0000
0001
1000
,  // measure 27
0100
0000
0010
0000
0100
0010
0000
0001
,  // measure 28
0000
0000
0000
0000
0001
0000
1000
0100
,  // measure 29
1000
0000
0001
0000
0100
0010
0000
1000
,  // measure 30
0000
0000
0001
0000
1000
0000
0100
1000
,  // measure 31
0100
0000
0001
0000
1000
0001
0000
0010
,  // measure 32
0000
1100
1100
0101
,  // measure 33
0101
1100
1100
0110
,  // measure 34
1001
0000
1000
0000
0100
0000
1000
0100
,  // measure 35
1000
0000
0100
0000
0010
0100
0000
0000
,  // measure 36
1000
0000
0001
0000
1000
0000
0001
1000
,  // measure 37
0001
0000
0100
0000
1000
0100
0000
0010
,  // measure 38
0000
0000
0001
0000
0100
0000
0001
0010
,  // measure 39
0001
0000
1000
0000
0001
1000
0000
0000
,  // measure 40
0010
1100
1100
1001
,  // measure 41
1001
1010
1010
1100
,  // measure 42
1100
0000
0000
0000
0000
0000
0000
0000
0000
0000
0000
0000
1000
0000
0000
0000
0000
0000
0000
0000
0000
0000
0000
0000
1000
0000
0000
0100
0000
0000
0001
0000
0000
0000
0000
0000
0000
0000
0000
0000
0000
0000
0000
0000
0000
1000
0001
0000
,  // measure 43
1000
0000
0000
0000
0000
0000
0000
0000
0000
0000
0000
0000
0001
0000
0000
0000
1000
0000
0000
0000
0000
0000
0000
0000
0001
0000
0000
0000
0000
0000
0000
0000
0000
0000
0000
0000
0000
0000
0000
0000
0000
0000
0000
0000
0000
0000
0000
0000
0000
0000
0000
0000
0000
0000
0000
0000
0000
0000
0000
0000
0000
0000
0000
0000
0000
0000
0000
0000
0000
0000
0000
0000
0001
0000
0000
0000
0000
0000
0000
0000
0000
0000
0000
0000
0000
0000
0000
0000
0000
0000
0001
0000
0000
0000
0000
0000
1000
0000
0000
0000
0000
0000
0001
0000
0000
0000
0000
0000
1000
0000
0000
0000
0000
0000
0000
0000
0000
0000
0000
0000
0100
0000
0000
0000
0000
0000
0000
0000
0000
0000
0000
0000
0000
0000
0000
0000
0000
0000
0000
0000
0000
0000
0000
0000
0000
0000
0000
0000
0000
0000
0000
0000
0000
0000
0000
0000
0000
0000
0000
0000
0000
0000
0000
0000
0000
0000
0000
0000
0000
0000
0000
0000
0000
0000
0000
0000
0000
0000
0000
0000
1000
0000
0000
0000
0000
0000
0001
0000
0000
0000
0000
0000
,  // measure 44
1000
0000
1001
0000
0000
0000
0100
0000
0000
0000
1000
0100
0000
0000
0000
0001
,  // measure 45
1000
0001
0010
0100
1001
0000
0000
0100
1000
0100
1000
0000
0000
0000
0000
0001
,  // measure 46
1000
0001
0000
0000
0000
0000
0000
0000
1000
0000
0001
0000
1000
0000
0000
0000
,  // measure 47
0000
0000
0000
0100
0010
0000
0010
0100
0000
0000
1000
0000
0000
0000
1000
0100
,  // measure 48
1000
0010
0100
0000
1000
0000
0001
1000
,  // measure 49
0001
0000
0000
0000
0000
0000
1000
0100
1000
0000
0010
0000
0000
0000
0000
0000
,  // measure 50
0001
0000
1000
0000
0001
0000
1000
0100
,  // measure 51
1000
0000
0100
0000
0000
0000
0000
0000
0000
2002
0000
0000
0000
0000
0000
0000
,  // measure 52
0000
3003
0000
0000
0000
0000
0000
0000
0000
0000
0000
0000
0000
0000
0000
0000
;
