#TITLE:BEAUTIFUL LIAR;
#SUBTITLE:;
#ARTIST:Beyonce & Shakira;
#TITLETRANSLIT:;
#SUBTITLETRANSLIT:;
#ARTISTTRANSLIT:;
#GENRE:;
#CREDIT:;
#BANNER:Beautiful Liar-bn.png;
#BACKGROUND:Beautiful Liar-bg.png;
#LYRICSPATH:;
#CDTITLE:;
#MUSIC:Beautiful Liar.mp3;
#OFFSET:-0.400;
#SAMPLESTART:47.316;
#SAMPLELENGTH:20.870;
#SELECTABLE:YES;
#BPMS:0.000=92.000
;
#STOPS:
;
#BGCHANGES:;
#KEYSOUNDS:;
#ATTACKS:;

//---------------dance-single - Blank----------------
#NOTES:
     dance-single:
     :
     Hard:
     7:
     0.413,0.405,0.213,0.242,0.280,252.000,22.000,25.000,0.000,0.000,0.000,0.413,0.405,0.213,0.242,0.280,252.000,22.000,25.000,0.000,0.000,0.000:
0000
0000
0000
0000
,
0000
0000
0000
0000
,
2002
0000
0000
3003
,
0220
0000
0000
0000
0000
0000
0330
0000
0000
0001
0100
0001
0100
0010
1000
0000
,
0001
0000
0000
0100
0000
0001
0000
0001
0000
0000
0000
1000
0100
0000
0000
0000
,
1001
0000
0000
0010
0000
1000
0000
1000
0000
0000
0000
0001
0100
0000
0000
0000
,
0001
0000
0000
1000
0100
0000
0000
0000
1000
0000
0000
0010
0100
0000
0000
0000
,
0001
0000
0000
0010
0001
0000
0000
0000
1000
0000
0000
0010
1000
0000
0000
0000
,
0001
0000
0010
0000
0100
0000
0000
0000
1000
0000
0000
0010
0100
0000
0000
0000
,
0001
1000
0001
1000
0001
0000
0000
0000
1000
0100
1000
0100
1000
0000
0000
0000
,
0011
0000
0000
0100
0001
0000
0000
0000
1000
0000
0000
0001
1000
0000
0000
0000
,
0010
0000
0000
1000
0100
0000
0000
0000
0010
0000
0000
0100
0010
0000
0000
0000
,
0001
0000
1000
0000
0010
0000
0000
0000
0100
0000
0000
0001
0010
0000
0000
0000
,
0001
0100
0001
0100
0001
0000
0000
0000
1000
0010
1000
0010
1000
0000
0000
0000
,
1001
0000
0010
0000
1000
0001
1000
0020
0000
0000
0100
0000
0130
0000
0000
0000
,
0001
0000
0010
0000
0001
1000
0100
2000
0000
0000
0001
0000
3001
0000
0000
0000
,
1010
0000
1000
0000
0001
0100
0010
0200
0000
0000
0001
0000
0301
0000
0000
0000
,
1001
0000
0000
0000
0010
0000
0000
0000
0010
0000
0100
0010
0100
0000
0000
0000
,
1001
0001
0100
1000
0200
0010
0310
1000
,
0001
1000
0100
0020
0001
0031
0200
0000
,
0310
1000
0001
1000
0020
1000
1030
0001
,
0011
0000
1001
0000
1000
0100
1001
0010
,
0110
0000
0100
0000
0001
0000
1000
0000
0002
0000
0010
0000
0013
0001
1000
0001
,
1000
0010
0100
0000
0001
0000
2000
0000
0100
0000
3100
0000
0020
0000
0000
0000
,
0031
0100
0010
1000
0200
0010
0310
0001
,
0101
0000
1001
0000
1000
0100
1001
0010
,
0100
0000
0000
0010
0000
1000
0000
0001
0000
0000
0000
1000
0010
0000
0100
0000
,
0000
0000
0000
0001
0000
0010
0000
0010
0000
0000
0000
0100
1000
0000
0001
0000
,
0000
0000
0000
1000
0000
0010
0000
0100
0000
0000
0000
0001
1000
0000
0100
0000
,
0000
0000
0000
1000
0000
0001
0000
0001
0000
0000
0000
0010
0200
0000
0000
0000
,
1300
0001
0100
1000
0200
0010
0310
0100
,
0001
1000
0100
2000
0010
3010
0200
0000
,
0310
1000
0001
1000
0020
0001
0031
0010
,
1010
0000
1001
0000
0001
0010
1001
0100
,
1010
0000
1000
0000
0001
0000
0010
0000
0200
0000
1000
0000
1300
0001
1000
0001
,
0100
0010
1000
0000
0001
0000
0200
0000
0001
0000
0301
0000
2000
0000
0000
0000
,
3001
1000
0100
1000
0002
0100
0103
0001
,
1100
0000
1001
0000
1000
0100
1001
0020
,
0000
0030
0000
0000
0000
0000
0000
0000
;

//---------------dance-single - Blank----------------
#NOTES:
     dance-single:
     :
     Medium:
     4:
     0.301,0.275,0.097,0.358,0.039,171.000,10.000,37.000,0.000,0.000,0.000,0.301,0.275,0.097,0.358,0.039,171.000,10.000,37.000,0.000,0.000,0.000:
0000
0000
0000
0000
,
0000
0000
0000
0000
,
0002
0000
0000
0003
,
2002
0000
0000
0000
3003
0000
1000
1000
,
0001
0000
0000
1000
0000
0001
0000
1000
0000
0000
0000
0010
0100
0000
0000
0000
,
1001
0000
0000
0010
0000
0100
0000
0010
0000
0000
0000
1000
0001
0000
0000
0000
,
0001
0000
1000
0000
0001
1000
1000
0000
,
0001
0000
0010
0000
0001
1000
0001
0000
,
1000
0000
0100
0000
1000
0010
1000
0000
,
0020
0000
2030
0000
3002
0010
0013
0000
,
0001
0000
1000
0000
0100
1000
0001
0000
,
0010
0000
0001
0000
0010
0100
0100
0000
,
1000
0000
0001
0000
0100
0010
1000
0000
,
0002
0000
2003
0000
3200
1000
1300
0000
,
0001
0000
1000
0100
1000
0000
0001
0000
,
0100
0000
0010
0100
0001
0000
1000
0000
,
0001
0000
0010
0100
1000
0000
0010
0000
,
0200
0000
0010
0310
,
1001
0000
0001
1000
0001
0000
2000
3000
,
1100
0000
1000
0010
0100
0000
0002
0003
,
0011
0000
0001
1000
0100
0000
0020
0030
,
0002
0000
0203
0000
0310
1000
0001
1000
,
0100
0000
1000
0001
1000
0000
0020
0030
,
0110
0000
0001
1000
0001
0000
0020
0030
,
1100
0000
0001
1000
0010
0000
0200
0300
,
0002
0000
2003
0000
3001
0010
0100
1000
,
0001
2000
3002
0103
,
0000
0020
2030
3001
,
0000
0020
0230
1300
,
0000
2000
3002
0013
,
0110
0000
1000
0001
1000
0000
0200
0300
,
1000
0000
0010
0100
0001
0000
2000
3000
,
0001
0000
0010
0100
1000
0000
0200
0300
,
2000
0000
3200
0000
1300
0010
0001
0010
,
1000
0000
0001
0000
0100
0010
0100
0000
,
1001
0000
0010
0001
1000
0000
0020
0030
,
0110
0000
1000
0010
1000
0000
0200
0300
,
2000
0000
3020
0000
1030
0100
0010
0001
;

//---------------dance-single - Blank----------------
#NOTES:
     dance-single:
     :
     Easy:
     3:
     0.242,0.238,0.135,0.396,0.000,120.000,14.000,41.000,0.000,0.000,0.000,0.242,0.238,0.135,0.396,0.000,120.000,14.000,41.000,0.000,0.000,0.000:
0000
0000
0000
0000
,
0000
0000
0000
0000
,
0020
0000
0000
0000
,
0230
0000
0000
0301
,
2002
3003
0200
0300
,
2002
3003
0010
1001
,
0010
1000
0100
0000
,
1000
0001
0010
0000
,
0001
0100
0100
0000
,
0010
0010
1000
0001
,
1000
0100
0100
0000
,
1000
0001
0010
0000
,
0001
0100
0010
0000
,
1000
0001
1000
0001
,
0200
0000
0310
0000
,
0020
0000
1030
0000
,
0002
0000
0103
0000
,
0010
1000
1000
1001
,
0020
0100
0130
0010
,
2000
0001
3001
1001
,
0020
1000
1030
0001
,
2000
3200
1300
0001
,
0210
0001
0301
0010
,
0200
1000
1300
1001
,
2000
0100
3100
0010
,
0002
0203
0310
0100
,
2002
3003
0020
0030
,
2002
3003
0200
0300
,
0002
0023
0230
0300
,
2000
3020
0130
1001
,
2100
0010
3010
1000
,
0002
0010
0013
1001
,
0200
0001
0301
0100
,
0020
2030
3001
0100
,
0201
0010
0310
1000
,
0020
1000
1030
0110
,
2000
0010
3010
0100
,
0002
0000
2003
0000
3010
0000
0100
0100
;

//---------------dance-single - Blank----------------
#NOTES:
     dance-single:
     :
     Beginner:
     1:
     0.112,0.128,0.087,0.097,0.000,62.000,9.000,10.000,0.000,0.000,0.000,0.112,0.128,0.087,0.097,0.000,62.000,9.000,10.000,0.000,0.000,0.000: // measure 0
0000
0000
0000
0000
,  // measure 1
0000
0000
0000
0000
,  // measure 2
0020
0000
0030
0000
,  // measure 3
0020
0000
0030
0000
,  // measure 4
1001
0000
1000
0000
,  // measure 5
1001
0000
0001
0000
,  // measure 6
0100
0000
0000
0000
,  // measure 7
0001
0000
0000
0000
,  // measure 8
2000
0000
3000
0000
,  // measure 9
0100
0100
0100
0000
,  // measure 10
0010
0000
0000
0000
,  // measure 11
0001
0000
0000
0000
,  // measure 12
0020
0000
0030
0000
,  // measure 13
0001
0001
0001
0000
,  // measure 14
1000
0000
1000
0000
,  // measure 15
0001
0000
0000
0000
,  // measure 16
0001
0000
0001
0000
,  // measure 17
0200
0000
0300
0000
,  // measure 18
0110
0000
0100
0000
,  // measure 19
0001
0000
1000
0000
,  // measure 20
1001
0000
1000
0000
,  // measure 21
0100
0000
0100
0000
,  // measure 22
1001
0000
0001
0000
,  // measure 23
0100
0000
0010
0000
,  // measure 24
1001
0000
1000
0000
,  // measure 25
0001
0000
0001
0000
,  // measure 26
0200
0000
0300
0000
,  // measure 27
0020
0000
0030
0000
,  // measure 28
2000
0000
3000
0000
,  // measure 29
0200
0000
0300
0100
,  // measure 30
0100
0000
1000
0000
,  // measure 31
0001
0000
0100
0000
,  // measure 32
0101
0000
0001
0000
,  // measure 33
1000
0000
1000
0000
,  // measure 34
0110
0000
0100
0000
,  // measure 35
0001
0000
1000
0000
,  // measure 36
1001
0000
0100
0000
,  // measure 37
0010
0000
0000
0000
0010
0000
0020
0030
;
