#TITLE:Arksphere;
#SUBTITLE:;
#ARTIST:dj Xtrz & vj Eks;
#TITLETRANSLIT:;
#SUBTITLETRANSLIT:;
#ARTISTTRANSLIT:;
#GENRE:;
#CREDIT:Meseki;
#MENUCOLOR:;
#BANNER:Arksphere-bn.png;
#BACKGROUND:Arksphere.png;
#LYRICSPATH:;
#CDTITLE:cdtitle.png;
#MUSIC:Arksphere.ogg;
#OFFSET:0.000;
#SAMPLESTART:80.914;
#SAMPLELENGTH:10.971;
#SELECTABLE:YES;
#LISTSORT:;
#BPMS:0.000=175.000;
#STOPS:;
#TICKCOUNT:0.000=2;
#BGCHANGES:2.438=Arksphere.mpg=1.000=1=1=0,
99999=-nosongbg-=1.000=0=0=0 // don't automatically add -songbackground-
;
#KEYSOUNDS:;
#ATTACKS:;

//---------------dance-single - ----------------
#NOTES:
     dance-single:
     :
     Medium:
     5:
     0.283,0.381,0.181,0.136,0.005:
0000
0000
0000
0000
,
0000
0000
0000
0000
,
0000
0000
0000
0000
,
0000
0000
0000
0000
,
0000
0000
0000
0000
,
0000
0000
0000
0000
,
0000
0000
0000
0000
,
0000
0000
0000
0000
,
0000
0000
0000
0000
,
1000
0000
0010
0000
0000
0100
0000
0000
,
0000
0000
0001
0000
0000
0010
0000
0000
,
0000
0000
0001
0000
0000
0100
0000
0000
,
0000
0000
0010
0000
0000
1000
0000
0000
,
0000
0000
0001
0000
0000
0010
0000
0000
,
0000
0000
0100
0000
0000
1000
0000
0000
,
0000
0000
0010
0000
0000
0100
0000
0000
,
0000
0000
0001
0000
0000
0010
0000
0000
,
0011
0000
0010
0000
0000
0100
0000
0000
,
0000
0000
1000
0000
0000
0010
0000
0000
,
0000
0000
0100
0000
0000
0001
0000
0000
,
0000
0000
0010
0000
0000
0100
0000
0000
,
0000
0000
1000
0000
0000
0001
0000
0000
,
0000
0000
0010
0000
0000
0002
0000
0000
,
0003
0000
1000
0000
0000
0010
0000
0000
,
0100
0001
0000
0100
0000
0001
0100
0000
,
0110
0000
0010
0000
0000
0010
0000
0000
,
0000
0000
0010
0000
0000
2000
0000
3000
,
0000
0000
0001
0000
0000
0001
0000
0000
,
0000
0000
0001
0000
0000
0010
0000
0000
,
0000
0000
0100
0000
0000
0100
0000
0000
,
0000
0000
0100
0000
0000
1000
0000
0000
,
0000
0000
0010
0000
0000
0010
0000
0000
,
0000
0000
0010
0000
0000
1000
0000
0000
,
1000
0000
0001
0000
0000
0001
0000
0000
,
0000
0000
0001
0000
0000
0010
0000
0000
,
0000
0000
0001
0000
0000
0001
0000
0000
,
0000
0000
0001
0000
0000
0200
0000
0300
,
0000
0000
0010
0000
0000
0010
0000
0000
,
0000
0000
0010
0000
0000
2000
0000
3000
,
0000
0000
0010
0000
0000
0010
0000
0000
,
0000
0000
0010
0000
0000
0002
0000
0003
,
0010
0000
2000
3001
,
1001
0000
0000
0100
,
1001
0000
0000
0100
,
1001
0000
0000
0100
,
1010
0000
0000
0010
,
0101
0000
0000
0010
,
0101
0000
0000
0010
,
0101
0000
0000
0010
,
1001
0000
0000
0100
,
1100
0000
0000
1000
0000
0000
0100
0000
,
0110
0000
0000
0010
0000
0000
0001
0000
,
0101
0000
0000
0100
0000
0000
0010
0000
,
1000
0001
0000
1000
0000
0001
0000
1000
,
0001
0000
0000
0100
0000
0000
0010
0000
,
1010
0000
0000
1000
0000
0000
0100
0000
,
0110
0000
0000
0010
0000
0000
0001
0000
,
1000
0000
0001
0000
1000
0000
0000
0000
0001
0000
0000
1000
0000
0000
0001
0000
,
1000
0100
0020
0031
,
1000
1010
1000
0100
,
0010
0001
0100
0001
,
0010
0110
0100
0010
,
1000
0010
0100
1000
,
0001
0011
0010
0100
,
1000
0010
0100
0001
,
1000
1001
0001
0100
,
1000
0100
0010
1000
,
1010
0020
0100
1030
,
0001
0010
0100
0010
,
0001
0200
0010
0301
,
1000
0010
0100
0010
,
1000
0002
0010
1003
,
0100
0010
0100
2000
,
3001
0000
0020
0000
0030
0200
0000
0300
,
0000
0000
2000
0000
3000
0020
0000
0000
,
0000
0000
0000
0000
,
0000
0000
0000
0000
0000
0030
0000
0000
;

//---------------dance-single - ----------------
#NOTES:
     dance-single:
     :
     Hard:
     8:
     0.498,0.555,0.163,0.136,0.127:
0000
0000
0000
0000
,
0000
0000
0000
0000
,
0000
0000
0000
0000
,
0000
0000
0000
0000
,
0000
0000
0000
0000
,
0000
0000
0000
0000
,
0000
0000
0000
0000
,
0000
0000
0000
0000
,
0000
0000
0000
0000
,
1000
0000
0001
0000
0100
0010
1000
0000
,
0100
0000
0010
0000
0001
1000
0010
0000
,
0100
0000
0001
0000
1000
0100
0010
0000
,
0001
0000
0000
1000
0000
0000
0010
0000
0000
0000
0100
0000
0010
0000
0100
0000
,
0001
0000
0010
0000
0100
1000
0010
0000
,
0100
0000
0001
0000
1000
0010
0100
0000
,
0010
0000
1000
0000
0100
0010
0001
0000
,
0010
0000
0000
0100
0000
0000
0010
0000
0000
0000
0001
0000
1000
0000
0000
0000
,
1010
0000
0010
0000
0100
0001
0010
0000
,
0100
0000
1000
0000
0001
0100
0010
0000
,
1000
0000
0001
0000
0010
0100
1000
0000
,
0001
0000
0000
0100
0000
0000
0001
0000
0000
0000
1000
0000
0010
0000
1000
0000
,
0100
0000
0010
0000
0001
1000
0010
0000
,
0100
0000
0010
0000
1000
0002
0100
0000
,
0013
0000
0100
0000
1000
0010
1000
0000
,
0001
0100
0000
1000
0000
0100
0001
0000
,
0101
0000
0000
0001
0000
0100
0010
0100
,
0001
1000
0000
0010
0000
2000
0000
3000
,
0001
0000
1000
0100
0000
0100
1000
0000
,
0010
0000
0000
0100
0000
0000
0010
0000
0000
0000
1000
0000
0001
0000
0010
0000
,
0100
0000
0000
1000
0000
0000
0100
0000
0000
0000
0010
0000
0001
0000
0010
0000
,
0100
0000
0000
0010
0000
0000
0100
0000
0000
0000
1000
0000
0010
0000
1000
0000
,
0001
0000
0000
0100
0000
0000
0001
0000
0000
0000
0010
0000
0100
0000
0010
0000
,
0001
0000
0000
0010
0000
0000
0001
0000
0000
0000
1000
0000
0010
0000
0000
0000
,
1001
0000
0000
0001
0000
0100
0001
0000
,
0010
0100
0000
1000
0000
1000
0001
1000
,
0010
0000
0000
0100
0000
0000
0001
0000
0000
0000
1000
0000
0001
0000
0000
0000
,
0100
0000
0000
0010
0000
0000
1000
0000
0000
0000
0200
0000
0010
0000
0300
0000
,
0001
0000
0000
1000
0000
0010
1000
0000
,
0001
0100
0000
0100
0000
0020
1000
0030
,
0001
0000
0000
1000
0000
0000
0001
0000
0000
0000
0100
0000
0010
0000
1000
0000
,
0100
0000
0000
0010
0000
0000
0100
0000
0000
0000
2000
0000
0010
3000
0000
0000
,
0100
0010
0000
1000
0200
0000
0310
0000
,
0110
0000
0000
0100
0000
0000
1000
0000
0010
0000
0100
0000
0001
0000
0000
0000
,
0101
0000
0000
0100
0000
0000
0010
0000
1000
0000
0001
0000
0010
0000
0000
0000
,
0011
0000
0000
0001
0000
0000
1000
0000
0100
0000
0010
0000
0001
0000
0000
0000
,
0100
0010
0000
0010
0000
0010
0000
0010
,
1000
0000
0000
0001
0000
0000
0100
0000
0001
0000
0010
0000
0100
0000
0000
0000
,
0110
0000
0000
0010
0000
0000
0001
0000
0100
0000
0010
0000
1000
0000
0000
0000
,
1010
0000
0000
0010
0000
0000
0100
0000
0001
0000
1000
0000
0100
0000
0000
0000
,
1001
0000
0000
1001
0000
0001
0100
0000
,
0110
0000
0000
0010
0000
0000
1000
0000
0001
0000
0010
0000
0100
0000
0000
0000
,
1100
0000
0000
1000
0000
0000
0010
0000
0100
0000
0001
0000
0010
0000
0000
0000
,
0110
0000
0000
0100
0000
0000
1000
0000
0001
0000
0100
0000
0010
0000
0000
0000
,
1000
0001
0000
0001
0000
0001
0000
0001
,
0010
0000
0000
0100
0000
0000
1000
0000
0000
0000
0010
0000
0100
0000
0001
0000
,
0100
0000
0000
0010
0000
0000
1000
0000
0000
0000
0001
0000
0010
0000
0100
0000
,
0010
0000
0000
0001
0000
0000
1000
0000
0000
0000
0010
0000
0100
0000
0001
0000
,
0010
0000
0100
0000
0010
0000
0000
0000
0001
0000
0000
0100
0000
0000
1000
0000
,
0100
0010
0000
1000
0020
0000
0130
0000
,
0001
0000
0011
0000
0001
1000
0010
1000
,
0001
0000
0100
0000
0010
0100
0001
0100
,
0010
0000
1010
0000
1000
0100
0010
0100
,
1000
0000
0000
0001
0000
0000
1000
0000
0000
0000
0100
0000
0010
0000
0100
0000
,
1000
0000
1100
0000
0100
0010
0001
0100
,
0010
0000
1000
0000
0001
1000
0100
0010
,
0001
0000
1001
0000
1000
0010
0100
0010
,
1000
0000
0000
0001
0000
0000
1000
0000
0000
0000
0100
0000
0010
0000
0100
0000
,
0110
0000
0020
0000
1000
0000
0031
0100
,
0010
0000
1000
0000
0001
0010
0100
1000
,
0010
0000
0200
0000
1000
0000
0301
0010
,
0100
0000
0000
1000
0000
0000
0100
0000
0000
0000
1000
0000
0010
0000
0100
0000
,
0001
0000
2000
0000
0010
0000
3100
0010
,
0001
0000
1000
0000
0010
0100
0002
0100
,
0003
0000
0020
0000
0030
0200
0000
0300
,
0000
0000
2000
0000
3000
0002
0000
0000
,
0000
0000
0000
0000
,
0000
0000
0000
0000
0000
0003
0000
0000
;

//---------------dance-single - ----------------
#NOTES:
     dance-single:
     :
     Easy:
     3:
     0.225,0.347,0.018,0.172,0.000: // measure 1
0000
0000
0000
0000
,  // measure 2
0000
0000
0000
0000
,  // measure 3
0000
0000
0000
0000
,  // measure 4
0000
0000
0000
0000
,  // measure 5
0000
0000
0000
0000
,  // measure 6
0000
0000
0000
0000
,  // measure 7
0000
0000
0000
0000
,  // measure 8
0000
0000
0000
0000
,  // measure 9
0000
0000
0000
0000
,  // measure 10
0000
0000
0001
0000
0000
0001
0000
0000
,  // measure 11
0000
0000
0100
0000
0000
0100
0000
0000
,  // measure 12
0000
0000
0010
0000
0000
0010
0000
0000
,  // measure 13
0000
0000
1000
0000
0000
1000
0000
0000
,  // measure 14
0000
0000
0001
0000
0000
0001
0000
0000
,  // measure 15
0000
0000
0010
0000
0000
0010
0000
0000
,  // measure 16
0000
0000
0100
0000
0000
0100
0000
0000
,  // measure 17
0000
0000
1000
0000
0000
1000
0000
0000
,  // measure 18
1000
0000
0001
0000
0000
0001
0000
0000
,  // measure 19
0000
0000
0010
0000
0000
0010
0000
0000
,  // measure 20
0000
0000
0001
0000
0000
0001
0000
0000
,  // measure 21
0000
0000
0100
0000
0000
0100
0000
0000
,  // measure 22
0000
0000
0010
0000
0000
0010
0000
0000
,  // measure 23
0000
0000
1000
0000
0000
2000
0000
0000
,  // measure 24
3000
0000
0001
0000
0000
0001
0000
0000
,  // measure 25
1000
0000
0000
0001
0000
0000
1000
0000
,  // measure 26
1001
0000
0001
0000
0000
0001
0000
0000
,  // measure 27
0000
0000
0001
0000
0000
0020
0000
0030
,  // measure 28
0000
0000
0100
0000
0000
0100
0000
0000
,  // measure 29
0000
0000
0100
0000
0000
0020
0000
0030
,  // measure 30
0000
0000
0001
0000
0000
0001
0000
0000
,  // measure 31
0000
0000
0001
0000
0000
2000
0000
3000
,  // measure 32
0000
0000
0010
0000
0000
0010
0000
0000
,  // measure 33
0000
0000
0010
0000
0000
2000
0000
3000
,  // measure 34
0001
0000
0010
0000
0000
0010
0000
0000
,  // measure 35
0000
0000
0010
0000
0000
0002
0000
0003
,  // measure 36
0000
0000
0100
0000
0000
0100
0000
0000
,  // measure 37
0000
0000
0100
0000
0000
2000
0000
3000
,  // measure 38
0000
0000
0100
0000
0000
0100
0000
0000
,  // measure 39
0000
0000
0100
0000
0000
0020
0000
0030
,  // measure 40
0000
0000
1000
0000
0000
1000
0000
0000
,  // measure 41
0000
0000
1000
0000
0000
0002
0000
0003
,  // measure 42
0010
0000
0200
0300
,  // measure 43
0110
0000
0000
1000
,  // measure 44
0010
0000
0000
1000
,  // measure 45
0010
0000
0000
1000
,  // measure 46
0100
0000
0000
0010
,  // measure 47
0001
0000
0000
0010
,  // measure 48
0001
0000
0000
0010
,  // measure 49
0001
0000
0000
0100
,  // measure 50
0010
0000
0000
1000
,  // measure 51
0001
0000
0000
0100
,  // measure 52
0001
0000
0000
0100
,  // measure 53
0010
0000
0000
1000
,  // measure 54
0100
0000
0000
0001
0000
0001
0000
0000
,  // measure 55
0100
0000
0000
0010
,  // measure 56
0001
0000
0000
1000
,  // measure 57
0010
0000
0000
0100
,  // measure 58
0001
0000
0000
0100
,  // measure 59
1000
0000
0200
0300
,  // measure 60
0010
0100
0001
0000
,  // measure 61
0010
0001
0010
0000
,  // measure 62
0100
1000
0010
0000
,  // measure 63
0100
0001
0100
0000
,  // measure 64
0001
0010
0100
0000
,  // measure 65
1000
0100
1000
0000
,  // measure 66
0010
1000
0001
0000
,  // measure 67
0010
0100
0010
0000
,  // measure 68
0001
0020
0001
0000
,  // measure 69
0130
1000
0100
0000
,  // measure 70
1000
0020
1000
0000
,  // measure 71
0130
0001
0100
0000
,  // measure 72
0001
2000
0001
0000
,  // measure 73
3100
0001
0100
2000
,  // measure 74
3001
0000
0020
0000
0030
0200
0000
0300
,  // measure 75
0000
0000
2000
0000
3000
0002
0000
0000
,  // measure 76
0000
0000
0000
0000
,  // measure 77
0000
0000
0000
0000
0000
0003
0000
0000
;

//---------------dance-single - ----------------
#NOTES:
     dance-single:
     :
     Beginner:
     2:
     0.110,0.139,0.027,0.045,0.000: // measure 1
0000
0000
0000
0000
,  // measure 2
0000
0000
0000
0000
,  // measure 3
0000
0000
0000
0000
,  // measure 4
0000
0000
0000
0000
,  // measure 5
0000
0000
0000
0000
,  // measure 6
0000
0000
0000
0000
,  // measure 7
0000
0000
0000
0000
,  // measure 8
0000
0000
0000
0000
,  // measure 9
0000
0000
0000
0000
,  // measure 10
0000
0001
0000
0000
,  // measure 11
0000
1000
0000
0000
,  // measure 12
0000
0010
0000
0000
,  // measure 13
0000
0100
0000
0000
,  // measure 14
0000
0001
0000
0000
,  // measure 15
0000
0010
0000
0000
,  // measure 16
0000
0100
0000
0000
,  // measure 17
0000
1000
0000
0000
,  // measure 18
0000
0001
0000
0000
,  // measure 19
0000
0010
0000
0000
,  // measure 20
0000
0001
0000
0000
,  // measure 21
0000
0100
0000
0000
,  // measure 22
0000
0010
0000
0000
,  // measure 23
0000
1000
0000
0000
,  // measure 24
0000
0001
0000
0000
,  // measure 25
1000
0000
0000
0000
,  // measure 26
1001
0000
0000
0000
,  // measure 27
0000
1000
0000
0000
,  // measure 28
0000
0001
0000
0000
,  // measure 29
0000
0001
0000
0000
,  // measure 30
0000
0010
0000
0000
,  // measure 31
0000
0010
0000
0000
,  // measure 32
0000
0001
0000
0000
,  // measure 33
0000
0001
0000
0000
,  // measure 34
0000
0100
0000
0000
,  // measure 35
0000
0100
0000
0000
,  // measure 36
0000
0010
0000
0000
,  // measure 37
0000
1000
0000
0000
,  // measure 38
0000
0001
0000
0000
,  // measure 39
0000
0001
0000
0000
,  // measure 40
0000
0100
0000
0000
,  // measure 41
0000
0010
0000
0000
,  // measure 42
1000
0000
0000
0000
,  // measure 43
1001
0000
0000
0000
,  // measure 44
0001
0000
0000
0000
,  // measure 45
0001
0000
0000
0000
,  // measure 46
0100
0000
0000
0000
,  // measure 47
0010
0000
0000
0000
,  // measure 48
0010
0000
0000
0000
,  // measure 49
0010
0000
0000
0000
,  // measure 50
1000
0000
0000
0000
,  // measure 51
0001
0000
0000
0000
,  // measure 52
0001
0000
0000
0000
,  // measure 53
0001
0000
0000
0000
,  // measure 54
0100
0000
0000
0000
,  // measure 55
0010
0000
0000
0000
,  // measure 56
0010
0000
0000
0000
,  // measure 57
0010
0000
0000
0000
,  // measure 58
1000
0000
0000
0000
,  // measure 59
0001
0000
0001
0000
,  // measure 60
0000
1000
0000
0010
,  // measure 61
0000
1000
0000
0010
,  // measure 62
0000
0100
0000
0001
,  // measure 63
0000
0100
0000
0001
,  // measure 64
0000
0010
0000
0100
,  // measure 65
0000
0010
0000
0100
,  // measure 66
0000
1000
0000
0001
,  // measure 67
0000
1000
0000
0000
,  // measure 68
0000
0002
0000
0100
,  // measure 69
0000
0103
0000
0000
,  // measure 70
0000
0020
0000
1000
,  // measure 71
0000
1030
0000
0000
,  // measure 72
0000
0200
0000
0010
,  // measure 73
0000
0310
0000
0000
,  // measure 74
1002
0000
0000
0000
,  // measure 75
0000
2000
0000
0003
,  // measure 76
0000
0000
0000
0000
,  // measure 77
0000
0000
0000
0000
0000
3000
0000
0000
;
