#TITLE:少女IN ~VIRGIN IN~;
#SUBTITLE:;
#ARTIST:DJ TECHNORCH fw. 宇宙☆海月;
#TITLETRANSLIT:SHOUJO IN ~VIRGIN IN~;
#SUBTITLETRANSLIT:;
#ARTISTTRANSLIT:DJ TECHNORCH fw. uchu☆kurage;
#GENRE:Hardcore;
#CREDIT:AznPunk07/Frozen_Heat/GuardianFrozen;
#MENUCOLOR:#7a17ce;
#METERTYPE:DDR;
#BANNER:VIRGIN IN-bn.png;
#BACKGROUND:VIRGIN IN-bg.png;
#LYRICSPATH:VIRGIN IN.lrc;
#CDTITLE:!cdtitle.png;
#MUSIC:VIRGIN IN.mp3;
#OFFSET:-0.032;
#SAMPLESTART:22.385;
#SAMPLELENGTH:17.640;
#SELECTABLE:YES;
#LISTSORT:;
#BPMS:0.000=107.430,4.000=214.860,140.000=429.720,156.000=214.860,316.000=429.720,356.000=214.860;
#STOPS:;
#BGCHANGES:;
#ATTACKS:;

//---------------dance-single - ----------------
#NOTES:
     dance-single:
     :
     Hard:
     9:
     0.753,0.803,0.473,0.011,0.116:
0000
0000
0000
0000
,
0001
0001
1000
1000
,
0001
0010
0100
1000
0110
0001
0001
1000
,
0000
1000
0000
0010
0010
0100
0001
1000
,
0001
0010
0100
0010
0001
0000
0000
0000
,
1000
0100
0010
0001
0010
0001
1000
0010
,
1000
0000
1010
0000
0001
0100
0000
0000
,
0000
0010
0000
1000
0001
1000
0001
0100
,
0010
0001
0010
0100
0001
0000
0000
0000
,
1000
0100
0010
0100
1000
0001
0100
0001
,
0010
0011
1100
0000
,
0000
1000
0000
0001
0010
1000
0010
0001
,
0100
1000
0100
0001
0010
1000
0010
0000
,
0000
0001
0000
1000
0010
0001
0010
1000
,
0100
0001
0100
1000
0010
0001
0010
0000
,
0000
1000
0000
0001
0100
1000
0100
0001
,
0010
1000
0010
0001
0000
0000
0000
0000
,
1100
0001
0101
1000
,
1000
0001
0000
0000
1000
0010
0000
0000
1000
0100
0000
0000
1000
0010
0000
0000
,
0001
0001
0010
0100
0010
0001
0001
0000
,
1001
0100
1001
0100
,
0010
1000
0100
0100
1000
0010
0000
1010
,
0000
1000
0100
0000
1100
0000
0010
0000
,
1000
1000
0100
0010
0100
1000
1000
0000
,
0110
0001
0110
0001
,
1000
0001
0010
0010
0001
1000
0000
1001
,
0000
0001
0100
0000
0101
0000
0010
0000
,
0001
0010
0010
0100
0010
0010
0001
0000
,
1100
0001
1100
0010
,
0100
0100
0001
0001
0010
0010
0000
0100
,
0000
1000
0100
0000
1100
0000
0011
0000
,
1000
0100
0100
0010
0100
0100
1000
0000
,
0011
1000
0011
0100
,
0010
0010
1000
1000
0100
0100
0000
0010
,
0000
0001
0010
0000
0011
0000
1100
0000
,
0001
0100
0010
1000
,
0001
0010
0100
1000
,
0001
0100
0010
1000
,
0001
0010
0100
1000
,
0001
0100
0001
0100
0010
0000
1000
0100
,
1000
0000
0000
1000
0100
0000
0000
0000
0100
0000
0010
0000
0000
0010
0001
0000
,
0000
1000
0100
1000
0010
0000
0100
0001
,
0100
0000
0000
0100
0010
0000
0000
0010
1000
0000
1000
0000
0001
0000
0000
0000
,
0000
0000
0001
0000
0100
0000
0000
0010
1000
0000
0000
0000
0100
0000
0010
0000
,
0001
0000
0000
0001
0010
0000
0000
0010
0100
0000
0010
0000
0000
0010
0001
0000
,
0000
1000
0010
0000
0100
0000
0010
1000
,
0101
0000
0000
1000
0100
0000
0000
0000
0010
0000
0001
0100
0001
0000
0000
0000
,
1000
0010
1000
0010
0100
0000
0001
0010
,
0001
0000
0000
0001
0010
0000
0000
0000
0010
0000
0100
0000
0000
0100
1000
0000
,
0000
0001
0010
0001
0100
0000
0010
1000
,
0010
0000
0000
0010
0100
0000
0000
0100
0001
0000
0001
0000
1000
0000
0000
0000
,
1000
0000
0010
0000
0100
0000
0000
0100
0001
0000
0000
0000
0010
0000
0100
0000
,
1000
0000
0000
1000
0100
0000
0000
0100
0010
0000
0100
0000
0000
0100
1000
0000
,
0000
0001
0100
0000
0010
0000
1000
0001
,
1100
0100
1000
0000
0011
0001
0000
0000
,
0000
1000
0100
0010
0100
1000
0001
0000
,
0101
0000
1000
0010
0000
1000
0001
1000
,
0010
0010
0100
0100
0001
1000
0001
0000
,
1100
0000
0010
0100
0000
0001
1000
0001
,
0010
0010
0100
1000
0100
0010
0010
0000
,
0110
0000
0001
0100
0000
1000
0001
1000
,
0100
0100
0010
0001
0100
0100
0010
1000
,
0001
0000
0001
0100
0000
0001
1000
0001
,
0010
0000
0000
0010
0100
0000
0100
1000
,
0000
1010
0000
1000
0001
0000
0101
0000
,
0010
0001
0100
0100
0001
0010
0000
1100
,
0000
0010
0000
0001
0100
0000
0101
0000
,
0010
0000
0000
0010
0100
0000
0100
0001
,
0000
0011
0000
0001
1000
0000
1100
0000
,
0010
1000
0100
0100
1000
0010
0000
0101
,
0000
0010
0000
1000
0100
0000
1100
0000
,
0001
0010
0010
0001
0100
0100
0001
0000
,
1010
0100
0011
1001
,
1000
0100
0001
0001
0100
1000
0000
1010
,
0000
0100
0000
0001
1000
0000
0011
0000
,
1000
0010
0010
1000
0100
0100
1000
0000
,
0011
0100
1010
1001
,
0001
0100
1000
1000
0100
0001
0000
0011
,
0100
1000
0010
0100
0001
1000
0001
0010
,
0200
0000
0000
0000
,
0000
0000
0000
0000
,
0000
0000
0000
0000
,
0000
0000
0000
0000
,
0000
0000
0000
0000
,
0000
0000
0000
0000
,
0000
0000
0000
0000
,
0000
0000
0000
0000
,
0000
0000
0000
0000
,
0000
0000
0000
0000
,
0000
0000
0000
0000
0000
0000
0000
0300
;

//---------------dance-single - ----------------
#NOTES:
     dance-single:
     :
     Medium:
     7:
     0.569,0.709,0.263,0.105,0.000:
0000
0000
0000
0000
,
2000
0000
3002
0000
,
0203
0310
0020
0130
,
1000
0000
0000
1000
0100
0000
0000
0010
,
0000
0100
0000
1000
0010
0000
0000
0000
,
0001
0000
0000
0010
0100
0000
0000
0010
,
0000
0001
0000
0100
0001
0000
0000
0000
,
0100
0000
0000
0010
1000
0000
0001
0100
,
0000
0001
0000
1000
0100
0000
0000
0000
,
0010
0000
0000
0100
1000
0000
0001
0010
,
0000
0001
0000
1000
0010
0000
0000
0000
,
0100
0000
0000
0100
0001
0000
1000
0000
,
0001
0010
0001
0000
0100
0000
0100
0000
,
0000
0010
0000
1000
0100
0000
0100
1000
,
0000
0001
0000
0100
0001
0000
0010
0000
,
0100
0000
0000
0100
1000
0000
0010
1000
,
0010
0100
0001
0000
,
1000
1100
0001
0101
,
2000
3200
0320
0032
,
0103
0000
0100
0010
0001
0000
0001
0010
,
0100
0000
0100
0010
1000
0000
1000
0000
,
1000
0100
1000
0000
1100
0000
1000
0100
,
0000
0100
1000
0000
1100
0000
0001
0000
,
0100
0000
0100
0001
0010
0000
0010
0001
,
1000
0000
1000
0001
0100
0000
0101
0000
,
0001
0010
0001
0000
0011
0000
0010
0001
,
0000
0001
0010
0000
0011
0000
1000
0000
,
0001
0000
0001
0100
0010
0000
0010
0100
,
0001
0000
0001
1000
0100
0000
1100
0000
,
0010
0001
0010
0000
0100
1000
0000
1100
,
0000
0010
0001
0000
0010
0000
0100
0000
,
1000
0000
1000
0010
0100
0000
0100
0010
,
1000
0000
1000
0001
0010
0000
0011
0000
,
0100
1000
0100
0000
0010
0001
0000
0011
,
0000
0100
1000
0000
0100
0000
0010
0000
,
0001
0000
0100
0000
,
0010
0000
1000
0000
,
0001
0000
1000
0000
,
0100
0000
0010
0000
,
0100
0000
0100
0010
0001
0000
0010
0000
,
0001
0000
0000
1000
0000
0001
0000
1000
,
0000
0000
0010
0000
0100
0000
0010
1000
,
0001
0100
0001
0011
,
0000
0000
0100
1000
0100
0000
0010
0000
,
0100
0000
0000
1000
0000
0001
0000
0100
,
0000
0000
0010
0000
0100
0000
0001
1000
,
0100
0000
0010
0000
0001
0100
0010
0000
,
0000
0100
0001
0000
1000
0000
0100
1000
,
0010
0000
0100
0000
0001
1000
0000
0001
,
0000
0000
1000
0000
0100
0000
0010
0100
,
1000
0000
0001
0000
0100
0010
0100
0000
,
0000
0000
0001
0100
0001
0000
0100
0010
,
0100
0000
0010
0000
1000
0001
0000
1000
,
0000
0001
0100
0001
0010
0000
0100
1000
,
0100
0000
0010
0000
0001
0100
0001
0000
,
0000
0010
0100
1000
,
0101
0010
1100
0010
,
0001
1000
0001
0010
,
1100
0010
0101
0010
,
0001
1000
0001
0100
,
1010
0100
0011
1000
,
0001
0100
0010
1000
,
0011
0100
1010
0100
,
0010
0000
0000
0010
0001
0000
0001
0100
,
0000
0100
0000
0100
0010
0000
1000
0000
,
0100
0000
0100
0000
0100
0100
0000
0100
,
0000
0100
0100
0000
0100
0000
0100
0000
,
0010
0000
0000
0010
0001
0000
0001
1000
,
0000
1000
0000
1000
0100
0000
1000
0000
,
0010
0000
0010
0000
0010
0010
0000
0010
,
0000
0010
0010
0000
0010
0000
0010
0000
,
0100
0000
0100
0001
0100
0000
0010
0000
,
1000
0001
0001
0101
,
0001
0001
0100
0001
0001
0001
0000
0100
,
0000
0001
0001
0000
0100
0000
0101
0000
,
0010
0000
0010
1000
0010
0000
0100
0000
,
0001
1000
0001
0011
,
1000
1000
0010
1000
1000
1000
0000
0010
,
0000
1000
1000
0000
0010
0000
1010
0000
,
2002
0000
0000
0000
,
0000
0000
0000
0000
,
0000
0000
0000
0000
,
0000
0000
0000
0000
,
0000
0000
0000
0000
,
0000
0000
0000
0000
,
0000
0000
0000
0000
,
0000
0000
0000
0000
,
0000
0000
0000
0000
,
0000
0000
0000
0000
,
0000
0000
0000
0000
0000
0000
0000
3003
;

//---------------dance-single - ----------------
#NOTES:
     dance-single:
     :
     Easy:
     5:
     0.452,0.457,0.263,0.095,0.000:
0000
0000
0000
0000
,
0010
0000
0100
0010
,
0110
0000
0000
0000
,
1000
0000
0100
0000
,
0010
0100
1000
0000
,
0001
0100
0010
0100
,
0001
0010
0011
0000
,
0100
0000
0010
0000
,
0001
1000
0010
0000
,
0100
0001
1000
0100
,
0010
0011
0100
0000
,
0000
1100
0001
0100
,
0001
1000
0010
0100
,
0000
0101
1000
0001
,
0100
0010
1000
0001
,
0000
0110
1000
0001
,
0100
0010
1000
0000
,
0001
0011
1000
1010
,
0001
0010
0100
1000
,
0001
0001
0100
0100
,
0010
1000
0100
1000
,
0020
1000
0100
0000
,
1000
0100
1030
0000
,
1000
1000
0010
0010
,
0100
0001
0010
0001
,
0200
0001
0010
0000
,
0001
0010
0301
0000
,
0010
0001
1000
1001
,
0100
0010
1000
0001
,
0200
0001
0010
0000
,
1000
0010
0301
0000
,
0100
1000
0001
1001
,
0010
0100
0001
1000
,
0020
1000
0100
0000
,
0001
0100
1030
0110
,
2000
0000
0000
0000
,
0010
0000
0000
0000
,
0100
0000
0000
0000
,
0001
0000
0000
0000
,
3010
0100
0001
0100
,
0010
0000
0100
0000
0001
0000
0000
0010
,
0000
0100
1000
0010
,
1000
0100
0010
0100
,
0000
1000
0010
0100
,
0001
1000
0100
0001
,
0010
1000
0001
0100
,
0010
1000
1001
1001
,
0000
0010
1000
0010
,
0100
0000
0010
0000
1000
0000
0000
0100
,
0000
0010
0001
0100
,
0001
0010
0100
0010
,
0000
0001
0100
0010
,
1000
0001
0010
1000
,
0100
0001
1000
0010
,
0100
0001
1000
0010
,
0000
1000
0100
0010
,
1100
0010
1100
0000
,
0001
0100
1000
0100
,
0011
0100
0011
0000
,
1000
0001
0100
0010
,
1001
0010
1001
0000
,
0100
0001
0010
1000
,
0110
0001
0110
0000
,
0001
0100
0001
0001
,
1000
0100
1000
1000
,
0010
0010
0200
0000
,
1000
0010
0301
0000
,
1000
1000
0100
0100
,
0010
0100
1000
0001
,
0200
0010
0010
0000
,
0001
0010
1300
0000
,
0001
0000
0011
0000
0001
1000
0001
0000
,
0100
0000
0100
0010
0100
0000
0110
0000
,
2000
0000
0001
0000
0001
0001
0000
0001
,
0000
0001
3001
0000
,
1000
0000
1100
0000
1000
0001
1000
0000
,
0010
0000
0010
0100
0010
0000
0110
0000
,
0002
0000
1000
0000
1000
1000
0000
1000
,
0000
1000
1003
0001
,
0010
0000
0000
0000
;

//---------------dance-single - ----------------
#NOTES:
     dance-single:
     :
     Beginner:
     1:
     0.981,0.992,1.000,0.053,0.331:
0000
0000
0000
0000
,
0001
0001
0001
0001
0001
0001
0001
0001
,
0001
0001
0001
0001
0002
1000
1000
1003
,
1010
0000
0000
1000
0100
0000
1000
0010
,
0000
0010
0000
0100
0001
0000
0000
0000
,
0011
0000
0000
0001
0100
0000
0001
0010
,
0000
0010
0000
0100
1000
0000
0000
0000
,
1100
0000
0000
0010
0001
0000
1000
1100
,
0000
0010
0000
0011
0001
0000
0000
0000
,
0001
0100
1000
0100
0001
0010
0100
1100
,
0000
0011
0000
1000
0001
0000
0000
0000
,
1001
0000
0000
0100
1010
0100
0001
0010
,
0100
0011
1000
0010
0001
0010
1010
0000
,
0101
0000
0000
0010
1100
0010
0001
1000
,
0101
0010
1000
0001
0010
1100
0010
0000
,
0101
0000
0000
0001
1100
0001
0010
0100
,
0011
0100
1000
0001
0000
1000
0001
0000
,
2100
3010
0102
0013
,
1001
0110
1001
0110
,
0001
0001
0010
0100
0010
0010
0001
0100
,
0010
0010
0001
0010
0100
0000
0101
0000
,
1010
1010
0100
0100
0001
0001
0000
1001
,
0000
1000
1100
0000
0101
0000
0011
0000
,
1000
1000
0100
0010
0100
0100
1000
0010
,
0100
0100
1000
0100
0010
0000
1010
0000
,
1100
1100
0010
0010
0001
0001
0000
1100
,
0000
0010
0110
0000
0011
0000
1100
0000
,
0100
1000
0001
0001
0100
1000
0001
0001
,
1000
0100
0001
0001
0100
0000
0011
0000
,
0101
0011
0100
0100
1001
1001
0000
0110
,
0000
0010
0011
0000
1100
0000
0101
0000
,
0010
0001
1000
1000
0010
0001
1000
1000
,
0001
0010
1000
1000
0010
0000
1100
0000
,
1010
1010
0100
0100
1001
0011
0000
0110
,
0100
1000
0100
0000
0010
0001
0010
0000
0001
0100
0001
0000
0010
1000
0010
0000
,
1000
0100
0010
0001
1000
0100
0010
0001
,
1000
0010
0100
0001
1000
0010
0100
0001
,
1000
0100
1000
0100
0010
0001
0010
0001
,
1000
0010
1000
0010
0100
0001
0100
0001
,
1000
0000
0000
1000
0100
0000
0000
0100
0010
0000
0010
0000
0001
0000
1000
0000
,
0001
0000
0000
0001
0100
0000
0000
0100
0010
0000
1000
0000
0000
0001
1000
0000
,
0000
0000
0001
0100
0001
0000
0010
0000
0100
0010
0001
0000
1000
0000
0010
1000
,
0100
0000
0000
0100
0010
0000
0000
0010
0001
0000
0001
0000
0101
0000
0000
0000
,
1010
0000
1000
0001
1000
0000
0001
0000
0100
0001
0000
0001
0000
0000
0010
0100
,
1000
0000
0000
0100
1000
0000
0000
1000
0010
0000
0010
0000
0000
0100
0010
0000
,
0000
0000
0100
0001
0010
0000
0100
0000
0010
0001
1000
0000
0010
0000
1000
0100
,
1000
0000
0000
1000
0001
0000
0000
0001
0100
0000
0001
0000
0011
0000
0000
0000
,
0000
0000
0010
0001
0010
0000
0000
0010
0100
0000
0100
0000
1000
0000
0001
0000
,
1000
0000
0000
1000
0010
0000
0000
0010
0100
0000
0001
0000
0000
1000
0001
0000
,
0000
0000
1000
0010
1000
0000
0100
0000
0010
0100
1000
0000
0001
0000
0100
0001
,
0010
0000
0000
0010
0100
0000
0000
0100
1000
0000
1000
0000
1010
0000
0000
0000
,
0101
0000
0001
1000
0001
0000
1000
0000
0010
1000
0000
1000
0000
0000
0100
0010
,
0001
0000
0000
0010
0001
0000
0000
0001
0100
0000
0100
0000
0000
0010
0100
0000
,
0000
0000
0010
1000
0100
0000
0010
0000
0100
1000
0001
0000
0100
0000
0001
0010
,
0100
1000
0001
0100
1000
0000
0000
0000
0110
0000
0110
0000
0000
0000
0000
0000
,
0000
0001
0100
0001
1000
0100
0010
0001
,
1100
0000
0001
0101
0000
1010
1010
0100
,
0001
0001
0010
0010
1000
0010
0001
0010
,
1100
0000
0001
0011
0000
0101
0101
0010
,
1000
0001
1000
0000
0010
0000
0001
0000
0001
0000
0010
0000
1000
0000
0100
0000
,
1100
0000
1010
1100
0000
0011
0011
0100
,
0010
0001
1000
0100
0010
1000
0100
0010
,
0001
1000
0001
1000
0001
0000
0000
0000
0100
0000
0100
0000
0110
0000
0000
0000
,
1000
0000
0000
1000
0001
0000
0001
1100
,
0000
1001
0000
0101
0001
0000
1010
0000
,
0001
0001
0110
0110
1000
1000
0000
1100
,
0000
0011
1001
0000
0101
0000
1010
0000
,
0001
0000
0000
0001
1000
0000
1000
0011
,
0000
1001
0000
1010
1000
0000
0101
0000
,
1000
1000
0101
0101
0010
0010
0000
0101
,
0000
1100
1001
0000
1010
0000
0101
0000
,
1000
0000
0100
0000
1000
0000
0100
0000
0011
0000
0100
0000
0011
0000
0000
0100
,
1000
0000
0000
1000
0100
0000
0000
0100
1000
0000
0000
0000
0101
0000
0000
0000
,
1010
1010
0001
0001
1100
0110
0000
1001
,
0000
0011
1001
0000
1010
0000
1001
0000
,
0001
0000
0010
0000
0001
0000
0010
0000
1100
0000
0010
0000
1100
0000
0000
0010
,
0001
0000
0000
0001
0010
0000
0000
0010
0001
0000
0000
0000
1010
0000
0000
0000
,
0101
0101
1000
1000
0011
1001
0000
1001
,
0001
0100
0001
0100
0010
1000
0010
1000
0001
0010
0100
1000
0002
0000
1000
0000
,
2000
0000
0000
0000
,
0000
0000
0000
0000
,
0000
0000
0000
0000
,
0000
0000
0000
0000
,
0000
0000
0000
0000
,
0000
0000
0000
0000
,
0000
0000
0000
0000
,
0000
0000
0000
0000
,
0000
0000
0000
0000
,
0000
0000
0000
0000
,
0000
0000
0000
0000
0000
0000
0000
3003
;
