#TITLE:Wuv U;
#SUBTITLE:;
#ARTIST:kors k;
#TITLETRANSLIT:;
#SUBTITLETRANSLIT:;
#ARTISTTRANSLIT:;
#CREDIT:;
#BANNER:bn.png;
#BACKGROUND:bg.png;
#LYRICSPATH:;
#CDTITLE:;
#MUSIC:Wuv U.mp3;
#OFFSET:-0.552;
#SAMPLESTART:10.740;
#SAMPLELENGTH:12.000;
#SELECTABLE:YES;
#BPMS:0.000=173.000;
#STOPS:28.000=1.040
,109.000=0.347
,109.500=0.347
,110.000=0.347
,110.500=0.347
,171.000=0.347
,174.000=0.347
,176.000=0.173
,178.500=1.214
;
#BGCHANGES:;

//---------------dance-single - ----------------
#NOTES:
     dance-single:
     :
     Hard:
     9:
     0.623,0.623,0.223,0.255,0.122: // measure 1
0000
0000
0000
0000
,  // measure 2
0000
0000
0000
0000
,  // measure 3
0000
0000
0000
0000
,  // measure 4
0000
0000
0000
0000
,  // measure 5
0001
0000
0001
0100
0000
0010
1000
0100
,  // measure 6
0010
0100
1000
0010
0000
0100
0001
1000
,  // measure 7
0010
0000
0100
0010
0000
1000
0001
0010
,  // measure 8
1100
0000
0000
0000
0100
0000
1000
0010
0100
0000
0001
0000
0020
0000
0000
0000
,  // measure 9
0130
0000
0010
0000
0000
0000
0010
0001
0010
0000
0001
0000
0200
0000
0000
0000
,  // measure 10
0310
0000
0100
0001
0010
1000
0010
0000
,  // measure 11
0010
0000
0001
0000
0000
0000
0001
0100
0010
0000
1000
0000
0200
0000
0000
0000
,  // measure 12
0310
0000
0000
0000
0100
0000
1000
0100
1000
0000
0100
0000
0020
0000
0000
0000
,  // measure 13
0130
0000
0010
0000
0000
0000
0001
0010
0001
0000
0010
0000
0200
0000
0000
0000
,  // measure 14
0310
0000
0001
0100
0010
1000
0100
0010
,  // measure 15
0100
1000
0000
0001
0000
0010
0020
0000
,  // measure 16
0130
0000
0010
0000
0101
0000
0001
0100
,  // measure 17
1000
0100
0001
0001
0010
0100
0010
0001
,  // measure 18
0100
1000
0100
0001
0010
0100
0010
0001
,  // measure 19
0100
0000
0010
0000
0010
0000
0010
0010
,  // measure 20
0110
0000
0010
0000
1100
0000
1000
0001
,  // measure 21
0010
0100
0010
0010
0001
0100
0010
1000
,  // measure 22
0100
0010
0100
1000
0001
0100
0010
1000
,  // measure 23
0100
0010
0010
0010
,  // measure 24
1001
0000
0010
0000
1001
0000
0001
0100
,  // measure 25
1000
0100
0001
0001
0010
0100
0010
0001
,  // measure 26
0100
0010
1000
1000
0100
0010
0001
0001
,  // measure 27
0010
0000
0100
0000
0100
0000
0100
0100
,  // measure 28
1100
0000
1001
0101
1010
1001
1100
0000
,  // measure 29
0110
0100
0010
0001
0010
1000
0010
0001
,  // measure 30
0100
0010
1000
0100
0010
0100
1000
0001
,  // measure 31
0200
0000
0000
0000
0310
0000
0000
0000
0100
0000
0000
0010
0000
0010
0000
0000
,  // measure 32
0100
0000
0010
0000
1000
0000
0000
0000
0100
0000
0000
1000
0000
1000
0000
0000
,  // measure 33
1000
0000
0001
0000
0010
0000
0000
0000
0010
0000
0000
0001
0000
0001
0000
0000
,  // measure 34
1000
0000
0001
0000
0010
0000
0000
0000
0010
0000
0000
0100
0000
0100
0000
0000
,  // measure 35
0100
1000
1001
0000
0001
0100
0000
0010
,  // measure 36
1000
0100
0010
0000
1000
0100
0000
0001
,  // measure 37
0010
0100
0010
0000
0001
0100
0000
0010
,  // measure 38
1000
0001
0010
0000
0001
0100
0001
0010
,  // measure 39
1000
0010
0001
1000
0010
0100
0020
0000
,  // measure 40
0030
0010
1000
0100
0010
0100
2000
0000
,  // measure 41
0000
3000
0001
0001
0100
0010
1000
0000
,  // measure 42
1000
0100
0000
0001
0010
0100
0020
0000
,  // measure 43
0000
0030
0001
0100
0010
0010
0000
0000
,  // measure 44
0100
0010
1000
1000
0000
0000
1001
0010
,  // measure 45
0100
0000
1001
0000
0010
0000
0100
0000
0100
0000
0010
0000
0010
0000
0100
0001
,  // measure 46
0010
0000
0100
0000
2000
0000
0000
0000
3010
0000
0100
0000
0000
0000
0010
0100
,  // measure 47
0010
1000
0200
0000
0310
0000
0001
0010
,  // measure 48
0100
0010
0001
0000
1000
0100
0000
1000
,  // measure 49
0010
0000
0001
0000
0020
0000
0000
0000
0130
0000
0000
0000
0100
0000
0100
0001
,  // measure 50
0010
0000
0100
0000
2000
0000
0000
0000
3001
0000
1000
0000
0000
0000
0001
0100
,  // measure 51
0001
0100
0020
0000
1030
0000
0001
1000
,  // measure 52
0100
1000
0001
0100
0002
0020
0000
0000
,  // measure 53
0033
0000
0001
0100
0001
0000
0100
0000
0010
0000
1000
0000
0001
0000
1000
0000
,  // measure 54
0100
1000
0020
0000
0000
0130
0000
0100
,  // measure 55
0010
0000
1000
0000
0200
0000
0000
0000
1300
0000
0000
0000
1000
0000
0001
0100
,  // measure 56
0001
0000
0100
0000
0010
0000
1000
0010
1000
0000
0010
0000
0100
0000
0001
1000
,  // measure 57
0100
0000
0010
0000
0002
0000
0000
0000
0003
0000
0000
0000
0001
0000
1000
0100
,  // measure 58
1000
0000
0001
0000
0020
0000
0000
0000
0030
0000
0100
0000
0000
0000
0100
0010
,  // measure 59
0100
0001
2000
0000
3001
0000
0110
0010
,  // measure 60
1000
0110
0100
0010
0101
0001
0000
0101
,  // measure 61
0010
1001
2000
0000
0000
0000
0200
0000
,  // measure 62
0000
0000
0000
3300
;

//---------------dance-single - ----------------
#NOTES:
     dance-single:
     :
     Medium:
     7:
     0.475,0.524,0.138,0.276,0.000: // measure 1
0000
0000
0000
0000
,  // measure 2
0000
0000
0000
0000
,  // measure 3
0000
0000
0000
0000
,  // measure 4
0000
0000
0000
0000
,  // measure 5
0001
0000
0000
0100
0000
0010
0100
0001
,  // measure 6
0000
1000
0100
1000
0000
0001
0010
0001
,  // measure 7
0100
0000
0000
0010
0000
0000
0100
0000
,  // measure 8
1001
0000
1000
0010
0100
0010
2000
0000
,  // measure 9
3000
0000
0001
0100
0010
0100
0002
0000
,  // measure 10
0003
0000
0001
0100
0001
0010
0200
0000
,  // measure 11
0310
0100
0000
0010
0100
1000
0200
0000
,  // measure 12
0000
0000
1300
0010
0001
0010
2000
0000
,  // measure 13
3000
0000
1000
0100
0001
0100
2000
0000
,  // measure 14
3000
0000
1000
0001
0000
0001
0010
0000
,  // measure 15
0010
0100
0000
0100
0000
0100
0010
0000
,  // measure 16
0000
0000
0100
0000
1100
0000
1000
0001
,  // measure 17
0100
0001
0010
0100
,  // measure 18
0010
0000
0001
0100
0010
0000
0100
0010
,  // measure 19
1000
0000
0001
0000
0001
0000
0001
1000
,  // measure 20
1001
0010
0110
0100
,  // measure 21
0010
0000
1000
0000
0001
0000
0010
0001
,  // measure 22
0100
0000
0010
0100
0010
0000
1000
0001
,  // measure 23
1000
0100
0100
0100
,  // measure 24
0100
0000
0010
0000
0011
0000
0001
0100
,  // measure 25
0010
0000
1000
0000
0001
0000
1000
0100
,  // measure 26
0010
0000
0100
1000
0010
0000
0100
0010
,  // measure 27
1000
0000
0001
0000
0001
0000
0001
1000
,  // measure 28
1001
0000
1001
0100
1001
0100
1001
0000
,  // measure 29
0100
0100
0010
0000
1000
0000
0001
0000
,  // measure 30
0010
0000
1000
0000
0010
0000
0001
0100
,  // measure 31
0020
0130
0001
1000
,  // measure 32
0100
1000
0010
0000
0100
0000
0010
0000
,  // measure 33
0100
0001
1000
0000
1000
0000
0001
0010
,  // measure 34
0001
0000
0001
0000
0100
0000
0010
1000
,  // measure 35
0001
1000
0100
0000
0000
0010
0000
0000
,  // measure 36
0001
0100
0010
0000
0000
0100
0000
0000
,  // measure 37
0010
1000
0001
0000
0000
1000
0000
0000
,  // measure 38
0001
0100
0010
0000
0000
1000
0001
1000
,  // measure 39
0100
1000
0020
0000
0100
0000
0200
0000
,  // measure 40
0330
0200
0302
0020
,  // measure 41
0033
0002
1003
2000
,  // measure 42
3100
0200
0310
0200
,  // measure 43
1300
0001
0100
0010
,  // measure 44
0100
0010
1000
0001
,  // measure 45
1000
0001
0000
0010
0000
0100
1000
0001
,  // measure 46
0010
0001
2000
0000
3000
0000
0001
1000
,  // measure 47
0100
1000
0002
0000
0003
0000
0001
0100
,  // measure 48
0010
1000
0100
0000
1000
0200
0000
2000
,  // measure 49
0000
0000
3000
0000
0300
0000
1000
0010
,  // measure 50
0001
0010
0002
0000
0013
0000
0001
0100
,  // measure 51
1000
0100
2000
0000
3100
0000
0100
0001
,  // measure 52
0010
0100
0010
0001
1000
0020
0000
0000
,  // measure 53
0030
0000
0000
0000
0000
0000
0100
0010
,  // measure 54
0000
1000
0000
0001
0000
0010
0000
0011
,  // measure 55
0000
1100
0000
1001
0000
0101
0100
0001
,  // measure 56
0100
0000
0010
1000
0010
0000
1000
0001
,  // measure 57
0010
0100
0020
0000
0030
0000
0000
0001
,  // measure 58
0000
1000
0000
0001
0000
0100
0000
0001
,  // measure 59
0000
1000
0000
0100
0000
0010
0001
0100
,  // measure 60
0010
1000
0100
0001
0100
1000
0000
1000
,  // measure 61
0001
1000
0020
0000
0000
0000
0200
0000
,  // measure 62
0000
0000
0000
0330
;

//---------------dance-single - ----------------
#NOTES:
     dance-single:
     :
     Easy:
     5:
     0.355,0.459,0.180,0.287,0.000: // measure 1
0000
0000
0000
0000
,  // measure 2
0000
0000
0000
0000
,  // measure 3
0000
0000
0000
0000
,  // measure 4
0000
0000
0000
0000
,  // measure 5
0020
0000
1030
0000
,  // measure 6
1000
0001
0010
0100
,  // measure 7
0010
0000
0001
0000
,  // measure 8
0101
0100
0010
2000
,  // measure 9
3000
0010
1000
0200
,  // measure 10
0300
1000
0010
0100
,  // measure 11
0001
1000
0100
0020
,  // measure 12
0030
0010
0100
2000
,  // measure 13
3000
1000
0001
0200
,  // measure 14
0300
0100
0010
1000
,  // measure 15
0001
0000
0000
1000
0000
1000
0001
0000
,  // measure 16
0000
1001
0100
0010
,  // measure 17
1000
0010
0001
0010
,  // measure 18
1000
0100
0010
0100
,  // measure 19
1000
0010
0010
0010
,  // measure 20
0010
1001
0100
0001
,  // measure 21
0100
1000
0100
0001
,  // measure 22
0100
1000
0100
0001
,  // measure 23
0010
0100
0100
0100
,  // measure 24
0100
0010
0100
1000
,  // measure 25
0010
0100
0001
1000
,  // measure 26
0100
1000
0001
0100
,  // measure 27
0001
0010
0010
0010
,  // measure 28
0010
0000
0010
0100
0010
0100
0010
0000
,  // measure 29
0100
1000
0010
0100
,  // measure 30
0001
1000
0100
1000
,  // measure 31
0020
2030
0000
0000
,  // measure 32
3000
0002
0000
0000
,  // measure 33
0003
2000
0000
0000
,  // measure 34
3000
0002
0000
0000
,  // measure 35
0003
0000
0100
0000
0000
0100
0000
0000
,  // measure 36
0100
0000
0010
0000
0000
0010
0000
0000
,  // measure 37
0010
0000
1000
0000
0000
0010
0000
0000
,  // measure 38
0100
0001
0000
1000
,  // measure 39
0001
0100
0100
0200
,  // measure 40
0300
0100
0100
0200
,  // measure 41
0300
0010
1000
0010
,  // measure 42
0100
0001
0010
0200
,  // measure 43
0300
1000
0100
1100
,  // measure 44
0010
0001
0011
1001
,  // measure 45
0000
0110
0000
0000
0000
1001
0001
0000
,  // measure 46
0001
2000
3000
0001
,  // measure 47
0100
0020
0030
0100
,  // measure 48
0010
1000
0010
0001
,  // measure 49
0010
2000
3000
0010
,  // measure 50
1000
0200
0300
0100
,  // measure 51
1000
0020
0030
0100
,  // measure 52
0010
1000
0002
0020
,  // measure 53
0000
0000
0033
0001
,  // measure 54
0001
0020
0130
0010
,  // measure 55
0001
0200
0310
0110
,  // measure 56
0010
1001
0010
1001
,  // measure 57
0110
1001
0000
0001
,  // measure 58
0100
0020
1030
0010
,  // measure 59
1000
0200
1300
1100
,  // measure 60
0000
0011
0000
0000
0101
0000
0000
0001
,  // measure 61
0100
0010
1000
0000
0000
0000
2002
0000
,  // measure 62
0000
0000
0000
3003
;

//---------------dance-single - ----------------
#NOTES:
     dance-single:
     :
     Beginner:
     2:
     0.208,0.295,0.106,0.096,0.000: // measure 1
0000
0000
0000
0000
,  // measure 2
0000
0000
0000
0000
,  // measure 3
0000
0000
0000
0000
,  // measure 4
0000
0000
0000
0000
,  // measure 5
0010
0000
0000
0000
,  // measure 6
1000
0000
1000
0000
,  // measure 7
1000
0000
0000
0000
,  // measure 8
1001
0010
0010
0010
,  // measure 9
0000
0010
0010
0010
,  // measure 10
0000
0010
0000
1000
,  // measure 11
0000
0001
0000
1000
,  // measure 12
0000
0001
0001
0001
,  // measure 13
0000
1000
1000
1000
,  // measure 14
0000
1001
0000
0110
,  // measure 15
0000
0010
0010
0010
,  // measure 16
0000
0100
0000
0100
,  // measure 17
0000
0100
0000
0100
,  // measure 18
0000
0010
0000
0010
,  // measure 19
0000
1000
1000
1000
,  // measure 20
0000
0001
0000
0001
,  // measure 21
0000
0001
0000
0001
,  // measure 22
0000
1000
0000
1000
,  // measure 23
0000
1001
0000
0000
,  // measure 24
0000
0010
0000
0010
,  // measure 25
0000
0100
0000
0100
,  // measure 26
0000
0010
0000
1000
,  // measure 27
0000
0001
0000
1000
,  // measure 28
0000
0000
0000
0000
,  // measure 29
0000
0010
0000
0010
,  // measure 30
0000
0010
0010
0010
,  // measure 31
0020
0130
0000
0000
,  // measure 32
0000
0100
0000
0000
,  // measure 33
0000
0001
0000
0000
,  // measure 34
0000
1000
0000
0000
,  // measure 35
0000
1000
0000
0000
,  // measure 36
0000
0001
0000
0000
,  // measure 37
0000
0100
0000
0000
,  // measure 38
0000
0010
0000
0000
,  // measure 39
0000
1000
1000
1000
,  // measure 40
0000
0001
0001
0001
,  // measure 41
0000
1000
0000
0001
,  // measure 42
0000
1000
0001
1000
,  // measure 43
0000
0010
0010
0000
,  // measure 44
0010
0010
0000
0010
,  // measure 45
0000
0010
0000
0000
0000
0010
0100
0000
,  // measure 46
0100
0100
0000
0010
,  // measure 47
0010
0010
0000
1000
,  // measure 48
0000
1000
0000
1000
,  // measure 49
1000
1000
0000
0001
,  // measure 50
0000
0001
0000
0001
,  // measure 51
0000
0001
0000
1001
,  // measure 52
0000
0110
0000
2002
,  // measure 53
0000
3003
0000
0001
,  // measure 54
0001
0002
0003
1000
,  // measure 55
1000
2000
3000
0020
,  // measure 56
0030
0200
0300
0010
,  // measure 57
0010
0010
0000
0110
,  // measure 58
0000
0000
0000
1001
,  // measure 59
0000
0000
0000
0010
,  // measure 60
0000
0010
0000
0010
,  // measure 61
0000
0010
0000
2002
,  // measure 62
0000
0000
0000
3003
;
