#TITLE:Principle;
#SUBTITLE:;
#ARTIST:Des-ROW;
#TITLETRANSLIT:;
#SUBTITLETRANSLIT:;
#ARTISTTRANSLIT:;
#GENRE:;
#CREDIT:TaroNuke;
#BANNER:principal.png;
#BACKGROUND:principal-bg.png;
#LYRICSPATH:;
#CDTITLE:Nonsense.png;
#MUSIC:principal.ogg;
#OFFSET:-1.804;
#SAMPLESTART:41.379;
#SAMPLELENGTH:15.000;
#SELECTABLE:YES;
#DISPLAYBPM:181.000;
#BPMS:0.000=181.000;
#STOPS:;
#BGCHANGES:;
#KEYSOUNDS:;

//---------------dance-single - TaroNuke----------------
#NOTES:
     dance-single:
     TaroNuke:
     Challenge:
     10:
     0.698,0.817,0.369,0.443,0.296:
0000
0000
0000
0000
,
1000
0000
0000
0000
0001
0000
0000
0001
1000
0000
0100
0000
1000
0000
0100
0000
,
0020
0000
0000
0030
,
0100
1000
0001
0000
0100
0000
0001
0000
0100
0000
0001
0000
0010
0000
0100
0000
,
1000
0010
0100
0001
0010
0100
0010
0001
,
1000
0000
0000
0000
0001
0000
0000
0001
1000
0000
0100
0000
1000
0000
0100
0000
,
0020
0100
0100
0130
,
0200
0300
0100
0020
0030
0010
0000
1001
,
0000
1000
1000
1000
1000
0001
0010
0100
,
1000
0000
0001
0010
0001
0000
1000
0000
0001
0000
1000
0100
1000
0000
0001
0000
,
1000
0000
0001
0000
1000
0000
0001
0000
1000
0000
0001
0000
0100
0001
0100
0001
,
1000
0000
0100
0000
0010
0001
0010
0000
0100
0000
1000
0000
0001
0100
0001
0000
,
1000
0000
0010
0000
0100
0010
0100
0000
0001
1000
0010
1000
0001
1000
0010
0000
,
1000
1000
0100
0010
0100
0010
0001
0010
,
0200
0000
0310
0002
0000
0000
0000
0003
,
0100
0100
0010
0100
0001
0100
0010
0100
,
0002
0000
0013
0200
0000
0000
0000
0300
,
1000
1000
0010
0100
0010
0100
0001
0100
,
0020
0000
0130
0002
0000
0000
0000
0003
,
0100
0100
0010
1000
0001
1000
0010
1000
,
0002
0000
0103
0020
0000
0000
0000
0030
,
1001
1001
1001
1001
,
0011
0011
0011
0011
,
0101
0101
0101
0101
,
1010
1010
0110
0110
,
0001
0000
0100
0000
0001
0100
0001
0000
1000
0000
0100
0000
1000
0100
1000
0000
,
0001
0000
0010
0000
0001
0010
0001
0000
1000
0000
0010
0000
1000
0010
1000
0000
,
0001
0100
1000
0100
0001
0100
0010
1000
,
0001
1000
0001
1000
0001
1000
0001
1000
0001
1000
0001
0000
1000
0000
0001
0000
,
2000
0000
0010
0000
0010
0000
0100
0010
,
3000
0010
0000
0100
0020
0100
0000
0000
,
0230
0000
0001
0000
0001
0000
0010
0001
,
0300
0010
0000
0100
0002
1000
0000
0000
,
2003
0000
0100
0100
0100
0000
0100
0010
,
3000
0010
0000
0100
0020
0100
0000
0000
,
2030
0000
0100
0001
0100
0000
0100
0010
,
3000
0010
0000
0100
0002
0100
0000
0000
,
0203
0000
0010
0000
0010
0000
1000
0010
,
0300
0010
0000
0100
0020
0100
0000
0000
,
2030
0000
0100
0100
0100
0000
0001
3200
,
0300
0100
0000
1000
0020
1000
0000
0000
,
0230
0001
0010
0001
0010
0001
0000
0001
,
0300
0001
0000
0100
0020
0100
0000
0000
,
2030
0000
0100
0000
0100
0000
3100
1000
,
0000
0100
0000
0010
0000
0001
0000
1000
,
2002
0000
0000
0000
,
0000
0000
0000
3003
,
2002
0000
0000
0000
3013
0000
0000
0000
1000
0010
1000
0000
0001
0010
0001
0000
,
1000
0100
1000
0000
0001
0100
0001
0000
1000
0001
1000
0001
1000
0001
1000
0001
,
1000
0100
0010
0100
0001
0100
0010
0100
,
1000
0100
0010
0100
1000
0100
0020
0000
,
0001
0000
0001
0100
0000
0130
0000
0010
,
0000
0001
0001
0001
0001
0100
0010
1000
,
0001
0010
0100
0010
1000
0010
0100
0010
,
0001
0010
0100
0010
0001
0010
0200
0000
,
1000
1000
0010
0010
,
1000
1000
0010
0310
,
1100
1100
1100
1100
,
1001
1001
1001
1001
,
0101
0101
0101
0101
,
0011
0011
0110
0110
,
1100
0000
0000
0001
0010
0001
0100
0010
0100
0001
0010
0001
,
1000
0010
0100
0010
1000
0001
0100
0000
0100
0010
0000
0010
,
0100
0000
0100
0010
1000
0100
1000
0010
0100
0010
1000
0010
,
0100
0001
0100
0010
1000
0100
1000
0000
0001
0000
0000
0000
,
M000
0000
0M00
0000
00MM
0000
00MM
0000
0000
0000
0000
0000
0000
0000
0000
0000
0000
0000
0MM0
0000
0000
MM00
0000
0000
,
0000
0000
0000
0000
0000
0000
0M00
0000
0000
M000
000M
0000
0000
0000
0000
0000
00M0
0000
0M00
0000
0000
0000
0000
0000
,
M000
0000
0000
M000
0000
0000
0000
0000
0000
0000
0000
0000
0M00
0000
0000
0000
0000
0000
0000
0000
00M0
0000
0000
0000
0M00
0000
0000
0000
00M0
0000
0000
0000
000M
0000
0000
0000
0000
0000
0000
0000
0000
0000
0000
0000
0000
0000
0000
0000
,
00M0
0000
0000
0000
000M
0000
00M0
0000
0000
0M00
0000
0000
00M0
0000
0000
M00M
0000
0000
0000
0000
0000
0000
0000
0000
,
1000
0000
0001
0000
10M0
0000
0M01
0000
20M0
0M00
00M2
0M00
00M0
0M00
00M0
0M00
,
00M0
0M00
00M0
0M00
00M0
0M00
00M0
0M00
00M0
0000
0M00
0000
3003
00M0
0000
0000
,
0100
0010
1000
0010
0100
0001
1000
0200
,
0300
0010
0001
0010
0200
1000
0010
0000
,
2300
0000
0010
0000
0100
0100
0010
0001
,
3000
0001
0100
0010
0200
0010
0001
0000
,
0320
0000
0100
0000
0100
0100
0001
0001
,
0030
1000
0100
0010
0200
0001
0010
0000
,
0320
0000
2000
3000
1000
0100
0100
0100
,
0030
0001
1000
0000
0002
1000
0010
1000
,
0203
0000
0001
0000
0010
0010
0010
0001
,
0300
0010
0100
0010
0200
0001
0010
0000
,
2300
0000
0100
0100
0100
0000
0100
3020
,
0030
0100
0000
0001
0200
0010
0000
0000
,
0320
0100
0001
0100
0001
0100
0001
0001
,
0030
0100
0000
0001
0020
0001
0000
0000
,
0130
0000
0101
0000
1001
0000
1100
1010
,
0000
0110
0000
0011
0000
1010
0000
0101
,
2002
0000
0000
0000
,
0000
0000
0000
0000
,
0000
0000
0000
0000
,
0000
0000
3003
0000
;

//---------------dance-single - TaroNuke----------------
#NOTES:
     dance-single:
     TaroNuke:
     Hard:
     8:
     0.531,0.554,0.016,0.164,0.029:
0000
0000
0000
0000
,
1000
0000
0001
0000
1000
0100
0001
0100
,
0020
0000
0000
0030
,
0001
0100
0010
1000
0100
1000
0010
0000
,
1000
0100
1000
0010
0100
0010
0100
0001
,
1000
0000
0001
0000
1000
0010
0001
0010
,
0200
0010
0010
0310
,
1000
0000
1000
0001
0000
0001
0000
0100
,
0000
0010
0100
0010
0100
0010
1000
0100
,
1000
0001
1000
0001
,
0100
0000
0100
0000
0100
0000
0010
1000
,
0001
0001
0100
0100
,
0001
0010
0100
1000
0100
0010
0001
0000
,
1000
1000
0010
0100
0001
0100
0010
1000
,
0002
0000
0103
0020
0000
0000
0030
0000
,
1000
1000
0001
0100
0010
0100
0001
1000
,
0020
0000
1030
0200
0000
0000
0300
0000
,
0010
0010
0100
1000
0100
1000
0100
0010
,
0002
0000
0103
0020
0000
0000
0030
0000
,
0100
0100
0001
0100
0010
0100
0001
1000
,
0020
0000
1030
0200
0000
0000
0300
0000
,
0010
0010
0010
0010
,
0001
0001
0001
0001
,
1000
1000
1000
1000
,
0010
0010
0100
0100
,
0010
0100
0010
0000
0100
0010
0100
0000
,
0001
0010
0001
0000
0010
0001
0010
0000
,
0100
1000
0100
0000
1000
0100
1000
0000
,
1000
0100
0010
0001
1000
0100
0010
0001
,
1000
0000
0010
0000
0010
0000
1000
0010
,
0000
0010
0000
0010
0000
2000
0000
3000
,
0000
0000
0001
0000
0100
0000
0001
0100
,
0000
1000
0000
0100
0000
0001
0000
0000
,
0000
0000
0100
0100
0100
0000
0100
0010
,
0000
1000
0000
0010
0000
0200
0000
0300
,
0000
0000
0001
0000
0001
0000
0100
0001
,
0000
0010
0000
0001
0000
0100
0000
0000
,
0000
0000
0010
0000
1000
0000
0010
1000
,
0000
1000
0000
1000
0000
0010
0000
0000
,
0000
0000
0100
0001
0100
0000
0010
1000
,
0000
0010
0000
0100
0000
0001
0000
0000
,
1000
0010
0100
0010
1000
0100
0010
0001
,
0000
1000
0000
0001
0000
1000
0000
0000
,
0010
0000
0100
0000
0001
0000
1000
0100
,
0000
0010
0000
0001
0000
1000
0000
0100
,
0020
0001
0100
0001
,
0100
0001
0100
0031
,
0011
0000
1100
0000
0001
0010
0100
1000
,
0001
0100
0010
0100
0001
1000
0100
0010
,
0001
0100
0001
0000
0100
0010
0100
0000
,
0001
1000
0001
0000
1000
0010
1000
0000
,
0100
0000
0100
0010
0000
0010
0000
0001
,
0000
1000
0001
1000
0001
0100
0010
1000
,
0010
0100
0010
0000
1000
0100
1000
0000
,
0001
0100
0001
0000
1000
0010
1000
0000
,
0001
0001
0100
0100
,
0010
0000
0010
0000
1000
0100
1000
0000
,
0001
0001
0001
0001
,
1000
1000
1000
1000
,
0100
0100
0100
0100
,
0010
0010
0001
0001
,
1000
0000
0000
0100
0000
0100
0010
0000
0010
0001
0000
0001
,
0100
0000
0100
0010
0000
0010
1000
0000
1000
0010
0000
0010
,
0100
0100
0010
0010
,
1000
1000
0001
0001
,
0200
0000
0300
0000
,
0020
0000
0030
0000
,
2000
0000
3000
0000
,
0002
0000
0003
0000
,
1000
0001
1000
0001
2000
0002
0000
0000
,
0000
0000
0000
3003
,
1000
0010
1000
0000
0001
0010
0100
1000
,
0000
0001
0100
0001
0100
0010
1000
0000
,
0010
0100
0010
0000
1000
0100
0010
0001
,
0000
1000
0100
0010
0100
1000
0001
0000
,
1000
0010
1000
0000
0010
0100
0001
0010
,
0000
0001
0010
0100
0010
0001
1000
0000
,
0010
0000
0010
0000
0010
1000
0010
0100
,
0000
0001
1000
0001
1000
0010
0100
0001
,
1000
0100
1000
0000
0010
0100
0001
1000
,
0000
0100
0010
0001
1000
0100
0010
0000
,
0001
0100
0001
0000
0100
0010
1000
0001
,
0000
0100
0010
1000
0001
0100
0010
1000
,
0001
0100
0010
0100
0001
0010
0100
0010
,
0000
0100
0000
1000
0000
0100
0000
0000
,
0010
0000
0001
0000
1000
0000
0100
0010
,
0000
0001
0000
1000
0000
0100
0000
0010
,
0002
0000
0000
0000
,
0000
0000
0000
0000
,
0000
0000
0000
0000
,
0003
0000
0000
0000
;

//---------------dance-single - Blank----------------
#NOTES:
     dance-single:
     Blank:
     Easy:
     3:
     0.215,0.296,0.025,0.156,0.000:
0000
0000
0000
0000
,
1000
0000
0000
0000
,
0010
0000
0000
0000
,
0100
0100
0100
0000
,
0010
0010
0010
0000
,
1000
0000
0000
0000
,
0001
0000
0000
0000
,
1000
0000
0010
0000
,
0100
0000
0010
0000
,
1000
0000
0000
0000
,
0010
0000
0000
0000
,
0100
0100
0100
0000
,
0010
0010
1000
0000
,
0100
0000
0100
0000
,
0010
0000
0001
0000
,
1000
0000
0100
0000
,
0010
0000
0001
0000
,
0100
0100
0100
0000
,
0010
0000
1000
0000
,
0100
0100
0100
0000
,
0010
0000
0001
0000
,
1000
0000
0000
0000
,
0001
0000
0000
0000
,
0100
0000
0000
0000
,
0010
0000
0000
0000
,
1000
0000
1000
0000
,
0001
0000
0001
0000
,
0100
0000
0100
0000
,
0010
0010
0010
0010
,
0100
0000
0100
0000
,
0100
0000
0002
0000
,
0203
0000
0000
0000
,
0300
0000
0020
0000
,
2030
0000
0000
0000
,
3000
0000
0200
0000
,
2300
0000
0000
0000
,
3000
0000
0002
0000
,
0023
0000
0000
0000
,
0030
0000
0020
0000
,
0230
0000
0000
0000
,
0300
0000
2000
0000
,
3200
0000
0000
0000
,
0300
0000
0200
0000
,
0320
0000
0000
0000
,
0030
0000
0000
0000
,
2002
0000
0000
0000
,
0000
0000
3003
0000
,
1001
1001
1000
1000
,
0001
0001
1000
1000
,
0001
0000
0001
0000
,
0100
0000
0100
0000
,
0010
0000
0010
0000
,
1000
0000
1000
0000
,
0001
0000
0001
0000
,
1000
0000
1000
0000
,
0010
0000
0010
0000
,
0100
0000
0100
0000
,
0001
0001
0001
0000
,
1000
1000
1000
0000
,
0010
0010
0010
0000
,
0100
0100
0010
0000
,
1000
1000
1000
1000
,
0010
0010
0010
0010
,
0100
0100
0100
0100
,
0010
0010
0010
0000
,
2000
0000
0000
0000
,
0000
0000
0000
0000
,
0000
0000
0000
0000
,
0000
0000
0000
0000
,
0001
0001
0002
0000
,
0000
0000
3003
0000
,
1000
0000
1000
0000
,
0010
0000
0010
0000
,
1000
0000
1000
0000
,
0001
0000
0001
0000
,
0100
0000
0100
0000
,
0001
0000
0001
0000
,
0010
0000
0010
0000
,
0001
0000
0001
0000
,
1000
0000
1000
0000
,
0010
0000
0010
0000
,
0100
0000
0100
0000
,
0001
0000
0001
0000
,
1000
0000
0100
0000
,
0010
0000
0001
0000
,
1000
0000
0001
0000
,
1000
0000
0010
0100
,
0020
0000
0000
0000
,
0000
0000
0000
0000
,
0000
0000
0000
0000
,
0030
0000
0000
0000
;

//---------------dance-single - Blank----------------
#NOTES:
     dance-single:
     Blank:
     Medium:
     6:
     0.416,0.443,0.230,0.205,0.000:
0000
0000
0000
0000
,
1000
0000
0001
0000
1000
0010
1000
0000
,
0001
0001
1000
1000
,
0001
0100
0001
0000
0100
0001
0100
0000
,
0001
0000
0100
0000
0001
1000
0001
0000
,
1000
0000
0001
0000
1000
0100
1000
0000
,
0001
0001
0100
0100
,
0010
1000
0010
0000
1000
0010
1000
0000
,
0010
1000
0010
0000
,
1000
0100
0010
0001
,
1000
0100
1000
0001
,
0100
0100
0100
0100
,
0010
0010
0100
0010
,
1000
1000
0001
0001
,
1000
0000
0000
1001
0000
0000
0000
0000
,
0100
0100
0010
0010
,
0100
0000
0000
0110
0000
0000
0000
0000
,
0100
0100
0001
0001
,
0100
0000
0000
0101
0000
0000
0000
0000
,
0010
0010
1000
1000
,
0010
0000
0000
1010
0000
0000
0000
0000
,
1100
0000
1100
0000
,
0011
0000
0011
0000
,
0101
0000
0101
0000
,
1001
0000
0110
0000
,
1000
1000
1000
0000
,
0001
0001
0001
0000
,
0100
0100
0100
0000
,
0010
0010
0010
0010
,
1000
0001
0100
0010
,
1000
0001
0200
0000
,
0301
1000
0010
1000
,
0001
0100
0020
0000
,
0130
0001
0100
0010
,
1000
0010
0200
0000
,
0310
1000
0001
0100
,
0010
1000
0200
0000
,
0310
0100
1000
0100
,
0010
0001
0020
0000
,
0130
0100
0010
0010
,
0001
0001
0020
0000
,
0031
0100
0010
1000
,
0001
0010
0200
0000
,
1300
0000
0100
0000
0010
0000
0100
0010
,
0000
0001
0000
1000
0000
0010
0000
0100
,
0002
0000
0000
0000
,
0000
0000
0000
0000
,
0013
0100
1000
0001
,
0100
0001
1000
0100
,
1000
0100
0010
0100
,
1000
0001
0100
0001
,
1000
0010
1000
0000
0010
1000
0010
0000
,
0100
0010
0100
0000
0010
0000
0010
0000
,
1000
0001
1000
0000
0001
0100
0001
0000
,
0010
0001
0010
0000
0001
0100
0001
0000
,
1000
0100
1000
0100
,
0010
0001
1000
0001
,
0101
0000
0101
0000
,
0011
0000
0011
0000
,
1100
0000
1100
0000
,
1001
0000
0110
0000
,
1000
0001
1000
0001
,
0100
0001
0100
0001
,
0010
0001
0010
0001
,
1000
0001
1000
0000
,
0220
0000
0330
0000
,
2002
0000
3003
0000
,
2200
0000
3300
0000
,
0022
0000
0033
0000
,
2002
0000
0000
0000
,
0000
0000
0000
3003
,
1000
0000
0001
0000
1000
0000
0010
0100
,
0000
0001
0000
0100
0020
0000
0000
0000
,
1030
0000
0001
0000
0100
0000
0010
1000
,
0000
0001
0000
0100
0020
0000
0000
0000
,
0130
0000
0001
0000
0100
0000
0010
1000
,
0000
0100
0000
1000
0020
0000
0000
0000
,
0130
0000
0010
0000
0100
0000
0001
0010
,
0000
0100
0000
1000
0020
0000
0000
0000
,
1030
0000
0100
0000
0010
0000
0001
0100
,
0000
0010
0000
1000
0200
0000
0000
0000
,
1300
0000
0100
0000
0010
0000
0100
0010
,
0000
0001
0000
0010
0200
0000
0000
0000
,
1300
0010
1000
0010
1000
0010
1000
0100
,
0000
1100
0000
1010
0000
1001
0000
0000
,
1000
0000
0100
0000
0010
0000
0100
0010
,
0000
0001
0000
1000
0000
0010
0000
0100
,
0002
0000
0000
0000
,
0000
0000
0000
0000
,
0000
0000
0000
0000
,
0003
0000
0000
0000
;
