#TITLE:PRIME LIGHT;
#SUBTITLE:;
#ARTIST:TAG;
#TITLETRANSLIT:;
#SUBTITLETRANSLIT:;
#ARTISTTRANSLIT:;
#CREDIT:348;
#BANNER:PRIME LIGHT Banner.png;
#BACKGROUND:PRIME LIGHT Background.png;
#LYRICSPATH:;
#CDTITLE:;
#MUSIC:PRIME LIGHT.mp3;
#OFFSET:0.669;
#SAMPLESTART:1.069;
#SAMPLELENGTH:15.000;
#SELECTABLE:YES;
#BPMS:0.000=138.000;
#STOPS:;
#BGCHANGES:;

//---------------dance-single - ----------------
#NOTES:
     dance-single:
     :
     Beginner:
     1:
     0.116,0.135,0.021,0.000,0.000: // measure 1
0000
0000
0000
0000
,  // measure 2
1000
0000
0000
0000
,  // measure 3
0001
0000
1000
0000
,  // measure 4
0010
0000
0000
0000
,  // measure 5
0100
0000
0010
0000
,  // measure 6
1000
0000
0000
0001
,  // measure 7
0001
0000
0000
1000
,  // measure 8
1000
0000
0000
0000
,  // measure 9
0010
0000
0100
0000
,  // measure 10
0001
0000
0000
0000
,  // measure 11
1000
0000
1000
0000
,  // measure 12
0010
0000
0000
0000
,  // measure 13
0010
0000
0010
0000
,  // measure 14
0100
0000
0000
0000
,  // measure 15
0100
0000
0100
0000
,  // measure 16
0001
0000
1000
0000
,  // measure 17
0010
0000
1000
0000
,  // measure 18
0100
0000
1000
0000
,  // measure 19
0001
0000
1001
0000
,  // measure 20
1000
0000
0000
0000
,  // measure 21
0001
0000
0000
0000
,  // measure 22
0100
0000
0000
0000
,  // measure 23
0010
0000
0000
0000
,  // measure 24
0100
0000
0000
0000
,  // measure 25
0010
0000
0000
0000
,  // measure 26
1000
0000
0000
0000
,  // measure 27
0001
0000
0000
0000
,  // measure 28
1000
0000
0000
0000
,  // measure 29
0100
0000
0100
0000
,  // measure 30
0010
0000
0000
0000
,  // measure 31
0001
0000
0001
0000
,  // measure 32
1000
0000
0000
0000
,  // measure 33
1000
0000
1000
0000
,  // measure 34
0001
0000
0000
0000
,  // measure 35
0001
0000
0001
0000
,  // measure 36
1000
0000
0100
0000
,  // measure 37
1000
0000
0000
0000
,  // measure 38
0001
0000
0010
0000
,  // measure 39
0001
0000
0000
0000
,  // measure 40
0100
0000
0001
0000
,  // measure 41
0100
0000
0000
0000
,  // measure 42
0010
0000
1000
0000
,  // measure 43
0010
0000
0000
0000
,  // measure 44
1000
0000
0100
0000
,  // measure 45
0010
0000
0001
0000
,  // measure 46
1000
0000
0000
0000
,  // measure 47
0001
0000
0000
0000
,  // measure 48
0100
0000
0100
0000
,  // measure 49
0010
0000
0010
0000
,  // measure 50
0100
0000
0000
0000
,  // measure 51
0001
0000
0000
0000
,  // measure 52
1000
0000
0000
0000
,  // measure 53
0010
0000
0110
0000
;

//---------------dance-single - ----------------
#NOTES:
     dance-single:
     :
     Easy:
     3:
     0.248,0.245,0.144,0.217,0.000: // measure 1
0000
0000
0000
0000
,  // measure 2
1000
0100
1000
0000
,  // measure 3
0002
0000
0013
0000
,  // measure 4
0001
1000
0000
1000
,  // measure 5
0002
0003
0200
0300
,  // measure 6
0001
0010
0001
0000
,  // measure 7
2000
0000
3100
0000
,  // measure 8
1000
0100
0010
0001
,  // measure 9
1000
0000
1001
0000
,  // measure 10
0100
0001
0000
1000
,  // measure 11
0100
1000
0000
0001
,  // measure 12
1000
0000
0100
0000
,  // measure 13
0001
0000
0100
0000
,  // measure 14
1000
0100
0000
0100
,  // measure 15
0010
0001
0000
0001
,  // measure 16
1000
0200
0000
0300
,  // measure 17
0010
0002
0000
0003
,  // measure 18
1000
0001
0000
0000
,  // measure 19
0011
0000
1100
0000
,  // measure 20
0001
0010
0001
0100
,  // measure 21
0010
1000
0001
0000
,  // measure 22
1000
0001
0100
0001
,  // measure 23
1000
0000
0110
0000
,  // measure 24
0001
0010
0000
0010
,  // measure 25
0001
1000
0100
0010
,  // measure 26
0001
0100
0001
0000
,  // measure 27
1000
0010
1000
0000
,  // measure 28
0002
0000
0000
0003
,  // measure 29
0100
0000
0101
0000
,  // measure 30
2000
0000
0000
3000
,  // measure 31
0010
0000
1010
0000
,  // measure 32
0020
0000
0000
0030
,  // measure 33
1000
0000
0011
0000
,  // measure 34
0200
0000
0000
0300
,  // measure 35
0001
0000
1100
0000
,  // measure 36
0001
0010
0200
0300
,  // measure 37
1000
0100
0020
0030
,  // measure 38
0001
1000
0100
0000
,  // measure 39
0010
0000
1001
0000
,  // measure 40
1000
0100
2000
3000
,  // measure 41
0001
0010
0002
0003
,  // measure 42
2000
3000
0002
0003
,  // measure 43
1000
0100
0010
0001
,  // measure 44
1000
0100
1000
0001
,  // measure 45
0020
0000
0031
0000
,  // measure 46
0100
0001
1000
0010
,  // measure 47
0200
0000
0310
0000
,  // measure 48
1000
0100
0001
0100
,  // measure 49
1000
0000
0110
0000
,  // measure 50
1010
0000
0101
0000
,  // measure 51
1001
0000
0001
1000
,  // measure 52
0200
0000
1300
0000
,  // measure 53
0001
0000
2002
3003
;

//---------------dance-single - ----------------
#NOTES:
     dance-single:
     :
     Medium:
     6:
     0.420,0.354,0.227,0.227,0.010: // measure 1
0000
0000
0000
0000
,  // measure 2
1000
0000
0001
0000
0100
0010
0100
0000
,  // measure 3
0001
0010
0001
0000
1000
0000
1001
0000
,  // measure 4
0100
0000
0002
0000
0000
1000
1003
0000
,  // measure 5
0000
0001
0001
0000
1100
0000
0101
0000
,  // measure 6
1000
0000
0001
0000
1000
0100
0010
0000
,  // measure 7
0000
0001
0010
0100
1000
0000
1001
0000
,  // measure 8
0200
0000
0301
0000
1000
1000
0020
0000
,  // measure 9
0000
0130
0001
0000
2002
0000
3003
0000
,  // measure 10
0100
0000
0001
0000
1000
0100
1000
0000
,  // measure 11
0001
0010
0001
0000
1000
0001
1000
0000
,  // measure 12
0001
0100
0010
1000
,  // measure 13
0001
0100
0001
0100
0001
0000
1010
0000
,  // measure 14
0001
0000
0001
0000
0000
1000
0100
0000
,  // measure 15
1000
0001
1000
0000
0010
0000
1000
0000
,  // measure 16
0001
0000
0100
0010
0100
0000
0001
0000
,  // measure 17
0001
0000
1000
0100
1000
0000
0001
0000
,  // measure 18
0001
0000
0001
1000
0001
0000
0001
0000
,  // measure 19
2000
3100
0020
0031
,  // measure 20
2000
0000
0001
0000
0000
0001
3001
0000
,  // measure 21
0001
0010
0001
0010
0000
0100
1000
0000
,  // measure 22
0001
0000
1100
0000
0001
0010
0001
0000
,  // measure 23
1000
0100
1000
0000
0010
0100
0010
0000
,  // measure 24
1000
0000
1002
0000
0000
0010
0013
0000
,  // measure 25
0010
0001
0010
0000
0100
1000
0100
0000
,  // measure 26
1000
0000
0000
0100
0000
0000
2000
0000
0000
0000
0000
0000
3001
0000
0000
0000
,  // measure 27
1000
0100
0010
0001
,  // measure 28
1000
0000
0011
0000
0000
0001
0010
0000
,  // measure 29
0100
0100
1000
0000
0000
0001
1000
0000
,  // measure 30
0001
0000
1100
0000
0000
1000
0010
0000
,  // measure 31
1000
0000
0001
0010
0001
0000
1000
0000
,  // measure 32
0010
0000
1001
0000
0000
0100
0010
0000
,  // measure 33
1000
0100
0010
0000
0000
0001
1000
0000
,  // measure 34
0001
0000
0110
0000
0000
1000
0100
0000
,  // measure 35
0000
1000
0010
0100
0001
0000
0110
0000
,  // measure 36
2000
0100
0010
3001
,  // measure 37
0010
0000
0001
1000
0001
0000
0010
0000
,  // measure 38
0002
0000
1003
0000
1000
0100
1000
0000
,  // measure 39
0001
0010
0100
0000
2000
0000
3001
0000
,  // measure 40
0200
0301
0020
0031
,  // measure 41
0001
1000
0001
0000
0100
0010
0100
0000
,  // measure 42
0001
0011
1000
1100
,  // measure 43
0001
1010
1000
0101
,  // measure 44
1000
0000
0001
0000
0010
0001
0020
0000
,  // measure 45
0000
0031
1000
0000
0001
0000
0011
0000
,  // measure 46
0000
1000
2000
0000
3000
1000
0020
0000
,  // measure 47
0030
0010
1000
0001
0100
0000
1001
0000
,  // measure 48
0010
0000
1000
0000
0001
0010
0001
0000
,  // measure 49
1000
0000
0100
0000
0010
0001
0010
0000
,  // measure 50
0002
0100
1003
1010
,  // measure 51
2000
0001
3010
0101
,  // measure 52
1000
0000
0001
0000
1000
0001
1000
0000
,  // measure 53
0000
0000
0010
0000
0000
0100
0000
0000
0220
0000
0000
0000
0330
0000
0000
0000
;

//---------------dance-single - ----------------
#NOTES:
     dance-single:
     :
     Hard:
     8:
     0.569,0.517,0.351,0.258,0.335: // measure 1
0000
0000
0000
0000
,  // measure 2
1000
0000
0001
0000
1000
0100
0010
0001
,  // measure 3
1000
0000
0000
0100
0000
0000
1000
0000
0000
0000
0001
0000
0010
0000
1000
0000
,  // measure 4
0010
0000
0001
0000
1000
0100
0011
0000
,  // measure 5
1000
0000
0001
0000
1000
0200
0000
0001
0000
0000
0301
0000
1000
0000
0000
0000
,  // measure 6
0010
0000
0000
0000
1100
0000
0000
0000
0001
0010
0000
0000
0001
0000
0000
0000
,  // measure 7
1000
0000
0001
0000
0010
0001
0000
1000
0000
0000
0001
0000
1000
0000
0001
0000
,  // measure 8
0100
0000
1000
0000
0100
0002
0000
0000
1000
0000
1003
0000
0001
1000
0000
0000
,  // measure 9
0010
0000
0100
0000
0001
1000
0000
2000
0000
0000
0001
0000
3001
0000
0000
0000
,  // measure 10
1001
0000
0000
0000
0100
0000
0001
0000
1000
0000
0100
0000
1000
0100
0000
0100
,  // measure 11
0000
0000
1000
0000
0100
0000
0001
0000
0100
0000
1000
0000
0001
0010
0000
0010
,  // measure 12
0000
0000
0001
0000
0010
0000
1000
0000
0100
0000
0001
0000
1000
0001
0000
0001
,  // measure 13
1000
0011
1100
1001
,  // measure 14
0110
0000
0000
0000
0002
0000
0010
0000
0100
0000
1000
0000
1003
0001
0000
0100
,  // measure 15
0000
0000
0020
0000
1000
0000
0001
0000
0100
0000
0001
0000
1030
0100
0000
0010
,  // measure 16
0001
0000
1000
0000
0001
0010
0000
0002
0000
0000
0100
0000
1003
0000
0000
0000
,  // measure 17
0001
0000
1000
0000
0010
1000
0000
0200
0000
0000
0010
0000
0310
0000
0000
0000
,  // measure 18
0001
0000
1000
0000
0001
0100
0000
2000
0000
0000
3100
0000
0001
1000
0000
0001
,  // measure 19
1000
0000
0011
0000
0000
1100
0000
0000
2002
0000
0000
0000
3003
0000
0000
0000
,  // measure 20
0100
0000
0001
0000
0100
0000
0000
0001
0100
0000
1000
0000
0100
0000
1000
0000
,  // measure 21
0100
0000
0001
0000
1000
0000
0000
0100
1000
0000
0100
0000
0010
0000
0001
0000
,  // measure 22
1000
0010
0100
0000
0100
0001
0010
0000
,  // measure 23
0010
0001
1000
0100
1000
0001
0010
0100
,  // measure 24
1000
0000
1001
0000
0001
0010
0100
0000
,  // measure 25
1000
0100
0001
0100
1000
0001
1001
0000
,  // measure 26
0011
0000
0000
1000
0000
0000
0110
0000
0000
0001
0000
0000
1100
0000
0000
0000
,  // measure 27
1001
0000
0000
0010
1000
0000
0100
0000
1000
0000
0010
0000
0100
0000
0001
0000
,  // measure 28
0010
0000
0001
0000
0020
0000
0000
0000
0130
0000
1000
0000
0100
0000
0000
1000
,  // measure 29
0000
1001
0000
0000
0000
0000
0100
0000
0010
0000
0100
0000
0000
0002
0000
0000
,  // measure 30
0000
2003
0000
0000
3001
0000
0000
0000
0100
0000
0001
0000
1000
0000
0000
1001
,  // measure 31
0000
0000
0000
0000
0100
0002
0000
1003
0000
0000
0000
0000
1000
0020
0000
0130
,  // measure 32
0000
0000
0000
0000
0110
0000
0000
0000
1000
0000
0001
0000
0100
0000
0000
0010
,  // measure 33
0000
0110
0000
0000
0000
0000
0001
0000
1000
0000
0001
0000
0000
0200
0000
0000
,  // measure 34
0000
0320
0000
0000
1030
0000
0000
0000
0001
0000
0010
0000
0100
0000
0000
0110
,  // measure 35
0000
0000
0000
0000
1000
0001
0000
0001
0000
0000
0000
0000
0100
0010
0000
0000
,  // measure 36
1001
0000
0000
0100
0001
0000
0010
0000
0001
0000
1000
0000
0100
0000
1000
0000
,  // measure 37
0001
0000
0000
1000
0100
0000
1000
0000
0001
0000
0000
0110
0000
0000
1000
0000
,  // measure 38
0001
0000
1000
0100
1000
0000
1000
0001
,  // measure 39
2000
0000
3001
0000
0001
1000
0001
0000
,  // measure 40
0100
0000
0000
0001
0000
0000
2000
0000
0000
0000
0001
0000
3001
0000
0000
0000
,  // measure 41
0010
0000
0000
0001
0000
0000
0200
0000
0000
0000
0010
0000
0310
0000
0000
0000
,  // measure 42
1001
0000
0000
0000
0010
0100
0000
0010
0000
0000
0000
0000
1000
0001
0000
1000
,  // measure 43
0000
1010
0101
1001
,  // measure 44
0100
0001
0000
0000
1100
0000
0000
0000
0001
0000
0010
0000
1000
0000
0000
0000
,  // measure 45
1000
0010
0001
1000
0100
0010
0002
1003
,  // measure 46
0000
0110
0000
1000
0100
0010
0001
0100
,  // measure 47
0010
0000
0000
1001
0000
0000
0100
0000
0001
0000
1000
0000
0100
0000
1000
0000
,  // measure 48
0002
0000
0000
0010
0000
0000
0100
0000
0000
0000
1000
0000
1003
0000
0000
0000
,  // measure 49
0001
0010
0100
0000
0100
0010
0001
0000
,  // measure 50
0200
0000
0000
0001
0000
0000
1000
0000
0000
0000
0010
0000
0310
0000
0000
0000
,  // measure 51
0001
1000
0100
1000
0001
0000
0110
0000
,  // measure 52
0011
0000
1100
0000
0001
0010
0100
1000
,  // measure 53
0000
0000
0001
0000
0000
0100
0000
0000
0220
0000
0000
0000
0330
0000
0000
0000
;

//---------------dance-single - ----------------
#NOTES:
     dance-single:
     :
     Challenge:
     9:
     0.672,0.626,0.351,0.248,0.603: // measure 1
0000
0000
0000
0000
,  // measure 2
1001
0000
0000
0000
0110
0000
0000
0000
0001
0100
0000
0010
1000
0000
0001
0000
,  // measure 3
1000
0000
0100
0000
1000
0100
0000
0001
0100
0000
1000
0000
0001
0010
0001
0000
,  // measure 4
1000
0000
0000
0110
0000
0000
0001
0000
1000
0000
0100
0000
1000
0001
2000
0000
,  // measure 5
0000
0000
3001
0000
0010
0001
0000
1000
0100
0000
1000
0000
0010
0100
0010
0000
,  // measure 6
1100
0000
0000
0000
0011
0000
0000
0000
1000
0001
0000
0100
0010
0000
1000
0000
,  // measure 7
0001
0000
1000
0000
0001
0010
0000
1000
0010
0000
0001
0000
0010
0001
0100
0000
,  // measure 8
0010
0000
1000
0100
1000
0000
0000
0000
0001
0000
0010
0001
0010
0000
0000
0000
,  // measure 9
0001
0000
1000
0000
1000
0100
0010
0002
0000
0000
1000
0000
1003
0000
0000
0000
,  // measure 10
0110
0000
0000
0000
1000
0000
0010
0000
0100
0000
0001
0000
1000
0100
1000
0100
,  // measure 11
0000
0000
0010
0000
0001
0000
1000
0000
0001
0000
0010
0000
0001
0010
0100
0010
,  // measure 12
0000
0000
0001
0000
1000
0000
0100
0000
1000
0000
0010
0000
0100
0010
0100
0010
,  // measure 13
0000
0000
1000
0001
0000
0001
0010
0000
0100
1000
0000
1000
0001
0000
0000
0000
,  // measure 14
1001
0000
0000
0000
0100
0001
0100
0000
0001
0000
0010
0000
0001
1000
0001
0010
,  // measure 15
0000
0000
0001
0000
1000
0001
1000
0000
0001
0000
0010
0000
0001
0010
0000
0100
,  // measure 16
2000
0000
3002
0000
1003
0200
0000
0310
0002
0000
1000
0000
1003
0000
0000
0000
,  // measure 17
0020
0000
2030
0000
3010
0200
0000
0301
2000
0000
0010
0000
3010
0000
0000
0000
,  // measure 18
0001
0000
1000
0000
0010
0100
0000
0100
0010
0000
1000
0000
0001
1000
0001
1000
,  // measure 19
0000
0000
0110
0000
0000
1001
0000
0000
0220
0000
0000
0000
0330
0000
0000
0000
,  // measure 20
1001
0000
0000
1000
0100
0000
0000
0100
0001
0000
0000
0001
0100
0000
0000
0100
,  // measure 21
1000
0000
0001
0010
0000
0200
0000
1300
0000
0000
0001
0000
1000
0010
0100
0000
,  // measure 22
0001
0000
0000
1000
0100
0000
0000
0100
0010
0000
0000
0010
0001
0000
0000
0001
,  // measure 23
1000
0100
0011
0000
1000
0010
0101
0000
,  // measure 24
1001
0000
0000
0010
1000
0000
0000
0010
0001
0000
0000
1000
0100
0000
0000
0001
,  // measure 25
0100
0000
0001
1000
0000
0200
0000
0310
0000
0000
0001
0000
0010
0000
0100
0000
,  // measure 26
1000
0000
0000
0110
0000
0000
0011
0000
0000
0110
0000
0000
1000
0001
1000
0000
,  // measure 27
0001
0000
0010
0000
0100
1000
0000
0000
0001
0000
0100
0000
0010
1000
0000
0000
,  // measure 28
0001
0000
0100
0000
0010
0000
0000
0000
1000
0010
1000
0000
0100
0000
0000
1001
,  // measure 29
0000
1001
0000
0000
0000
0010
1000
0000
0100
0000
1000
0000
0000
0001
1000
0000
,  // measure 30
1000
0001
0000
0000
0100
0000
0000
0000
0010
0000
1000
0000
0001
0000
0000
0000
,  // measure 31
0110
0000
0000
0000
1000
0100
0000
0010
0002
0000
0000
0000
0103
0001
0000
1000
,  // measure 32
0010
0000
0000
0000
1001
0000
0000
0000
0010
0000
0100
0000
0001
0000
0000
0110
,  // measure 33
0000
0110
0000
0000
0000
1000
0001
0000
0010
0000
0001
0000
0000
0100
0010
0000
,  // measure 34
0010
0100
0000
0000
0001
0000
0010
0000
1000
0000
0010
0000
0001
0000
0000
0000
,  // measure 35
1100
0000
0000
0000
0001
1000
0000
0001
0010
0000
0000
0000
0100
1000
0000
0010
,  // measure 36
0100
0000
0000
0001
0010
0000
1000
0000
0100
0000
0001
1000
0000
0100
0010
0000
,  // measure 37
0001
0000
1000
0000
0010
0000
1000
0000
0001
0000
0000
1100
0000
0000
0001
0000
,  // measure 38
1000
0000
0001
0010
0001
0000
1000
0000
0001
0000
0100
0010
0100
0000
0001
0000
,  // measure 39
1000
0000
0001
0000
0010
0000
0001
0000
1000
0000
0000
0010
0100
0000
0010
0000
,  // measure 40
1000
0000
0001
0010
0000
0010
0002
0000
0000
0000
0100
0000
1003
0000
0000
0000
,  // measure 41
0001
0000
1000
0010
0000
0010
0200
0000
0000
0000
0001
0000
0301
0000
0000
0000
,  // measure 42
0001
0000
0000
1000
0100
0000
0100
0000
0100
0000
0000
0010
0001
0000
0001
0000
,  // measure 43
0001
0000
0010
0000
0001
1000
0000
0000
0010
0000
0100
0000
0010
1000
0000
0000
,  // measure 44
1000
0000
0110
0000
0001
1000
0010
0000
,  // measure 45
0001
0010
1000
0001
0100
1000
0100
0002
,  // measure 46
0000
0000
1003
0000
0001
1000
0000
0001
1000
0000
0010
0100
0000
0010
0100
0000
,  // measure 47
0002
0000
0000
1000
0000
0000
0103
0000
0200
0000
0000
0001
0000
0000
0310
0000
,  // measure 48
0010
0000
1000
0100
0000
0001
0200
0000
0000
0000
1000
0000
1300
0000
0000
0000
,  // measure 49
0001
0000
0000
1000
0000
0000
0001
0000
0011
0000
0000
0000
1001
0000
0000
0000
,  // measure 50
0100
0000
0001
0010
0000
1000
0020
0000
0000
0000
0001
0000
0031
0000
0000
0000
,  // measure 51
1100
0000
0000
0000
1001
0000
0000
0000
0010
0000
0000
0100
0000
0000
0010
0000
,  // measure 52
0110
0000
0000
0000
0001
0000
1000
0000
0010
0000
0100
0000
0010
1000
0001
0100
,  // measure 53
0000
0000
0101
0000
0000
1100
0000
0000
2002
0000
0000
0000
3003
0000
0000
0000
;
