#TITLE:I'm In Love Again -Y&Co. EURO MIX-;
#SUBTITLE:;
#ARTIST:dj TAKA Remixed by Y&Co.;
#TITLETRANSLIT:;
#SUBTITLETRANSLIT:;
#ARTISTTRANSLIT:;
#GENRE:EUROBEAT;
#CREDIT:;
#MENUCOLOR:;
#METERTYPE:DDR;
#BANNER:;
#BACKGROUND:;
#LYRICSPATH:[Round 4] I'm In Love Again -Y&Co. EURO MIX-.lrc;
#CDTITLE:;
#MUSIC:[Round 4] I'm In Love Again -Y&Co. EURO MIX-.mp3;
#OFFSET:-1.428;
#SAMPLESTART:66.010;
#SAMPLELENGTH:13.000;
#SELECTABLE:YES;
#LISTSORT:;
#BPMS:0.000=150.000;
#STOPS:;
#BGCHANGES:;
#ATTACKS:;

//---------------dance-single - ----------------
#NOTES:
     dance-single:
     :
     Hard:
     10:
     0.922,0.959,0.091,0.976,0.561:
1000
0000
0000
0000
0001
0000
0000
1000
0000
0000
0001
0000
0010
0000
0001
0000
,
0010
0000
0000
0000
0100
0000
0000
0010
0000
0000
0100
0000
1000
0000
0100
0000
,
0010
0000
0000
0000
0001
0000
0000
0100
0000
0000
0010
0000
1000
0000
0010
0000
,
0100
0000
0000
0000
0001
0000
0000
0100
0000
0000
0010
0000
1000
0000
0100
0000
,
0010
0000
0000
0000
0001
0000
0000
1000
0000
0000
0100
0000
0001
0000
0100
0000
,
1000
0000
0000
0000
0010
0000
0000
0100
0000
0000
0001
0000
0100
0000
1000
0000
,
0100
0000
0000
0000
0001
0000
0000
0010
0000
0000
1000
0000
0010
0000
0001
0000
,
0100
0001
0100
0001
0100
0010
1000
0010
,
1000
0010
1000
0010
1000
0001
1000
0001
0010
0001
0010
0001
0010
0001
0010
0000
,
0100
1000
0100
1000
0001
1000
0001
1000
0010
0100
0010
0100
0010
0100
0010
0000
,
0100
0001
0100
0001
1000
0001
1000
0001
1000
0000
0100
0000
0010
0000
0011
0000
,
0000
0000
0000
0100
0000
0000
1100
0000
0000
0000
1000
0100
0020
0000
0000
0000
0000
0000
0030
0000
0000
0000
0000
0000
,
0001
0010
0001
0010
0100
1000
0100
1000
0001
0100
0001
0100
0001
0100
0001
0000
,
0100
0010
0100
0010
1000
0010
1000
0010
1000
0001
1000
0001
1000
0001
1000
0000
,
0001
0010
0100
1000
0001
0010
0100
2000
0002
0000
0000
0000
3003
0000
0100
0100
,
0000
0000
0010
0010
0000
0000
2020
0000
0000
0000
0000
0000
0001
0000
3030
0000
,
1000
0100
1000
0001
1000
0100
1000
0001
,
0100
0010
0100
0001
0100
0010
0100
0001
,
1000
0100
0010
0100
1000
0010
0100
0010
,
0001
0010
0100
0010
0001
0010
1000
0010
,
0100
0001
1000
0100
0010
0100
1000
0010
,
0001
0010
1000
0010
0100
0010
0001
0010
,
0100
0001
0010
1000
0010
0001
1000
0010
,
0100
0000
1000
0000
0001
0000
0010
1000
0010
0000
1000
0000
0010
1000
0100
0010
,
0001
0020
0230
2300
3100
0020
0032
0203
,
0301
0000
0000
0000
0200
0000
0000
0000
0320
0000
0000
0000
0230
0000
0000
0000
0320
0000
0000
0030
0020
0000
0000
0000
0032
0000
0000
0000
0023
0000
0000
0000
,
1030
0200
0302
2003
3010
0002
0203
2300
,
3100
0000
0000
0000
0002
0000
0000
0000
0023
0000
0000
0000
2030
0000
0000
0000
3020
0000
0000
0030
0020
0000
0000
0000
0032
0000
0000
0000
2003
0000
0000
0000
,
3010
0200
0320
0230
0301
0020
0230
0320
,
0031
0000
0000
0000
0200
0000
0000
0000
0320
0000
0000
0000
0230
0000
0000
0000
0320
0000
0000
0030
0020
0000
0000
0000
0230
0000
0000
0000
0320
0000
0000
0000
,
1030
0000
0000
0000
0200
0000
0000
0300
1200
0000
0000
0000
0320
0000
0000
0000
0031
0000
0000
0000
0200
0000
0000
0300
0210
0000
0000
0300
1000
0000
0000
0000
,
0100
0000
0001
0000
0100
0000
0010
1000
0010
0000
1000
0000
0010
1000
0100
0010
,
0001
0010
0100
1000
0100
0010
0001
0100
,
1000
0100
0010
0001
0010
1000
0010
0001
,
1000
0100
0001
1000
0100
0001
0100
0001
,
0100
1000
0100
0010
0001
0100
0010
0100
,
0010
1000
0001
1000
0001
1000
0010
1000
,
0001
0100
0001
0100
0001
0010
0100
1000
,
0002
0100
1000
1000
0100
1000
0100
0103
,
2000
0010
0001
0001
0010
0001
0010
3010
,
1000
0000
0000
0220
0000
0000
0000
0000
0000
0000
0000
0000
0330
0000
0000
0000
,
0001
0000
1000
0000
0002
0000
1003
0001
2000
0000
3002
0000
0013
0000
0200
0000
,
0310
0000
0000
0000
2000
0000
0000
0000
3010
0000
0000
0000
0002
0000
0000
0003
0002
0000
0000
0000
1003
0000
0000
0000
0002
0000
0000
0000
0003
0000
0000
0000
,
0100
0000
0010
0000
0200
0000
0310
0100
0020
0000
0230
0000
0310
0000
2000
0000
,
3001
0020
0032
1003
0100
1000
0001
0100
,
0001
0100
0001
0100
0001
0100
0001
0100
0020
0000
1000
0000
1030
0000
0100
0000
,
1000
0100
1000
0100
1000
0100
1000
0100
0020
0000
0001
0000
0031
0000
0100
0000
,
0001
0000
0100
0000
0001
0000
1000
0100
2000
0000
3001
0000
0100
0000
0020
0000
,
1030
0000
0000
0000
0020
0000
0000
0000
0130
0000
0000
0000
0020
0000
0000
0030
0020
0000
0000
0000
1030
0000
0000
0000
0200
0000
0000
0000
1300
0000
0000
0000
,
0100
0000
0010
0000
0002
0000
0013
0001
0020
0000
0032
0000
0013
0000
0200
0000
,
1300
0000
0000
0000
0100
0000
0000
0000
2000
0000
0000
0000
3200
0000
0000
0300
0200
0000
0000
0000
0310
0000
0000
0000
0002
0000
0000
0000
0103
0000
0000
0000
,
0001
0100
0020
0130
0002
0203
0310
0200
,
0301
0000
0000
0000
0020
0000
0000
0030
0020
0000
0000
0000
0130
0000
0000
0000
0010
0000
0000
0000
0001
0000
0000
0000
1000
0000
0000
0000
0100
0000
0000
0000
,
0010
0001
0010
0001
0010
0001
0010
0001
2000
0000
0010
0000
3010
0000
1000
0000
,
0010
1000
0010
1000
0010
1000
0010
1000
0002
0000
0010
0000
0013
0000
0001
0000
,
1001
0000
0000
0000
0000
0000
0000
0000
0002
0003
0000
0000
0020
0030
0000
0000
0200
0300
0000
0000
2000
3000
0000
0000
0200
0300
0000
0000
0020
0030
0000
0000
,
0001
0000
0010
0000
0002
0003
0010
0000
0200
0300
0010
0000
0100
0000
0010
0000
1000
0000
0010
0000
1000
0000
0010
0000
0200
0000
0000
0000
0300
0000
0000
0000
,
1000
0100
0010
0001
1000
0100
0010
0001
1000
0100
1000
0100
1000
0100
1000
0000
,
1000
0100
0010
0001
1000
0100
0010
0001
0010
0100
0010
0100
0010
0100
0010
0000
,
1000
0100
0010
0001
1000
0100
0010
0001
0010
0000
0100
0000
0010
0000
0011
0000
,
0000
0000
0000
1000
0000
0000
1001
0000
0000
0000
0001
1000
0200
0000
0000
0000
0000
0000
0300
0000
0000
0000
0000
0000
,
0001
0010
0100
1000
0001
0010
0100
1000
0100
1000
0100
1000
0100
1000
0100
0000
,
0001
0010
0100
1000
0001
0010
0100
1000
0100
0010
0100
0010
0100
0010
0100
0000
,
0001
0010
0100
1000
0001
0010
0100
2000
0002
0000
0000
0000
3003
0000
0100
0100
,
0000
0000
0010
0010
0000
0000
0220
0000
0330
0000
1000
0001
1000
0001
1000
0002
,
2000
0000
0000
3003
;

//---------------dance-single - ----------------
#NOTES:
     dance-single:
     :
     Medium:
     6:
     0.472,0.504,0.119,0.237,0.059:
0000
0000
0000
0000
,
0000
0000
0000
0000
,
2000
0000
0000
0000
0001
0000
0000
0001
0000
0000
0001
0000
3001
0000
0000
0000
,
0002
0000
0000
0000
1000
0000
0000
1000
0000
0000
1000
0000
1003
0000
0000
0000
,
0200
0000
0000
0000
0010
0000
0000
0010
0000
0000
0010
0000
0310
0000
0000
0000
,
0020
0000
0000
0000
0100
0000
0000
0100
0000
0000
0100
0000
0130
0000
0000
0000
,
0200
0000
0000
0000
1000
0000
0000
1000
0000
0000
1000
0000
1300
0000
0100
0000
,
0020
0000
0000
0030
,
0001
0010
0001
0010
0001
0010
0001
0010
,
0001
1000
0001
1000
0001
1000
0001
1000
,
0001
0100
0001
0100
0001
0100
0001
0100
,
0000
0010
0100
0000
0110
0000
0000
0000
,
1000
0010
1000
0010
1000
0010
1000
0010
,
1000
0001
1000
0001
1000
0001
1000
0001
,
1000
0100
1000
0100
2000
0000
0000
0100
,
0000
0100
0000
0200
0000
0000
3300
0000
,
0010
0000
0000
0001
0000
0000
0010
0000
0000
0000
0000
0000
0001
0000
0010
0000
,
0100
0000
0010
0000
0001
1000
0000
1010
,
1000
0010
1000
0010
,
0100
0000
0010
0000
0100
0010
0000
0010
,
1000
0001
1000
0001
,
0101
0000
0001
0000
1000
0001
0000
1001
,
0000
0000
0001
1000
0000
0001
0000
1000
,
0000
0100
0020
0000
0001
0000
0031
0000
,
0001
0000
0000
0010
0000
0000
0100
0000
0000
0000
0000
0000
1000
0000
0100
0000
,
1000
0000
0001
0000
0100
0110
0000
0010
,
1000
0000
0010
0000
1000
0000
0010
0100
,
0010
0000
1000
0000
0010
1000
0000
1000
,
0001
0000
0010
0000
0001
0000
0010
0001
,
0010
0000
0100
0000
0010
0001
0000
0010
,
0000
0000
0011
0000
0100
0000
1001
0100
,
0001
0100
0010
0100
,
0010
0000
1000
0010
1000
0010
1000
0010
,
0000
1000
0000
0010
0000
1000
0010
1000
,
0000
0000
0010
0000
1000
0000
0010
1000
,
0000
0010
1000
0000
0100
0000
0010
0001
,
0000
0010
0001
0000
0000
0001
0010
0001
,
0000
0010
0001
0000
0001
0010
0100
2000
,
0000
0010
0010
0010
,
0000
0010
0001
3010
,
1000
0000
0000
2002
0000
0000
0000
0000
3003
0000
0000
0100
0000
0001
0000
0100
,
0000
0001
0100
0000
0010
0000
1000
0000
,
0010
0000
0010
0000
1000
0010
0000
0010
,
1000
0000
0010
0000
1000
0010
1000
0010
,
0000
0010
2000
0000
0001
0000
3001
0010
,
0001
0010
0100
0000
1000
0100
0000
1000
,
0100
0010
0001
0000
0010
0001
0000
0010
,
0000
0200
1000
0000
1000
1000
0000
0010
,
0000
0000
0010
0000
0000
0000
0010
0000
0310
0000
0000
0001
0000
0100
0000
0000
,
0001
1000
0200
0000
0010
0010
0000
0310
,
0000
0002
0000
0100
0103
0010
1000
0000
,
0020
0000
1000
0000
1000
1000
0000
1000
,
0000
0100
0130
0000
0001
0000
0100
0010
,
0100
0010
0100
0000
0010
1000
0000
2020
,
0000
0000
0000
0000
,
3030
0000
1000
0100
0010
0001
0010
0200
,
0000
1000
2000
0000
0000
0000
3300
0000
,
1000
0001
1000
0001
1000
0001
1000
0001
,
0100
0001
0100
0001
0100
0001
0100
0001
,
0010
0001
0010
0001
0010
0001
0010
0100
,
0000
0100
0010
0000
0220
0000
0330
0000
,
1000
0001
1000
0001
1000
0001
1000
0001
,
0100
0001
0100
0001
0100
0001
0100
0001
,
1000
0010
1000
0010
2000
0000
3000
0110
,
0000
0101
0000
2002
0000
0000
0000
0000
,
3003
0000
0000
0000
;

//---------------dance-single - ----------------
#NOTES:
     dance-single:
     :
     Easy:
     3:
     0.283,0.267,0.091,0.219,0.000:
2000
0000
0000
3000
,
0002
0000
0000
0003
,
2000
0000
0000
3000
,
0002
0000
0000
0003
,
0200
0000
0000
0300
,
0002
0000
0000
0003
,
2000
0000
0000
3000
,
0020
0000
0000
0030
,
0100
0100
0100
0000
,
0001
0001
0001
0000
,
0010
0010
0010
0010
,
0010
0000
0110
0000
,
1000
1000
1000
0000
,
0010
0010
0010
0000
,
0100
0100
0100
0000
,
0002
0000
2000
3003
,
1000
1000
1000
1000
,
0001
0001
0001
0001
,
1000
1000
1000
1000
,
0001
0001
0001
0001
,
0100
0100
0100
0100
,
0001
0001
0001
0001
,
0100
0100
0001
0001
,
0100
0100
0001
0001
,
1000
1000
1000
1000
,
0010
0010
0010
0010
,
1000
1000
1000
1000
,
0010
0010
0010
0010
,
0100
0100
0100
0100
,
0001
0001
0001
0000
,
1001
0000
1001
0000
,
2002
0000
3003
0000
,
0001
0001
0001
0001
,
1000
1000
1000
1000
,
0010
0010
0010
0010
,
1000
1000
1000
1000
,
0002
0000
0203
0000
,
0302
0000
0203
0000
,
0320
0000
0000
0000
,
0100
0000
0100
0000
,
0130
0000
1001
0000
,
0001
0001
0001
0000
,
1000
1000
1000
0000
,
0010
0010
0010
0000
,
1000
1000
1000
0000
,
2000
0000
3001
0000
,
0002
0000
0103
0000
,
1000
1000
0001
0001
,
1000
1000
0001
0000
,
0001
0001
0001
0000
,
0100
0100
0100
0000
,
0001
0001
0001
0000
,
1000
1000
1000
0000
,
0001
1000
0001
1000
,
0002
0000
0000
0003
,
2002
0000
0000
0000
,
0000
0000
0000
3003
,
0001
0001
0001
0001
,
1000
1000
1000
1000
,
0001
0001
0001
0001
,
0100
0000
0110
0000
,
1000
1000
1000
1000
,
0001
0001
0001
0001
,
0010
0010
0010
0000
,
0110
0000
1001
0000
,
0220
0330
0000
0000
0000
0000
0000
0000
;
