#TITLE:Hyper Gride;
#SUBTITLE:;
#ARTIST:Shoichiro Hirata;
#TITLETRANSLIT:;
#SUBTITLETRANSLIT:;
#ARTISTTRANSLIT:;
#CREDIT:;
#BANNER:[Round 4] Hyper Gride.png;
#BACKGROUND:[Round 4] Hyper Gride-BG.png;
#LYRICSPATH:;
#CDTITLE:;
#MUSIC:[Round 4] Hyper Gride;
#OFFSET:0.219;
#SAMPLESTART:76.072;
#SAMPLELENGTH:14.34;
#SELECTABLE:YES;
#BPMS:0.000=134.000;
#STOPS:;
#BGCHANGES:;

//---------------dance-single - ----------------
#NOTES:
     dance-single:
     :
     Easy:
     3:
     0.239,0.273,0.082,0.037,0.000: // measure 1
0000
0000
0000
0000
,  // measure 2
0000
0000
0000
0000
,  // measure 3
0000
0000
0000
0000
,  // measure 4
0000
0000
0000
0000
,  // measure 5
0000
0000
0000
0000
,  // measure 6
0000
0000
0000
0000
,  // measure 7
0000
0000
0000
0000
,  // measure 8
0000
0000
0000
0100
,  // measure 9
0000
0000
0000
1000
,  // measure 10
0001
1000
0001
1000
,  // measure 11
1000
0001
0001
1000
,  // measure 12
1000
0001
0001
1000
,  // measure 13
1000
0001
0001
1000
,  // measure 14
0001
1000
0001
1000
,  // measure 15
1000
0001
0001
0010
,  // measure 16
0010
0100
0100
1000
,  // measure 17
1000
0001
0001
0010
,  // measure 18
0100
1000
0100
1000
,  // measure 19
0100
1000
0100
1000
,  // measure 20
0001
1000
0001
0100
,  // measure 21
0001
0100
0001
1000
,  // measure 22
0001
1000
0001
1000
,  // measure 23
0100
1000
0100
1000
,  // measure 24
0001
1000
0001
0100
,  // measure 25
0001
0100
0001
1000
,  // measure 26
0001
1000
0001
1001
,  // measure 27
0100
0000
0000
0100
,  // measure 28
0100
0100
0100
1001
,  // measure 29
0000
0000
0000
0110
,  // measure 30
0000
0000
0000
1001
,  // measure 31
0000
0000
0000
0010
,  // measure 32
0010
0010
0010
1000
,  // measure 33
0000
0001
0000
1000
,  // measure 34
0001
1000
0001
2000
,  // measure 35
0000
0000
0000
3001
,  // measure 36
0001
1000
1000
0001
,  // measure 37
0001
1000
1000
0001
,  // measure 38
0001
1000
1000
0100
,  // measure 39
0100
0020
0000
1030
,  // measure 40
1000
0001
0001
1000
,  // measure 41
1000
0001
0001
0010
,  // measure 42
0010
0100
0100
1000
,  // measure 43
1000
0000
0000
0001
,  // measure 44
0100
0001
0100
0001
,  // measure 45
1000
0001
1000
0100
,  // measure 46
1000
0100
1000
0001
,  // measure 47
1000
0001
1000
0001
,  // measure 48
0100
0001
0100
0001
,  // measure 49
1000
0001
1000
0100
,  // measure 50
1000
0100
1000
0001
,  // measure 51
1000
0001
1000
1001
,  // measure 52
0100
0000
0000
0100
,  // measure 53
0100
0100
0100
1001
,  // measure 54
0000
0000
0000
0110
,  // measure 55
0000
0000
0000
1001
,  // measure 56
0000
0000
0000
0010
,  // measure 57
0010
0010
0010
1000
,  // measure 58
0000
0001
0000
1000
,  // measure 59
0001
1000
0001
2002
,  // measure 60
0000
0000
0000
3003
;

//---------------dance-single - ----------------
#NOTES:
     dance-single:
     :
     Medium:
     7:
     0.417,0.494,0.402,0.055,0.027:
0000
0000
0000
0000
,
0000
0000
0000
0000
,
0000
0000
0000
0000
,
0000
0000
0000
0000
,
0000
0000
0000
0000
,
0000
0000
0000
1000
,
0000
0000
0000
0001
,
0000
0000
0000
0000
0000
0001
0100
0000
,
0000
0000
0000
0002
,
2003
0000
3002
0000
0003
0000
1000
0100
,
1000
0000
0001
0100
0001
0000
0010
0001
,
1000
0000
0010
1000
0100
0000
1000
0001
,
1000
0000
0001
1000
0001
0000
0010
0001
,
0100
0010
1000
0100
1000
0000
0001
0010
,
0011
0000
0100
1000
1100
0000
0001
0100
,
0101
0000
0001
1000
1001
0000
1000
0100
,
1100
0000
0001
0100
0101
0000
1000
0010
,
0100
0001
0100
0001
0010
0100
1000
0100
,
0010
0001
0010
0001
1000
0000
1000
0001
,
1000
0000
0001
1000
0001
0000
0001
0100
,
0010
1000
0100
1000
0001
0000
0011
0000
,
1010
0000
0011
0000
1010
0000
1000
0100
,
0010
0001
0100
0001
1000
0000
1100
0000
,
0101
0000
1100
0000
0101
0000
0001
0100
,
0010
1000
0100
0000
1001
0000
0001
0000
,
0100
0001
1000
0010
,
0010
0010
1001
0100
,
0100
0100
0100
1001
,
0001
0001
0001
0010
,
0000
0000
0000
1000
,
0110
0010
1001
0010
,
1010
0100
0101
1001
,
0100
1001
0000
0110
,
0001
1000
0100
2001
,
0000
0000
0000
0000
3000
0000
0010
0100
,
0001
0000
1000
0001
1000
0000
0010
0100
,
0001
0000
0010
0100
0010
0000
0100
1000
,
0010
0000
0100
0001
0100
0000
0010
1000
,
0100
0010
0001
0100
0010
0000
1000
0010
,
1010
0000
0100
0001
0101
0000
1000
0100
,
1100
0000
0001
1000
0001
0000
1000
0001
,
1000
0000
0100
0000
0100
0000
1000
0100
,
1000
0001
0100
0001
0001
0000
1000
0100
,
0010
0001
0100
0001
1000
0000
1000
0001
,
1000
0000
0001
1000
0001
0000
1000
0100
,
0010
0001
0100
0001
1000
0000
0011
0000
,
1010
0000
0011
0000
1010
0000
1000
0100
,
0010
0001
0100
0001
1000
0000
1100
0000
,
0101
0000
1100
0000
0101
0000
1000
0100
,
0010
0001
0100
0000
1001
0000
0001
0000
,
0100
0000
0000
0000
0001
0000
0000
0000
1000
0000
0000
0000
0010
0000
0000
1000
,
0000
0000
0100
0000
0000
0000
0010
0000
0001
0000
1000
0000
0100
0000
0000
1000
,
0000
0000
0010
0000
0000
0000
1000
0000
0001
0000
1000
0000
1000
0000
0000
0001
,
0000
0000
0100
0000
0000
0000
0001
0000
1000
0000
0001
0000
0010
0000
0000
0001
,
0000
0000
0100
0000
0000
0000
0010
0000
1000
0000
0001
0000
0100
0000
0000
0010
,
0000
0000
1000
0000
0000
0000
0001
0000
1000
0000
0000
0001
0000
0000
0000
0000
,
1000
0001
0000
0100
0001
0000
1001
0000
,
0100
1001
0010
1001
,
0110
1001
0110
2002
,
0000
0000
0000
0000
,
3003
0000
0000
0000
;

//---------------dance-single - ----------------
#NOTES:
     dance-single:
     :
     Hard:
     9:
     0.545,0.606,0.283,0.055,0.265:
0000
0000
0000
0000
,
0000
0000
0000
0000
,
0000
0000
0000
0000
,
0000
0000
0000
0000
0000
0001
1000
0000
,
0000
0000
0000
0001
,
0000
0000
0000
1000
,
0000
0000
0000
0001
,
0000
0000
0000
0000
0000
1000
0100
0000
,
0000
0000
0000
2000
,
3002
0000
0000
0000
2003
0000
0000
0000
3000
0000
0000
0000
0001
1000
0001
0000
,
0100
0000
0000
0000
0010
1000
0010
0000
0100
0000
0000
0000
0001
0100
0001
0000
,
1000
0000
0000
0000
0100
0010
0100
0000
0010
0000
0000
0000
0001
0010
0001
0000
,
0100
0000
0000
0000
0001
0100
0001
0000
0100
0000
0000
0000
0010
1000
0010
0000
,
0100
0010
1000
0100
0010
0000
0001
0010
,
0011
0000
0100
1000
1100
0000
0001
0100
,
0101
0000
0000
0000
0001
0000
1000
0000
1001
0000
0001
0000
1000
0010
1000
0000
,
0010
0000
0100
0000
0001
0100
0001
0000
1000
0000
0010
0000
1000
0100
0010
0000
,
0001
1000
0100
1000
0001
0010
1001
0100
,
0010
0001
0100
0001
1000
0001
0100
1000
,
0100
0000
0001
0000
1000
0100
1000
0000
0001
0100
0001
0000
1000
0100
1000
0000
,
0010
1000
0100
1000
0001
1000
0100
0001
,
0100
0000
1000
0000
0001
0100
0010
1000
0000
0000
0000
0000
0001
0100
0001
0000
,
0010
0001
0100
0010
1000
0100
0001
0100
,
1000
0000
0010
0000
0100
0001
0100
0000
0010
1000
0010
0000
0100
0001
0100
0000
,
0010
1000
0100
0010
0011
0000
0110
0000
,
1010
0000
0000
0000
0101
0000
0000
0000
1000
0000
0000
0000
0010
0000
0000
1000
,
0000
0000
0100
0000
0000
0000
0010
0000
0001
0000
1000
0000
0100
0000
0000
1000
,
0000
0000
0010
0000
0000
0000
1000
0000
0001
0000
1000
0000
1001
0000
0000
0001
,
0000
0000
0100
0000
0000
0000
0001
0000
1000
0000
0001
0000
0010
0000
0000
0001
,
0000
0000
0100
0000
0000
0000
0010
0000
1000
0000
0001
0000
0100
0000
0000
0010
,
0000
1001
0000
1000
0001
1000
0100
0000
,
1000
0001
0000
0100
0001
0100
1001
0000
,
0100
1010
0100
0011
,
1010
1001
0110
2001
,
0000
0000
0000
0000
0000
0000
0000
0000
3000
0000
0000
0000
0010
1000
0100
0000
,
1000
0000
0000
0000
0001
1000
0100
0000
1000
0000
0000
0000
0010
0100
0001
0000
,
0100
0000
0000
0000
0010
1000
0100
0000
0010
0000
0000
0000
0001
1000
0001
0000
,
0010
0000
0000
0000
0001
0100
0001
0000
0100
0000
0000
0000
0010
1000
0010
0000
,
0100
0000
0010
0000
1000
0000
0100
0000
0110
0000
0000
0000
0001
0010
0001
0100
,
0001
0000
0000
0000
1000
0100
0010
0001
1000
0000
0000
0000
0001
0010
0001
0100
,
0001
0000
0000
0000
1000
0100
0010
0001
1001
0000
1000
0000
0001
0100
0001
0000
,
0010
0000
0100
0000
1000
0100
1000
0000
0001
0000
0100
0000
0001
0010
0100
0000
,
1000
0001
0100
0001
1000
0010
1001
0100
,
1000
0100
0010
0001
0010
0001
0100
1000
,
0100
0000
0001
0000
1000
0100
1000
0000
0001
0100
0001
0000
1000
0100
1000
0000
,
0010
0100
0001
0100
0010
1000
0100
0001
,
0100
0000
1000
0000
0001
0100
0010
1000
0000
0000
0000
0000
0010
0100
0001
0000
,
0010
0001
0100
1000
0100
0010
0100
0001
,
0010
0000
0100
0000
1000
0001
1000
0000
0010
0100
0010
0000
0100
0001
0100
0000
,
0010
1000
0100
0010
0011
0000
1001
0000
,
0100
0000
0000
0000
1001
0000
0000
0000
0110
0000
0000
0000
0010
0000
1000
0100
,
1000
0000
0010
0100
0000
0000
0001
0000
0010
0000
0001
0000
0100
0000
0000
0000
,
0010
0000
1000
0000
0100
0000
1000
0000
0100
0000
0010
0000
0001
0000
0100
0010
,
0100
0000
0001
0100
0000
0000
0010
0000
1000
0000
0010
0000
1000
0000
0000
0001
,
0000
0000
0100
0000
0000
0000
0010
0000
1000
0000
0001
0000
1000
0000
0001
0100
,
0001
0000
1000
0100
0000
0000
1000
0000
0010
0000
0100
0000
0001
0000
0000
0000
,
1000
0001
0000
0100
0010
0100
1010
0000
,
1001
0100
0011
1100
,
0101
0000
1000
0100
0010
0001
2002
0000
,
0000
0000
0000
0000
,
0000
3003
0000
0000
;
