#TITLE:DM Star;
#SUBTITLE:~kansai energy style~;
#ARTIST:NAOKI;
#TITLETRANSLIT:;
#SUBTITLETRANSLIT:;
#ARTISTTRANSLIT:;
#GENRE:;
#CREDIT:;
#MENUCOLOR:;
#METERTYPE:DDR;
#BANNER:DMStar-logo.png;
#BACKGROUND:DMStar-bg.png;
#LYRICSPATH:;
#CDTITLE:;
#MUSIC:DMStar.mp3;
#OFFSET:-2.047;
#SAMPLESTART:100.000;
#SAMPLELENGTH:11.720;
#SELECTABLE:YES;
#LISTSORT:;
#BPMS:0.000=155.100;
#STOPS:289.000=0.195
,292.500=0.195
;
#BGCHANGES:;
#ATTACKS:;

//---------------dance-single - ----------------
#NOTES:
     dance-single:
     :
     Hard:
     8:
     0.532,0.536,0.382,0.041,0.000: // measure 1
0000
0000
0000
0000
,  // measure 2
0000
0000
0000
0000
,  // measure 3
0000
0000
0000
0000
,  // measure 4
0000
0000
0000
0000
,  // measure 5
0000
1000
0000
0001
,  // measure 6
0000
1000
0000
0001
,  // measure 7
1000
0000
0100
0000
0010
0100
1000
0100
,  // measure 8
0000
0010
0002
0000
0100
0000
0103
0000
,  // measure 9
1000
0001
0100
0000
0001
1000
0100
0010
,  // measure 10
0001
0011
0101
0011
,  // measure 11
1000
0001
0100
0000
0001
1000
0100
0000
,  // measure 12
1100
1010
1100
1010
,  // measure 13
1000
0100
0001
0100
1000
0100
0001
0000
,  // measure 14
0101
1100
0101
1100
,  // measure 15
0100
1000
0010
0000
0010
0100
0001
0000
,  // measure 16
0101
1100
0101
1100
,  // measure 17
0100
0001
0010
0100
1000
0001
0101
0000
,  // measure 18
0100
0001
0010
0001
0100
0001
0010
0001
,  // measure 19
0100
0100
0010
1000
,  // measure 20
0100
1000
0010
1000
0100
1000
0010
1000
,  // measure 21
0100
0000
0100
0000
0010
0010
0010
0000
,  // measure 22
0001
0010
0100
0010
0001
0010
0100
0010
,  // measure 23
0001
0001
1000
0100
,  // measure 24
1000
0010
0100
0010
1000
0010
0100
0010
,  // measure 25
1000
1000
0001
1000
,  // measure 26
0101
0000
0101
0000
1000
0001
0100
0001
,  // measure 27
0000
0001
1000
0000
0100
1000
0100
0000
,  // measure 28
1100
0000
1100
0000
0001
1000
0100
1000
,  // measure 29
0000
1000
0001
0000
0001
1000
0001
0000
,  // measure 30
1001
0000
1001
0000
0001
0100
0010
1000
,  // measure 31
0000
1000
0001
0000
0001
0010
0100
0000
,  // measure 32
0110
0000
0110
0000
0100
1000
0001
1000
,  // measure 33
0000
1000
0001
0000
0100
0010
0100
0000
,  // measure 34
0002
0000
0000
0203
0000
0000
0310
0000
,  // measure 35
0100
0000
0101
0000
1000
0010
0100
0000
,  // measure 36
0020
0000
0000
0030
,  // measure 37
1000
0000
1000
0000
0100
0010
0100
0000
,  // measure 38
1000
0100
0001
0000
0001
0100
1000
0000
,  // measure 39
0001
0100
1000
0000
1000
0100
0001
0000
,  // measure 40
1000
0100
0001
0100
1000
0001
0100
1000
,  // measure 41
0100
0000
0100
0000
0100
0001
0010
0000
,  // measure 42
0011
1100
0011
1100
,  // measure 43
1000
0100
0001
0000
0001
0010
1000
0000
,  // measure 44
1010
0101
1010
0101
,  // measure 45
0001
0100
1000
0100
0001
0001
0001
0000
,  // measure 46
0101
1010
1100
0011
,  // measure 47
1000
0100
1000
0000
0001
0100
0001
0000
,  // measure 48
1000
0010
0100
1000
0100
0001
0010
0000
,  // measure 49
0110
0000
0110
0000
0100
1000
0001
0000
,  // measure 50
0001
1000
0010
1000
0001
1000
0010
1000
,  // measure 51
0001
0100
0010
1000
,  // measure 52
1000
0001
0010
0001
1000
0001
0010
0001
,  // measure 53
1000
0000
0001
0000
1000
0010
0100
0000
,  // measure 54
1000
0100
0010
0100
1000
0100
0010
0100
,  // measure 55
1000
0000
1000
0000
0100
0001
1000
0000
,  // measure 56
0100
0001
0100
1000
0100
0001
0100
1000
,  // measure 57
0100
0100
1000
0001
,  // measure 58
1100
0000
1100
0000
0001
0100
0010
0100
,  // measure 59
0000
0100
0001
0000
1000
0000
1000
0000
,  // measure 60
0101
0000
0101
0000
1000
0001
0100
0001
,  // measure 61
0000
0001
0010
0000
0100
0000
0100
0000
,  // measure 62
1000
0100
1000
0000
0001
0010
0001
0000
,  // measure 63
1000
0010
0100
0001
0100
0010
1000
0000
,  // measure 64
0101
0000
0101
0000
1000
0010
0100
0001
,  // measure 65
0000
0001
1000
0000
1000
0001
1000
0000
,  // measure 66
0001
0100
0010
1000
0100
1000
0010
0100
,  // measure 67
0001
0100
0010
1000
0100
1000
0010
0100
,  // measure 68
0001
0000
0001
0000
0100
0010
0100
0001
,  // measure 69
0000
0001
1000
0000
1000
0000
0101
0000
,  // measure 70
1000
0010
0100
0001
0010
0001
0100
0010
,  // measure 71
1000
0010
0100
0001
0010
0001
0100
0010
,  // measure 72
1000
0000
1000
0000
0001
0100
1000
0100
,  // measure 73
0000
0100
0001
0001
0000
0100
0010
0000
,  // measure 74
0010
0100
0100
0000
0000
1000
0010
1000
,  // measure 75
0100
1000
0010
0000
0100
0001
0000
0001
,  // measure 76
0020
0000
0000
0000
,  // measure 77
0030
0000
0000
0000
;

//---------------dance-single - ----------------
#NOTES:
     dance-single:
     :
     Easy:
     4:
     0.313,0.373,0.133,0.041,0.000:
0000
0000
0000
0000
,
0000
0000
0000
0000
,
0000
0000
0000
0000
,
0000
0000
0000
0000
,
0000
1000
0000
1000
,
0000
1000
0000
1000
,
0000
1000
0000
1000
,
0000
0000
0000
0000
,
0002
0000
0000
0103
,
0001
0100
1000
0100
,
0001
0001
1000
0001
,
1000
0100
0001
0100
,
1000
1000
0001
1000
,
0001
0010
1000
0010
,
0001
0001
1000
0001
,
0100
0100
0010
0010
,
1000
0100
0010
0001
,
1000
0100
1000
0010
,
1000
0100
0010
0001
,
0100
0001
0010
0001
,
0100
0100
0001
0001
,
1000
0100
0010
0100
,
1000
1000
0010
0010
,
0100
0001
0100
0010
,
0200
0000
0001
0301
,
0001
0001
1100
0001
,
1000
1000
0001
1000
,
0101
1000
0101
1000
,
0010
0010
0100
0001
,
0010
0010
1001
0100
,
1001
0100
0010
0010
,
0100
1000
0100
0001
,
0100
0100
0010
0100
,
2000
0000
0000
0000
,
3000
0000
0000
0000
,
0002
0000
0000
0000
,
0003
0000
0000
0000
,
0100
0001
1000
1000
,
0100
0001
1000
1000
,
0100
0001
1000
1000
,
0100
0001
1000
1001
,
1100
1100
0001
0001
,
0100
0100
0010
0010
,
1100
1100
0001
0001
,
1000
0010
0100
0001
,
0101
0101
0100
0100
,
0010
0010
1000
1000
,
0101
0101
1000
0001
,
0100
0010
0100
1001
,
0010
1000
0100
1000
,
0010
1000
0100
0100
,
0010
0001
0100
0001
,
0010
0001
0100
0100
,
0010
1000
0010
0001
,
0010
1000
1000
0001
,
0010
1000
0010
0001
,
0200
0000
0010
0310
,
1000
0000
0001
0000
,
1000
0000
0100
0000
,
0010
0000
0100
0000
,
1000
0000
0010
0000
,
0100
0000
0001
0000
,
0100
0000
0010
0000
,
1000
0000
0100
0000
,
0010
0100
0010
0100
,
1000
0001
0100
0010
,
1000
0100
0010
0001
,
0100
0010
1000
0100
,
0010
0001
0100
0001
,
0010
0100
1000
0010
,
0100
0001
0010
0100
,
1000
0010
0100
0001
,
1000
0000
0001
1000
0000
0000
0000
0001
,
0000
1000
0001
0000
1000
0000
1000
0000
,
0001
0000
1000
0000
0100
0010
0000
0000
,
0110
0000
0000
0000
;

//---------------dance-single - ----------------
#NOTES:
     dance-single:
     :
     Challenge:
     9:
     0.570,0.691,0.241,0.199,0.166:
0000
0000
0000
0000
,
0000
0000
0000
0000
,
0000
0000
0000
0000
,
0000
0000
0000
0000
,
0000
1000
0000
1000
,
0000
0001
0000
0001
,
0000
0010
0000
0010
,
0000
0000
0000
0000
,
0100
0000
1000
0000
0100
0000
1000
0000
0001
1000
0001
0000
0010
0000
0000
0000
,
0000
0000
0100
0000
0000
1000
0000
0000
0002
0000
0000
0000
0000
0000
0013
0000
,
0011
0000
1100
0000
1000
0010
0100
0000
,
0000
0000
0001
0000
0000
1000
0000
0000
0020
0000
0000
0000
0000
0000
0130
0000
,
0110
0000
1001
0000
0100
0010
0100
0000
,
0000
0000
0001
0000
0000
1000
0000
0000
0200
0000
0000
0000
0000
0000
1300
0000
,
1001
0000
1100
0000
1000
0001
0100
0000
,
0000
0000
0010
0000
0000
1000
0000
0000
0002
0000
0000
0000
0000
0000
0103
0000
,
1001
0000
0110
0000
0010
1000
0100
0000
,
0020
0000
0000
0031
0100
0000
0002
0000
0000
0013
0001
0000
0200
0000
0000
0301
,
0010
0000
0100
1000
0100
0010
0001
0010
,
0200
0000
0000
1300
0010
0000
2000
0000
0000
3010
1000
0000
0200
0000
0000
1300
,
0010
0000
0000
0000
0100
0000
0001
0000
1000
0001
1000
0001
1000
0000
0010
0000
,
0200
0000
0000
0301
0100
0000
0020
0000
0000
0130
0001
0000
0200
0000
0000
0301
,
0100
0000
0010
1000
0010
0100
0001
1000
,
0100
0000
0000
0010
0100
0000
2000
0000
0000
3100
0010
0000
0100
0000
1000
0000
,
0002
0000
0010
0013
,
0100
1000
0100
0001
0100
1000
0100
0010
,
0000
0001
0100
0000
0010
0000
1001
0000
,
0100
0001
0100
1000
0100
0001
0100
1000
,
0000
0100
0001
0000
0010
0000
0110
0000
,
0100
1000
0010
0100
0010
1000
0100
0010
,
0000
0001
0100
0000
0001
0000
1100
0000
,
0010
1000
0100
0000
0010
0001
0100
0001
,
0000
0010
0100
0000
1000
0000
1001
0000
,
1000
0000
0001
0100
0000
0100
0001
0000
,
1000
0000
0100
1000
0000
1000
0100
0000
,
1000
0000
0010
0100
0000
0100
0010
0000
,
1000
0000
0001
1000
0000
1000
0001
0000
,
0010
0000
0100
0000
1000
0000
0010
0000
0100
0000
0000
0001
0000
0000
0010
0000
,
0001
0000
0100
0000
0010
0000
1000
0000
0100
0000
0000
0010
0000
0000
0100
0000
,
1000
0100
0011
0000
0001
0100
1010
0000
,
1000
0010
0101
0001
1000
0010
0101
0000
,
0001
1000
1000
0000
0100
0010
0010
0000
,
0001
0100
1000
0100
0001
0010
0100
0000
,
1000
0010
0010
0000
0100
0001
0001
0000
,
0101
0000
1001
0000
1000
0001
1000
0000
,
0001
0010
1000
0010
0100
0001
0100
0000
,
1000
0010
1000
0100
1000
0010
0100
0000
,
0011
0000
0011
0000
0010
0100
1100
0000
,
1001
0000
0000
0000
0110
0000
0000
0000
1000
0001
1000
0001
1000
0000
0000
0000
,
0001
0000
0000
0100
0010
0000
2000
0000
0000
3100
0010
0000
0002
0000
0000
0103
,
0010
0000
1000
0000
0001
0100
0001
0100
0001
0100
0001
0100
0001
0000
0000
0000
,
1000
0000
0000
0100
0010
0000
0002
0000
0000
0103
0010
0000
2000
0000
0000
3100
,
0010
0000
0001
0000
1000
0000
0100
0000
0010
0100
0010
0100
0010
0000
0100
0000
,
0010
0000
0000
0001
0100
0000
0020
0000
0000
1030
0100
0000
0020
0000
0000
0031
,
0100
0010
1000
0100
0010
0001
0100
0001
,
1000
0000
0000
0100
0010
0000
0002
0000
0000
0103
0010
0000
2000
0000
0000
3100
,
0010
0001
0100
0010
1001
0000
0000
0000
,
1000
0000
0001
0000
0100
0010
0100
0001
,
0000
0001
1000
0000
0100
0000
0010
0000
,
0100
0000
1000
0000
0001
1000
0100
0010
,
0000
0010
0100
0000
1000
0000
1000
0000
,
0010
0100
0010
0000
0100
0001
0100
0010
,
0000
0010
0100
0000
0001
0000
0001
0000
,
1000
0001
1000
0000
1000
0100
0010
0100
,
0000
0100
1000
0000
0001
0000
1001
0000
,
1000
0100
0001
0100
1000
0100
0001
1000
,
0010
0001
0010
1000
0010
0001
0100
0010
,
0100
0000
0100
0000
0100
0001
0010
1000
,
0000
1000
0100
0000
0001
0000
0001
1000
,
0001
0100
1000
0100
0001
0100
1000
0001
,
0010
1000
0010
0001
0010
1000
0100
1000
,
0010
0100
0010
0000
0010
0100
0001
0100
,
0000
0010
1100
0011
0000
0001
1000
0000
,
0100
1010
0101
0000
0000
1000
0001
1000
,
0001
0100
0010
0000
1000
0100
0000
0010
,
0002
0000
0000
0003
;

//---------------dance-single - ----------------
#NOTES:
     dance-single:
     :
     Medium:
     6:
     0.425,0.435,0.075,0.050,0.000:
0000
0000
0000
0000
,
0000
0000
0000
0000
,
0000
0000
0000
0000
,
0000
0000
0000
0000
,
0000
0001
0000
0001
,
0000
1000
0000
1000
,
0000
0001
0000
0001
,
0000
0000
0000
0000
,
1000
0000
1000
0000
0001
1000
0001
0000
,
1000
0100
1000
0000
0010
1000
0010
0000
,
0100
0001
0100
0000
0001
0010
0001
0000
,
1000
0100
1000
0000
0010
1000
0010
0000
,
0100
0001
0100
0000
0001
0010
0001
0000
,
1000
0001
0100
0000
0001
0000
0001
0000
,
1000
0001
0100
0000
0001
1000
0100
0000
,
1000
0010
0100
0000
0010
0000
0010
0000
,
1000
0100
0010
0001
0010
0100
1000
0000
,
0001
0000
0100
0001
0000
0010
0001
0000
,
0100
0001
0100
0000
0001
1000
0001
0000
,
1000
0000
0010
1000
0000
0100
1000
0000
,
0010
0100
0010
0000
1000
0100
0010
0001
,
0100
0000
0010
1000
0000
0010
0100
0000
,
0001
0010
0100
0000
0010
0001
0100
0000
,
0010
0000
1000
0100
0000
0010
0100
0000
,
1000
0010
0100
0001
,
1000
0000
1001
0000
0001
0000
0100
0010
,
1000
0000
1001
0000
1000
0000
0001
0100
,
0010
0000
0110
0000
0010
0000
1000
0100
,
0010
0000
0110
0000
0100
0000
1000
0100
,
0010
0000
0011
0000
0001
0000
0100
0010
,
0100
0000
0001
0000
0011
0000
0001
0100
,
0010
0000
0100
0000
0101
0000
0100
0010
,
1000
0001
1001
1000
,
0200
0000
0000
0010
,
0000
0010
0300
0000
,
0002
0000
0000
0100
,
0000
0100
0003
0000
,
0100
0100
0010
0010
,
0100
0100
0001
0001
,
0100
0100
1000
1000
,
0100
0002
0000
1003
,
0001
0100
0001
0000
0010
0001
0010
0000
,
0100
1000
0100
0000
1000
0010
1000
0000
,
0001
0100
0001
0000
0010
0001
0010
0000
,
0100
1000
0100
0000
1000
0010
1000
0000
,
0001
1000
0100
0000
0100
0010
0001
0000
,
0001
1000
0100
0000
1000
0010
0100
0000
,
0010
1000
0001
0000
0100
0001
1000
0000
,
0010
1000
0001
0100
0010
1000
0010
0000
,
0100
0000
0001
0010
0000
0001
0100
0000
,
0001
0010
0100
1000
0100
0010
0001
0100
,
0010
0000
1000
0100
0000
1000
0010
0000
,
1000
0000
1000
0000
0001
1000
0001
0000
,
0100
0000
0001
1000
0000
0100
0010
0000
,
0001
0000
0100
0000
0010
1000
0010
0000
,
0100
0000
0001
0010
0000
0100
1000
0000
,
0100
0000
1000
1001
,
1000
0000
0100
0000
1000
0001
0000
1000
,
0000
1000
0200
0000
0000
0000
0300
0000
,
0010
0000
0010
0000
0001
0100
0000
0100
,
0000
0100
0020
0000
0000
0000
0030
0000
,
0001
0000
1000
0000
0100
0010
0001
0100
,
0000
0100
0002
0000
0000
0000
1003
0000
,
0001
0000
0000
0000
0100
0010
1000
0001
,
0000
0001
1000
0000
0000
0000
0100
0000
,
1000
0100
0010
0001
0010
0100
1000
0010
,
0000
0100
0001
0000
1000
0000
0001
0000
,
1000
0010
0100
0001
0100
0010
1000
0010
,
0000
0100
0001
0000
1000
0000
1000
0000
,
0001
0100
0010
1000
0010
0100
0001
0010
,
0000
0100
1000
0000
0001
0000
1000
0000
,
0001
0010
0100
1000
0100
0010
0001
0100
,
0000
0100
0010
0100
0000
0100
0010
0000
,
0010
0100
0010
0000
0000
0100
0001
0100
,
0001
1000
0001
0000
1000
0100
0000
0010
,
0001
0000
0000
0000
;
