#TITLE:What is a Snake?;
#SUBTITLE:;
#ARTIST:T2Kazuya feat. Rwr4539;
#TITLETRANSLIT:;
#SUBTITLETRANSLIT:;
#ARTISTTRANSLIT:;
#CREDIT:;
#BANNER:rwr-bn.png;
#BACKGROUND:rwr01.png;
#LYRICSPATH:;
#CDTITLE:Nonsense.png;
#MUSIC:rwr.ogg;
#OFFSET:0.285;
#SAMPLESTART:33.720;
#SAMPLELENGTH:11.000;
#SELECTABLE:YES;
#BPMS:0.000=176.000;
#STOPS:;
#BGCHANGES:36.000=rwrf.png=1.000=0=0=1,
37.000=rwrb.png=1.000=0=0=1,
38.000=rwrf.png=1.000=0=0=1,
39.000=rwrb.png=1.000=0=0=1,
40.000=rwrf.png=1.000=0=0=1,
41.000=rwrb.png=1.000=0=0=1,
42.000=rwrf.png=1.000=0=0=1,
43.000=rwrb.png=1.000=0=0=1,
44.000=rwrf.png=1.000=0=0=1,
45.000=rwrb.png=1.000=0=0=1,
46.000=rwrf.png=1.000=0=0=1,
47.000=rwrb.png=1.000=0=0=1,
48.000=rwrf.png=1.000=0=0=1,
49.000=rwrb.png=1.000=0=0=1,
50.000=rwrf.png=1.000=0=0=1,
51.000=rwrb.png=1.000=0=0=1,
52.000=rwrf.png=1.000=0=0=1,
53.000=rwrb.png=1.000=0=0=1,
54.000=rwrf.png=1.000=0=0=1,
55.000=rwrb.png=1.000=0=0=1,
56.000=rwrf.png=1.000=0=0=1,
57.000=rwrb.png=1.000=0=0=1,
58.000=rwrf.png=1.000=0=0=1,
59.000=rwrb.png=1.000=0=0=1,
60.000=rwrf.png=1.000=0=0=1,
61.000=rwrb.png=1.000=0=0=1,
62.000=rwrf.png=1.000=0=0=1,
63.000=rwrb.png=1.000=0=0=1,
64.000=rwrf.png=1.000=0=0=1,
65.000=rwrb.png=1.000=0=0=1,
66.000=rwrf.png=1.000=0=0=1,
67.000=rwrb.png=1.000=0=0=1,
68.000=rwrf.png=1.000=0=0=1,
69.000=rwrb.png=1.000=0=0=1,
70.000=rwrf.png=1.000=0=0=1,
71.000=rwrb.png=1.000=0=0=1,
72.000=rwrf.png=1.000=0=0=1,
73.000=rwrb.png=1.000=0=0=1,
74.000=rwrf.png=1.000=0=0=1,
75.000=rwrb.png=1.000=0=0=1,
76.000=rwrf.png=1.000=0=0=1,
77.000=rwrb.png=1.000=0=0=1,
78.000=rwrf.png=1.000=0=0=1,
79.000=rwrb.png=1.000=0=0=1,
80.000=rwrf.png=1.000=0=0=1,
81.000=rwrb.png=1.000=0=0=1,
82.000=rwrf.png=1.000=0=0=1,
83.000=rwrb.png=1.000=0=0=1,
84.000=rwrf.png=1.000=0=0=1,
85.000=rwrb.png=1.000=0=0=1,
86.000=rwrf.png=1.000=0=0=1,
87.000=rwrb.png=1.000=0=0=1,
88.000=rwrf.png=1.000=0=0=1,
89.000=rwrb.png=1.000=0=0=1,
90.000=rwrf.png=1.000=0=0=1,
91.000=rwrb.png=1.000=0=0=1,
92.000=rwrf.png=1.000=0=0=1,
93.000=rwrb.png=1.000=0=0=1,
94.000=rwrf.png=1.000=0=0=1,
95.000=rwrb.png=1.000=0=0=1,
96.000=rwrf.png=1.000=0=0=1,
97.000=rwrb.png=1.000=0=0=1,
98.000=rwrf.png=1.000=0=0=1,
99.000=rwrb.png=1.000=0=0=1,
100.000=rwr01.png=1.000=0=0=1,
164.000=rwrf.png=1.000=0=0=1,
165.000=rwrb.png=1.000=0=0=1,
166.000=rwrf.png=1.000=0=0=1,
167.000=rwrb.png=1.000=0=0=1,
168.000=rwrf.png=1.000=0=0=1,
169.000=rwrb.png=1.000=0=0=1,
170.000=rwrf.png=1.000=0=0=1,
171.000=rwrb.png=1.000=0=0=1,
172.000=rwrf.png=1.000=0=0=1,
173.000=rwrb.png=1.000=0=0=1,
174.000=rwrf.png=1.000=0=0=1,
175.000=rwrb.png=1.000=0=0=1,
176.000=rwrf.png=1.000=0=0=1,
177.000=rwrb.png=1.000=0=0=1,
178.000=rwrf.png=1.000=0=0=1,
179.000=rwrb.png=1.000=0=0=1,
180.000=rwrf.png=1.000=0=0=1,
181.000=rwrb.png=1.000=0=0=1,
182.000=rwrf.png=1.000=0=0=1,
183.000=rwrb.png=1.000=0=0=1,
184.000=rwrf.png=1.000=0=0=1,
185.000=rwrb.png=1.000=0=0=1,
186.000=rwrf.png=1.000=0=0=1,
187.000=rwrb.png=1.000=0=0=1,
188.000=rwrf.png=1.000=0=0=1,
189.000=rwrb.png=1.000=0=0=1,
190.000=rwrf.png=1.000=0=0=1,
191.000=rwrb.png=1.000=0=0=1,
192.000=rwrf.png=1.000=0=0=1,
193.000=rwrb.png=1.000=0=0=1,
194.000=rwrf.png=1.000=0=0=1,
195.000=rwrb.png=1.000=0=0=1,
196.000=rwrf.png=1.000=0=0=1,
197.000=rwrb.png=1.000=0=0=1,
198.000=rwrf.png=1.000=0=0=1,
199.000=rwrb.png=1.000=0=0=1,
200.000=rwrf.png=1.000=0=0=1,
201.000=rwrb.png=1.000=0=0=1,
202.000=rwrf.png=1.000=0=0=1,
203.000=rwrb.png=1.000=0=0=1,
204.000=rwrf.png=1.000=0=0=1,
205.000=rwrb.png=1.000=0=0=1,
206.000=rwrf.png=1.000=0=0=1,
207.000=rwrb.png=1.000=0=0=1,
208.000=rwrf.png=1.000=0=0=1,
209.000=rwrb.png=1.000=0=0=1,
210.000=rwrf.png=1.000=0=0=1,
211.000=rwrb.png=1.000=0=0=1,
212.000=rwrf.png=1.000=0=0=1,
213.000=rwrb.png=1.000=0=0=1,
214.000=rwrf.png=1.000=0=0=1,
215.000=rwrb.png=1.000=0=0=1,
216.000=rwrf.png=1.000=0=0=1,
217.000=rwrb.png=1.000=0=0=1,
218.000=rwrf.png=1.000=0=0=1,
219.000=rwrb.png=1.000=0=0=1,
220.000=rwrf.png=1.000=0=0=1,
221.000=rwrb.png=1.000=0=0=1,
222.000=rwrf.png=1.000=0=0=1,
223.000=rwrb.png=1.000=0=0=1,
224.000=rwrf.png=1.000=0=0=1,
225.000=rwrb.png=1.000=0=0=1,
226.000=rwrf.png=1.000=0=0=1,
227.000=rwrb.png=1.000=0=0=1,
228.000=rwr01.png=1.000=0=0=1,
244.000=rwrf.png=1.000=0=0=1,
244.750=rwrb.png=1.000=0=0=1,
245.500=rwrf.png=1.000=0=0=1,
246.000=rwrb.png=1.000=0=0=1,
246.750=rwrf.png=1.000=0=0=1,
247.500=rwrb.png=1.000=0=0=1,
248.000=rwrf.png=1.000=0=0=1,
248.750=rwrb.png=1.000=0=0=1,
249.500=rwrf.png=1.000=0=0=1,
250.000=rwrb.png=1.000=0=0=1,
250.750=rwrf.png=1.000=0=0=1,
251.500=rwrb.png=1.000=0=0=1,
252.000=rwrf.png=1.000=0=0=1,
252.500=rwrb.png=1.000=0=0=1,
253.000=rwrf.png=1.000=0=0=1,
253.500=rwrb.png=1.000=0=0=1,
254.000=rwrf.png=1.000=0=0=1,
254.500=rwrb.png=1.000=0=0=1,
255.000=rwrf.png=1.000=0=0=1,
255.500=rwrb.png=1.000=0=0=1,
256.000=rwr01.png=1.000=0=0=1,
260.000=rwrf.png=1.000=0=0=1,
261.000=rwrb.png=1.000=0=0=1,
262.000=rwrf.png=1.000=0=0=1,
263.000=rwrb.png=1.000=0=0=1,
264.000=rwrf.png=1.000=0=0=1,
265.000=rwrb.png=1.000=0=0=1,
266.000=rwrf.png=1.000=0=0=1,
267.000=rwrb.png=1.000=0=0=1,
268.000=rwrf.png=1.000=0=0=1,
269.000=rwrb.png=1.000=0=0=1,
270.000=rwrf.png=1.000=0=0=1,
271.000=rwrb.png=1.000=0=0=1,
272.000=rwrf.png=1.000=0=0=1,
273.000=rwrb.png=1.000=0=0=1,
274.000=rwrf.png=1.000=0=0=1,
275.000=rwrb.png=1.000=0=0=1,
276.000=rwrf.png=1.000=0=0=1,
277.000=rwrb.png=1.000=0=0=1,
278.000=rwrf.png=1.000=0=0=1,
279.000=rwrb.png=1.000=0=0=1,
280.000=rwrf.png=1.000=0=0=1,
281.000=rwrb.png=1.000=0=0=1,
282.000=rwrf.png=1.000=0=0=1,
283.000=rwrb.png=1.000=0=0=1,
284.000=rwrf.png=1.000=0=0=1,
285.000=rwrb.png=1.000=0=0=1,
286.000=rwrf.png=1.000=0=0=1,
287.000=rwrb.png=1.000=0=0=1,
288.000=rwrf.png=1.000=0=0=1,
289.000=rwrb.png=1.000=0=0=1,
290.000=rwrf.png=1.000=0=0=1,
291.000=rwrb.png=1.000=0=0=1,
292.000=rwrf.png=1.000=0=0=1,
293.000=rwrb.png=1.000=0=0=1,
294.000=rwrf.png=1.000=0=0=1,
295.000=rwrb.png=1.000=0=0=1,
296.000=rwrf.png=1.000=0=0=1,
297.000=rwrb.png=1.000=0=0=1,
298.000=rwrf.png=1.000=0=0=1,
299.000=rwrb.png=1.000=0=0=1,
300.000=rwrf.png=1.000=0=0=1,
301.000=rwrb.png=1.000=0=0=1,
302.000=rwrf.png=1.000=0=0=1,
303.000=rwrb.png=1.000=0=0=1,
304.000=rwrf.png=1.000=0=0=1,
305.000=rwrb.png=1.000=0=0=1,
306.000=rwrf.png=1.000=0=0=1,
307.000=rwrb.png=1.000=0=0=1,
308.000=rwrf.png=1.000=0=0=1,
309.000=rwrb.png=1.000=0=0=1,
310.000=rwrf.png=1.000=0=0=1,
311.000=rwrb.png=1.000=0=0=1,
312.000=rwrf.png=1.000=0=0=1,
313.000=rwrb.png=1.000=0=0=1,
314.000=rwrf.png=1.000=0=0=1,
315.000=rwrb.png=1.000=0=0=1,
316.000=rwrf.png=1.000=0=0=1,
317.000=rwrb.png=1.000=0=0=1,
318.000=rwrf.png=1.000=0=0=1,
319.000=rwrb.png=1.000=0=0=1,
320.000=rwrf.png=1.000=0=0=1,
321.000=rwrb.png=1.000=0=0=1,
322.000=rwrf.png=1.000=0=0=1,
323.000=rwrb.png=1.000=0=0=1,
324.000=rwrf.png=1.000=0=0=1,
325.000=rwrb.png=1.000=0=0=1,
326.000=rwrf.png=1.000=0=0=1,
327.000=rwrb.png=1.000=0=0=1,
328.000=rwrf.png=1.000=0=0=1,
329.000=rwrb.png=1.000=0=0=1,
330.000=rwrf.png=1.000=0=0=1,
331.000=rwrb.png=1.000=0=0=1,
332.000=rwrf.png=1.000=0=0=1,
333.000=rwrb.png=1.000=0=0=1,
334.000=rwrf.png=1.000=0=0=1,
335.000=rwrb.png=1.000=0=0=1,
336.000=rwrf.png=1.000=0=0=1,
337.000=rwrb.png=1.000=0=0=1,
338.000=rwrf.png=1.000=0=0=1,
339.000=rwrb.png=1.000=0=0=1,
340.000=rwrf.png=1.000=0=0=1,
341.000=rwrb.png=1.000=0=0=1,
342.000=rwrf.png=1.000=0=0=1,
343.000=rwrb.png=1.000=0=0=1,
344.000=rwrf.png=1.000=0=0=1,
345.000=rwrb.png=1.000=0=0=1,
346.000=rwrf.png=1.000=0=0=1,
347.000=rwrb.png=1.000=0=0=1,
348.000=rwrf.png=1.000=0=0=1,
349.000=rwrb.png=1.000=0=0=1,
350.000=rwrf.png=1.000=0=0=1,
351.000=rwrb.png=1.000=0=0=1,
352.000=rwrf.png=1.000=0=0=1,
353.000=rwrb.png=1.000=0=0=1,
354.000=rwrf.png=1.000=0=0=1,
355.000=rwrb.png=1.000=0=0=1,
356.000=rwrf.png=1.000=0=0=1,
357.000=rwrb.png=1.000=0=0=1,
358.000=rwrf.png=1.000=0=0=1,
359.000=rwrb.png=1.000=0=0=1,
360.000=rwrf.png=1.000=0=0=1,
361.000=rwrb.png=1.000=0=0=1,
362.000=rwrf.png=1.000=0=0=1,
363.000=rwrb.png=1.000=0=0=1,
364.000=rwrf.png=1.000=0=0=1,
365.000=rwrb.png=1.000=0=0=1,
366.000=rwrf.png=1.000=0=0=1,
367.000=rwrb.png=1.000=0=0=1,
368.000=rwrf.png=1.000=0=0=1,
369.000=rwrb.png=1.000=0=0=1,
370.000=rwrf.png=1.000=0=0=1,
371.000=rwrb.png=1.000=0=0=1,
372.000=rwrf.png=1.000=0=0=1,
373.000=rwrb.png=1.000=0=0=1,
374.000=rwrf.png=1.000=0=0=1,
375.000=rwrb.png=1.000=0=0=1,
376.000=rwrf.png=1.000=0=0=1,
377.000=rwrb.png=1.000=0=0=1,
378.000=rwrf.png=1.000=0=0=1,
379.000=rwrb.png=1.000=0=0=1,
380.000=rwrf.png=1.000=0=0=1,
380.500=rwrb.png=1.000=0=0=1,
381.000=rwrf.png=1.000=0=0=1,
381.500=rwrb.png=1.000=0=0=1,
382.000=rwrf.png=1.000=0=0=1,
382.500=rwrb.png=1.000=0=0=1,
383.000=rwrf.png=1.000=0=0=1,
383.500=rwrb.png=1.000=0=0=1,
384.000=rwr02.png=1.000=0=0=1,
387.000=rwr01.png=1.000=0=0=1,
99999=-nosongbg-=1.000=0=0=0 // don't automatically add -songbackground-
;

//---------------dance-solo - BASIC----------------
#NOTES:
     dance-solo:
     BASIC:
     Easy:
     3:
     0.017,0.010,0.038,0.015,0.000:
000000
000000
000000
000000
,
100001
010010
100001
010010
,
010000
000010
010000
000010
000000
002200
000000
000000
,
003300
000000
000000
000000
;

//---------------dance-solo - ANOTHER----------------
#NOTES:
     dance-solo:
     ANOTHER:
     Medium:
     4:
     0.017,0.010,0.008,0.015,0.000:
000000
000000
000000
000000
,
100000
000001
010000
000010
010000
000001
100000
000001
,
010000
001000
000100
000010
000000
020020
000000
000000
,
030030
000000
000000
000000
;

//---------------dance-solo - MANIAC----------------
#NOTES:
     dance-solo:
     MANIAC:
     Hard:
     6:
     0.021,0.012,0.023,0.015,0.026:
000000
000000
000000
000000
,
100000
010000
000000
001000
000100
000000
000010
000001
000000
000100
001000
000000
,
001100
000000
000000
000000
010000
000000
000010
000000
010000
000000
100001
000000
000000
000000
000000
020020
000000
000000
000000
000000
000000
000000
000000
000000
,
030030
000000
000000
000000
;

//---------------dance-solo - SMANIAC----------------
#NOTES:
     dance-solo:
     SMANIAC:
     Challenge:
     9:
     0.026,0.019,0.008,0.015,0.030:
000000
000000
000000
000000
,
010000
100000
010000
100000
000100
010000
000100
010000
000010
000100
000010
000100
000001
000010
000001
000010
,
000001
100000
000010
010000
000000
002200
000000
000000
,
003300
000000
000000
000000
;

//---------------dance-solo - ----------------
#NOTES:
     dance-solo:
     :
     Beginner:
     1:
     0.000,0.000,0.000,0.000,0.000:
000000
000000
000000
000000
,
000000
000000
000000
000000
,
000000
000000
000000
000000
000000
MMMMMM
000000
000000
;

//---------------dance-single - TaroNuke----------------
#NOTES:
     dance-single:
     TaroNuke:
     Challenge:
     11:
     0.808,1.000,0.984,0.129,0.340:
0000
0000
0000
0000
,
1000
0100
0000
0100
0000
0010
0000
0010
,
0000
0001
0000
0001
0000
0100
0010
0100
,
0000
0010
0000
0010
0000
1000
0000
1000
,
0000
0001
0000
0001
0010
0100
1000
0100
,
0000
0010
0000
0010
0000
0001
0000
0001
,
0000
0100
0000
0100
0000
0010
0100
0010
,
0000
1000
0000
1000
0000
0100
0000
0100
,
0010
0100
0010
0001
1000
0001
0100
0010
,
1010
1000
0100
0010
0110
0000
0101
0000
,
1001
0000
0001
0100
0010
1000
0001
0100
,
0101
0000
0100
0001
0101
0100
0202
M0M0
,
0000
0303
0000
0000
,
0000
0100
0101
0001
0101
0000
1100
0000
,
1010
0000
1001
0000
MMMM
0000
0010
0100
,
1100
0000
1100
1000
1010
0100
0101
0000
,
MMMM
0000
2002
3003
,
0001
0100
0101
0100
0110
0010
1010
1000
,
1001
0000
0101
0000
0000
0000
1000
0010
,
1010
0000
0011
0001
0101
0100
0000
0200
,
0000
0000
0300
0000
0000
0000
1000
1000
,
1001
0000
1001
1000
1010
0010
0110
0000
,
0101
0000
1001
0000
0000
0000
0001
0010
,
0011
0000
0000
0010
0000
0000
0110
0000
0000
0100
0000
0000
1100
0000
0000
1000
0000
0000
0001
1000
0001
1000
0001
1000
,
0001
0000
0000
0000
0000
0000
0100
0010
0100
0010
0100
0010
0100
0000
0000
0000
0000
0000
0001
1000
0001
1000
0001
1000
,
0010
0100
0010
0100
0000
0000
0000
0000
,
0001
1000
0001
1000
0000
0000
0000
0000
,
0100
0010
0100
0110
0000
0101
0000
2002
,
0000
3003
0000
0000
,
1000
0100
0010
0001
0000
0000
0000
0000
,
1000
0010
0100
0001
0000
0000
0000
1000
,
1001
0000
0000
1001
0000
0000
1001
0000
0000
0000
0001
0000
0020
0000
0000
0000
,
0000
0000
0030
0000
,
0102
0000
0000
0000
0000
0000
0013
0101
,
0000
1010
0000
0000
0000
1100
0000
2100
,
0000
0000
0000
0000
0000
3100
0010
0001
,
0000
0000
0000
0000
0000
0000
0000
0010
,
0200
0000
0000
0000
,
0310
0010
0010
0010
,
0010
0100
0010
1000
0001
0010
0001
0100
,
0001
0100
0000
0010
1000
0000
0001
0010
0000
0100
1000
0000
0001
0000
0010
0000
,
0011
0100
0010
1000
0100
1000
1010
0000
,
1010
0010
0100
0001
0010
0001
0101
0000
,
1000
0100
0001
0100
1000
0010
0100
0001
,
1000
0100
0010
0100
1000
0000
1001
0000
,
1010
0010
0100
0001
0010
0001
0101
0000
,
0101
0100
0010
1000
0100
1000
0010
0100
,
0001
0000
0000
0100
0000
0000
1000
0000
0000
0000
0100
0000
0001
0000
0010
0000
,
0001
0100
0010
1000
0001
0000
1001
0000
,
1100
1010
1001
1010
,
1100
0101
1100
0011
,
1001
1100
1001
0101
,
1001
0110
1001
1100
,
0101
0101
1100
1100
,
1010
1010
0011
0011
,
0001
0100
1000
0100
0001
0100
1000
0100
,
0010
0000
0001
0010
0100
0000
1000
0100
0010
0000
0001
0010
0100
0000
1000
0000
,
2100
0000
0000
0000
0000
0000
3010
0101
,
0000
0011
0000
0110
0000
1001
0000
0102
,
0000
0000
0000
0003
0000
0001
0010
0100
,
1000
0100
1000
0100
0010
0001
0010
0001
1000
0100
1000
0100
0010
0001
0010
0001
,
0011
0000
0000
0101
0000
0000
1001
0000
1010
0000
0000
1001
0000
0000
0101
0000
,
0110
0000
0000
1100
0000
0000
1010
0000
1001
0000
0000
0101
0000
0000
0011
0000
,
0001
0000
0001
0000
0010
0000
0010
0000
0100
0000
0100
0000
1000
0000
0100
0010
,
0001
0000
0000
0010
0000
0000
0001
0000
0000
0100
0000
0000
0010
0000
0000
0100
0000
0000
0010
0000
0000
1000
0000
0000
0001
0000
1000
0000
0001
0000
1000
0000
0000
0100
0000
0000
0010
0000
0000
0000
0000
0000
0000
0000
0000
0000
0000
0000
,
1000
0100
0000
1000
0010
0000
1000
0100
0000
1000
0100
0000
0010
0000
0001
0100
,
0010
0000
1000
0100
0000
0000
1000
0000
0000
0001
0000
0000
0100
0000
0010
0000
,
1000
0100
1000
0100
0010
0001
0100
0001
,
1000
0100
0000
1000
0010
0000
0100
0001
0000
0010
0001
0000
0010
0000
0000
0000
,
0001
0010
0000
0001
0100
0000
0001
0010
0000
0001
0100
0000
0010
0000
0100
0010
,
1000
0001
0000
0001
1000
0000
1000
0010
0000
0010
0100
0000
0010
0000
1000
0000
,
0001
0100
0001
0010
0001
0100
0001
1000
,
0100
0010
0000
0001
0010
0000
0100
0010
0000
0001
0100
0000
0010
0000
1000
0000
,
0001
0010
0000
0001
0100
0000
0001
0010
0000
0001
0010
0000
0100
0000
1000
0010
,
0100
0000
0001
0010
0000
0000
0001
0000
0000
1000
0000
0000
0010
0000
0100
0000
,
0001
0010
0001
0010
0100
1000
0010
1000
,
0001
0010
0000
0001
0100
0000
0010
1000
0000
0100
1000
0000
0100
0000
0000
0000
,
1000
0100
0000
1000
0010
0000
1000
0100
0000
1000
0010
0000
0100
0000
0010
0100
,
0001
1000
0000
1000
0001
0000
0001
0100
0000
0100
0010
0000
0100
0000
0001
0000
,
1000
0010
1000
0100
1000
0010
1000
0001
,
0010
0000
0000
0100
0000
0000
0000
0000
0000
1000
0000
0000
0100
0000
0000
0000
0000
0000
0010
0000
0100
0000
0010
0000
0100
0000
0000
0010
0000
0000
0001
0000
0000
0000
0000
0000
0100
0000
0000
0000
0000
0000
0001
0000
0000
0000
0000
0000
,
2001
0010
0001
3100
,
1010
1001
1010
1100
,
1002
0100
1000
0013
,
0101
1001
0011
0101
,
0001
0100
0010
1000
1001
0000
0110
0000
,
0001
0010
0100
1000
1001
0000
0110
0000
,
0001
0100
0010
0100
0010
1000
0010
0100
,
0010
1000
0001
0010
0001
0000
1001
0000
,
1100
0100
0010
0001
0101
0001
0010
0100
,
0110
0010
0001
0100
0101
0001
0010
0100
,
0110
0001
0010
0100
1100
0100
1000
0001
,
1001
0001
1000
0010
1010
0010
0100
0001
,
0011
0001
0100
0010
1010
0000
0110
0000
,
0101
0001
1000
0100
1100
0100
1000
0001
,
1001
0001
0101
0100
0110
0010
1010
1000
,
2002
0000
3003
1101
;

//---------------dance-single - TaroNuke----------------
#NOTES:
     dance-single:
     TaroNuke:
     Hard:
     8:
     0.633,0.659,0.537,0.129,0.125: // measure 1
0000
0000
0000
0000
,  // measure 2
1000
0100
0010
0000
0001
0010
0100
0000
,  // measure 3
1000
0001
0100
0000
0001
1000
0010
0000
,  // measure 4
0100
0010
1000
0000
0100
0010
0001
0000
,  // measure 5
0100
0010
1000
0000
0001
0100
0010
0100
,  // measure 6
0000
0001
0010
0001
0000
1000
0100
1000
,  // measure 7
0000
0010
0100
0010
0000
0100
0010
0100
,  // measure 8
0000
0001
0100
0001
0000
0100
0000
0010
,  // measure 9
0100
0001
0100
0010
1000
0010
0100
0001
,  // measure 10
1000
0100
0010
0100
0010
0000
0101
0000
,  // measure 11
1001
0000
0001
0100
0010
1000
0001
0100
,  // measure 12
0001
0000
0100
0000
0001
0100
0002
M2M0
,  // measure 13
0000
0003
0301
0000
0000
0000
0000
0000
,  // measure 14
0000
0100
0010
0001
0010
0000
1100
0000
,  // measure 15
1010
0000
1001
0000
MMMM
0000
0001
0010
,  // measure 16
0100
0000
1000
0010
0100
0010
1000
0000
,  // measure 17
MMMM
0000
2002
3003
,  // measure 18
0001
0100
0001
0100
0010
1000
0010
0000
,  // measure 19
1001
0000
0101
0000
0000
0000
0001
0100
,  // measure 20
0010
0000
1000
0100
1000
0100
0000
0020
,  // measure 21
0000
0000
0000
0030
0000
0000
0001
0100
,  // measure 22
0010
0000
1000
0100
1000
0010
0100
0000
,  // measure 23
0101
0000
1001
0000
0000
0000
0001
0001
,  // measure 24
0010
0000
0000
0010
0000
0000
0100
0000
0000
0100
0000
0000
1000
0000
0000
1000
0000
0000
1000
0000
0001
0000
1000
0000
,  // measure 25
0001
0000
0000
0100
0010
0100
0010
0000
0000
1000
0001
1000
,  // measure 26
0100
0010
0100
0010
0000
0000
0000
0000
,  // measure 27
1000
0001
1000
0001
0000
0000
0000
0000
,  // measure 28
0010
0100
0010
0100
0000
1010
0000
2002
,  // measure 29
0000
3003
0000
0000
,  // measure 30
0001
0010
0100
1000
0000
0000
0000
0000
,  // measure 31
0001
0100
0010
1000
0000
0000
0000
1000
,  // measure 32
0001
0000
0000
0001
0000
0000
0001
0000
0000
0000
0010
0000
0200
0000
0000
0000
,  // measure 33
0000
0000
0300
0000
,  // measure 34
2000
0000
0000
0000
0000
3000
0100
0010
,  // measure 35
0000
0001
0000
0000
0000
0011
0000
0012
,  // measure 36
0000
0000
0000
0000
0000
0013
0100
1000
,  // measure 37
0000
0000
0000
0000
0000
0000
0000
0100
,  // measure 38
0020
0000
0000
0000
,  // measure 39
0031
0001
0001
0001
,  // measure 40
1000
0010
0100
0001
0010
0001
0100
0010
,  // measure 41
1000
0100
1000
0010
1000
0001
0100
0010
,  // measure 42
1000
0100
0010
0100
1000
0100
0010
0000
,  // measure 43
1000
0010
0100
0001
0010
0001
0100
0000
,  // measure 44
1000
0100
0001
0100
1000
0010
0100
0001
,  // measure 45
1000
0100
0010
0100
1000
0000
1001
0000
,  // measure 46
1000
0010
0100
0001
0010
0001
0100
0000
,  // measure 47
0001
0100
0010
1000
0100
1000
0010
0100
,  // measure 48
0001
0000
0000
0100
0000
0000
1000
0000
0000
0000
0100
0000
0001
0000
0010
0000
,  // measure 49
0001
0100
0010
1000
0001
0000
1001
0000
,  // measure 50
1100
1100
1100
1100
,  // measure 51
1010
1010
1010
1010
,  // measure 52
0011
0011
0011
0011
,  // measure 53
0101
0101
0101
0101
,  // measure 54
1100
1100
1010
1010
,  // measure 55
0011
0011
0101
0101
,  // measure 56
0001
0010
0100
0010
0001
0010
0100
0010
,  // measure 57
0001
0000
1000
0000
0100
0000
0010
0000
0001
0000
0010
0000
0001
1000
0010
0000
,  // measure 58
0200
0000
0000
0000
0000
0000
0301
0010
,  // measure 59
0000
0011
0000
0110
0000
1001
0000
0102
,  // measure 60
0000
0000
0000
0003
0000
0001
0010
0100
,  // measure 61
1000
0100
1000
0100
0010
0001
0010
0001
,  // measure 62
1000
0000
0000
0100
0000
0000
0010
0000
0001
0000
0000
0100
0000
0000
0010
0000
,  // measure 63
1000
0000
0000
0100
0000
0000
0010
0000
0001
0000
0000
0100
0000
0000
0010
0000
,  // measure 64
1000
0100
0010
0100
1000
0100
0010
0100
,  // measure 65
2000
0010
0000
0010
0000
0010
3000
0000
,  // measure 66
1000
0000
0000
0001
0000
0000
1000
0000
0000
0000
1000
0000
0100
0000
0010
0000
,  // measure 67
0001
0000
0000
1000
0000
0000
0001
0000
0000
0000
0001
0000
0010
0000
0100
0000
,  // measure 68
1000
0000
0000
0001
0000
0000
1000
0000
0000
0000
0010
0000
0100
0000
0010
0000
,  // measure 69
1000
0000
0000
0010
0000
0000
0100
0000
0000
0000
0001
0000
0010
0000
0000
0000
,  // measure 70
0001
0000
0000
0001
0000
0000
0001
0000
0000
0001
0000
0000
0010
0000
0100
0000
,  // measure 71
1000
0000
0000
1000
0000
0000
1000
0000
0000
1000
0000
0000
0100
0000
0010
0000
,  // measure 72
0001
0100
0001
0010
0001
0100
0001
1000
,  // measure 73
0001
0000
0000
0001
0000
0000
0001
0000
0000
0010
0000
0000
0100
0000
0010
0000
,  // measure 74
0001
0000
0000
1000
0000
0000
0001
0000
0000
0000
0001
0000
0010
0000
0100
0000
,  // measure 75
1000
0000
0000
0001
0000
0000
1000
0000
0000
0000
1000
0000
0100
0000
0010
0000
,  // measure 76
0001
0000
0000
1000
0000
0000
0001
0000
0000
0000
0100
0000
0010
0000
0100
0000
,  // measure 77
0001
0000
0000
0100
0000
0000
0010
0000
0000
0000
1000
0000
0100
0000
0000
0000
,  // measure 78
1000
0000
0000
1000
0000
0000
1000
0000
0000
1000
0000
0000
0100
0000
0010
0000
,  // measure 79
0001
0000
0000
0001
0000
0000
0001
0000
0000
0001
0000
0000
0010
0000
0100
0000
,  // measure 80
1000
0010
1000
0100
1000
0010
1000
0001
,  // measure 81
1000
0000
0000
1000
0000
0000
0100
0000
0000
0010
0000
0000
0001
0000
0100
0000
,  // measure 82
0002
0100
1000
0013
,  // measure 83
0101
1001
0101
0011
,  // measure 84
2001
0010
0001
3100
,  // measure 85
1010
1001
1100
1010
,  // measure 86
1000
0010
0100
0001
0000
0000
1001
0000
,  // measure 87
1000
0100
0010
0001
0000
0000
1001
0000
,  // measure 88
1000
0010
0100
0010
0100
0001
0100
0010
,  // measure 89
0100
0001
1000
0100
1000
0000
1001
0000
,  // measure 90
0011
0100
1010
0100
,  // measure 91
0110
1000
1010
0100
,  // measure 92
0110
0100
0011
0001
,  // measure 93
1001
0001
0101
0010
,  // measure 94
1100
0010
0101
0110
,  // measure 95
1010
0001
1010
0010
,  // measure 96
1001
0000
0100
0000
0001
1000
0001
0000
,  // measure 97
1002
0000
0000
1003
;

//---------------dance-single - TaroNuke----------------
#NOTES:
     dance-single:
     TaroNuke:
     Easy:
     5:
     0.402,0.586,0.310,0.030,0.000:
0000
0000
0000
0000
,
1000
0001
1000
0001
,
1000
0001
1000
0001
,
1000
0001
1000
0001
,
1000
0000
0000
0000
,
1000
0001
1000
0001
,
1000
0001
1000
0001
,
1000
0001
1000
0001
,
1000
0100
0001
0100
,
1000
0100
0010
0001
,
1000
0010
0100
0001
,
1000
0100
1000
0010
,
1000
0001
1000
0000
,
0001
0010
0100
1000
,
0001
0100
0010
1000
,
0001
0100
0001
0010
,
0001
1000
0100
0000
,
1000
0100
0010
0100
,
1000
0001
0100
0010
,
1000
0001
0100
0010
,
0001
0100
0010
1000
,
0100
1000
0001
0100
,
0010
1000
0100
0010
,
0001
0000
0010
0000
0100
0000
2000
3000
,
0000
0000
0002
0003
0000
0000
2000
3000
,
0010
0100
0001
0000
,
1000
0100
0010
0000
,
0001
0100
0010
1000
,
0100
0000
0000
0000
,
0001
0100
0010
0000
,
0010
0100
0001
0000
,
0001
1000
0100
0010
,
0001
0000
0000
0000
,
0100
1000
0010
0001
,
0100
1000
0000
0000
,
0100
0001
0010
1000
,
0100
0001
0010
0000
,
1000
0100
1000
0001
,
0100
0010
0100
0001
,
0010
0100
1000
0001
,
1000
0000
0001
0000
,
1000
0100
0010
0001
,
1001
1000
0001
0010
,
0100
0000
0001
0100
,
0010
0100
0001
1000
,
0100
1000
0001
0100
,
0010
1000
0001
1000
,
0100
0010
0001
1000
,
0100
0000
0000
0000
,
0101
0001
1000
0100
,
1000
0001
0100
0001
,
0101
0001
1100
0100
,
1001
0001
0101
0000
,
0101
0000
1000
0010
,
1100
0000
0010
1000
,
1001
0000
0010
0100
,
1001
0001
0100
0010
,
1001
0100
0000
0100
,
1001
0010
0000
0010
,
1001
0100
0000
0100
,
1001
0010
0000
0001
,
1000
0001
1000
0001
,
0100
0010
0100
0010
,
1000
0001
1000
0001
1000
0001
1000
0001
,
0000
0001
0000
0001
0000
0001
0000
0000
,
1000
0000
0000
0000
,
0001
0000
0000
0000
,
0100
0000
0010
0000
,
0100
0000
1000
0000
,
0001
0000
1001
0000
,
0001
0000
1001
0000
,
1000
0010
0100
0001
,
0101
0000
0101
0100
,
0001
1000
0100
0010
,
0001
0010
0100
1000
,
0100
0010
0001
1000
,
0001
0100
0010
1000
,
0001
0100
0010
0100
,
0001
0100
0010
0000
,
0100
0010
1000
0001
,
1000
0100
1001
0000
,
1001
0000
1001
0000
,
1001
0000
1001
0000
,
1001
0100
1001
0010
,
1001
0100
1001
0000
,
1100
1100
1100
0000
,
0101
0101
0101
0000
,
1100
1100
1100
1100
,
0101
0101
0101
0101
,
1000
0100
0010
0001
,
1000
0100
1000
0001
,
0100
0001
1000
0100
,
1000
0001
0010
0100
,
1000
0010
0100
0001
,
1000
0100
1000
0001
,
1000
0001
0100
0010
,
2000
0000
0000
3001
;

//---------------dance-single - TaroNuke----------------
#NOTES:
     dance-single:
     TaroNuke:
     Medium:
     6:
     0.479,0.732,0.416,0.045,0.034:
0000
0000
0000
0000
,
1001
0000
0001
0000
1000
0000
0001
1000
,
0001
0000
1000
0000
0001
0000
1000
0001
,
1000
0001
1000
0001
,
1001
0000
0000
0000
,
1001
0000
1000
0000
0001
0000
1000
0001
,
1000
0000
0001
0000
1000
0000
0001
1000
,
0001
0000
1000
0000
0001
0000
1000
0001
,
1000
0100
0001
0100
1000
0100
0010
0100
,
1000
0100
0010
0001
,
1000
0000
0010
0000
0100
0000
0001
0010
,
0100
0000
0100
0010
1000
0001
0010
0000
,
0000
0001
1000
0000
,
0001
0100
0010
1000
0100
0000
1000
0000
,
0001
0000
0100
0000
0010
0000
1000
0100
,
0001
0000
0100
0000
1000
0000
0100
0010
,
0001
0010
0100
0010
0001
0000
0000
0000
,
1001
0100
0010
0100
,
1001
0001
0100
0010
,
1001
0000
0001
0010
0100
0010
0001
0000
,
0010
0100
0010
0001
,
0100
0000
0010
0100
0001
0000
0010
0000
,
0001
0100
0001
1000
,
0001
0000
0010
0001
0100
0010
2000
3000
,
0000
0000
0002
0003
0000
0000
2000
3000
,
0010
0001
0010
1000
0000
0000
0000
0000
,
1000
0100
0010
0100
0000
0000
0000
0000
,
0001
0010
0100
1000
0000
0010
0000
0200
,
0300
0000
0000
0000
,
0001
0010
0100
1000
0000
0000
0000
0000
,
1000
0100
0010
0001
0000
0000
0000
0001
,
0001
0000
0000
0010
0000
0000
0100
0000
0000
0000
1000
0000
0200
0000
0000
0000
,
0000
0000
0000
0000
0000
0000
0000
0300
0000
0000
0000
0000
0000
0000
0000
0000
,
0100
1000
0010
0001
,
0100
1000
0000
0000
,
0100
0001
0010
1000
,
0100
0001
0010
0000
,
1000
0100
1000
0001
,
0100
0010
0100
0001
,
0010
0100
1000
0100
1000
0100
0001
0000
,
0100
0010
0001
0010
0001
0100
1000
0000
,
0001
0010
0100
1000
,
1100
1000
0001
0010
,
0100
0000
1001
0100
,
0010
0100
0001
1000
,
0110
1000
0001
0100
,
0110
1000
0001
1000
,
0101
0010
0001
1000
,
1100
0000
0000
0000
,
0101
0001
1000
0100
,
1100
0001
0100
0001
,
0101
0001
1100
0100
,
1001
0001
0101
0000
,
0001
0010
0001
0010
0001
0010
0001
0000
,
1000
0100
1000
0100
0010
0001
0010
0000
,
1001
0010
1001
0100
,
1001
0001
1001
1000
,
1001
0100
0000
0100
,
1001
0010
0000
0010
,
1001
0100
0000
0100
,
1001
0010
0000
0001
,
1000
0100
0010
0000
0001
0010
0100
0000
,
1000
0100
1000
0001
0100
0001
1000
0001
,
1000
0001
1000
0001
1000
0001
1000
0001
1000
0001
1000
0001
,
0000
1001
0000
1001
0000
1001
0000
0000
,
1000
0000
0000
0000
,
0001
0000
0000
0000
,
0100
0000
0010
0000
,
0100
0000
0001
0000
,
1000
0000
1001
0000
,
0001
0000
1001
0000
,
1000
0010
0100
0001
,
0101
0000
1010
0100
,
0010
1000
0100
0010
,
0001
0010
0100
1000
,
0100
0010
0001
0100
,
0001
0100
0010
1000
,
0001
1000
0010
0100
,
0001
0100
0010
1000
,
0001
0010
0100
0010
,
0001
0100
0000
0000
,
1001
0000
1001
0000
,
1001
0000
1001
0000
,
1001
0100
1001
0010
,
1001
0100
1001
0000
,
1100
1100
1100
0000
,
0101
0101
0101
0000
,
1100
1100
1100
1100
,
0101
0101
0101
0101
,
1000
0100
0010
0001
,
1000
0100
1000
0001
,
0100
0001
1000
0100
,
1000
0001
0010
0100
,
1000
0010
0100
0001
,
1000
0100
1000
0001
,
1000
0001
0100
0010
,
2000
0000
0000
3001
;
