#TITLE:Radio Hardcore;
#SUBTITLE:;
#ARTIST:italobrothers;
#TITLETRANSLIT:;
#SUBTITLETRANSLIT:;
#ARTISTTRANSLIT:;
#CREDIT:;
#BANNER:bn.png;
#BACKGROUND:bg.png;
#LYRICSPATH:;
#CDTITLE:;
#MUSIC:Radio Hardcore.mp3;
#OFFSET:-0.015;
#SAMPLESTART:93.080;
#SAMPLELENGTH:12.000;
#SELECTABLE:YES;
#BPMS:0.000=150.160;
#STOPS:68.000=1.199
,129.000=1.199
,162.000=1.199
,223.000=1.199
,284.000=1.199
;
#BGCHANGES:0.000=radiohcvideo.avi=1.000=1=1=0,
316.000=bg.png=1.000=1=0=1,
99999=-nosongbg-=1.000=0=0=0 // don't automatically add -songbackground-
;

//---------------dance-single - ----------------
#NOTES:
     dance-single:
     :
     Hard:
     8:
     0.441,0.506,0.219,0.204,0.075:
0000
0000
0000
0000
,
0000
0000
0000
0000
,
1000
0000
0001
0000
0010
0001
0100
0000
,
0010
0000
1000
0000
1000
0001
0010
0000
,
0100
0000
1000
0000
0100
1000
0010
0000
,
0100
0001
1000
0100
,
0010
1100
0010
0101
,
0100
0011
0100
1010
,
1000
0001
0010
0100
,
1000
0000
0000
0000
,
0001
1000
0001
0001
,
1000
0001
1000
1000
,
0001
0010
0100
0100
,
0010
0100
0010
0010
,
0100
1000
0010
0100
,
0001
0010
1000
0010
,
0001
0100
0010
1000
,
0010
0000
1001
0000
0101
0000
0001
1000
,
0100
0010
0000
0100
1000
0000
1000
0001
,
0010
0200
0000
0310
0000
0100
1000
0010
,
0100
0002
0000
0003
1000
1000
0001
0010
,
0100
1000
0000
0011
0000
0000
0001
1000
,
0100
0020
0000
0000
0030
0000
0001
0010
,
0100
0010
0000
0011
0000
0001
0001
1000
,
0200
0020
0000
0330
,
0010
0100
1000
0000
,
0001
0100
0001
0000
0010
0000
0000
0000
,
0001
0000
0002
0000
0000
0103
0000
0000
,
0001
0100
1000
0100
0001
0000
0000
0000
,
0001
1000
0100
0000
,
0100
1000
0010
0000
0100
0000
0000
0000
,
0100
0000
0020
0000
0000
1000
0000
0000
,
0001
0000
0130
0000
1001
0000
0100
0010
,
1000
0100
0010
0100
0000
1100
0000
1000
,
1000
0001
0010
0100
0000
0110
0000
0100
,
0010
0001
0100
0010
0000
1010
0000
1000
,
1000
0001
0010
0100
0000
0011
0000
0001
,
0100
0010
1000
0200
0000
0000
0300
1000
,
0001
0010
0100
0010
0000
0011
0000
0001
,
1000
0100
1000
0020
0000
0130
0010
1000
,
0001
0010
1000
0010
0001
0000
0101
0001
,
0100
0010
1000
0100
0010
0000
0000
0100
,
1000
0010
0100
0000
0000
0010
1000
0001
,
0010
0100
0000
0100
0000
0100
0000
0000
,
1100
1000
0100
0000
0011
0001
0010
0000
,
0101
0001
0100
0020
0000
1030
0000
1000
,
1000
0001
0010
0000
0001
0010
0000
0010
,
0100
1100
0000
1001
,
0011
0000
0000
0001
0000
0001
0100
0000
0000
0010
0000
0100
,
0010
0000
1000
0000
0000
0000
0000
0000
1000
0100
0000
0001
,
0010
0000
0000
0001
0000
0100
0010
0000
0000
1000
0000
0001
,
0000
0000
0020
0000
0000
0000
0030
0000
0100
0010
0000
0001
,
0010
0000
0100
0000
0000
0010
0000
0000
0010
0100
0000
0100
,
1000
0000
0001
0000
0000
0000
0000
0000
1000
0001
0000
0001
,
1000
0000
0100
0000
0000
0100
0000
0000
1000
2200
0000
3300
,
0022
0000
0033
2002
0000
0000
0000
0000
0000
3003
0000
0000
,
1000
0100
1000
1000
,
0100
0010
0100
0100
,
0010
0001
0010
0010
,
0001
1000
0001
0001
,
1000
0001
0100
0100
,
0001
1000
0100
0100
,
1000
0001
0010
0100
,
2002
0000
3003
0001
,
1000
0000
0100
0000
0000
0000
1000
0001
,
0010
0100
0000
0100
,
2000
0000
0000
3010
0000
0000
1000
0001
,
0100
0010
0100
0000
0000
0000
0010
0000
,
2000
0000
3100
0000
0000
0000
0100
1000
,
0020
0130
0000
0100
,
0102
0000
0000
0010
0000
0000
0010
0000
,
0013
0000
1000
0001
0000
0001
0100
0010
,
1000
0100
0000
0100
0000
0100
0010
0001
,
0010
0100
0000
1001
0000
0001
0100
0010
,
1000
0100
0000
0011
0000
0001
0100
0010
,
1000
0100
0000
1100
0000
1000
0001
0100
,
0001
0020
0000
0000
0000
0130
1000
0100
,
0001
0200
0000
1300
0000
0100
1000
0010
,
0200
0020
0000
0000
0000
0000
0300
0000
,
0030
0000
0000
0000
;

//---------------dance-single - ----------------
#NOTES:
     dance-single:
     :
     Medium:
     6:
     0.371,0.447,0.354,0.045,0.000:
0000
0000
0000
0000
,
0000
0000
0000
0000
,
0001
0000
0001
0000
0001
1000
0001
0000
,
1000
0000
1000
0000
1000
0100
1000
0000
,
0100
0000
0100
0000
0100
0010
0100
0000
,
0010
0000
0010
0000
0010
0001
0010
0100
,
0010
0011
0010
0110
,
0100
1100
1000
1001
,
0001
0100
1000
0100
,
0001
0000
0000
0000
,
0001
0000
1000
0000
,
0100
0000
0100
1000
,
0010
0000
0100
0000
,
0010
0000
1000
0001
,
0100
0100
0010
0010
,
0100
0100
0100
0100
,
0010
1000
0001
0010
,
0100
0000
1100
0000
1100
0000
1000
0100
,
1000
0000
0011
0000
0011
0000
0001
0010
,
0001
0000
0101
0000
0101
0000
0001
0100
,
0001
0000
1010
0000
1010
0000
0010
1000
,
0001
0000
1000
0000
1100
0000
1000
0100
,
0010
0000
0100
0000
1100
0000
1000
0010
,
0100
0000
0010
0000
0101
0000
0001
0010
,
0100
0020
0000
0030
,
0001
0010
0001
0000
,
0100
0001
0100
0000
0001
0000
0000
0000
,
0100
0000
0100
0000
0000
0010
0000
0000
,
0010
1000
0100
0010
0001
0000
0000
0000
,
0001
1000
0100
0000
,
0100
1000
0010
0000
0100
0000
0000
0000
,
0010
0000
0010
0000
0000
0100
0000
0000
,
0010
1000
0101
0101
,
0001
0100
0010
0000
0110
0000
0110
0000
,
0010
1000
0100
0000
1000
0000
1000
0000
,
0001
0001
1000
0001
,
0100
0010
1010
1010
,
1000
0100
1100
1100
,
1000
0010
0101
0101
,
0001
0010
0100
1000
,
0100
1000
0010
0100
0000
0000
0001
0000
,
0001
0001
0001
1000
,
1000
1000
1000
0010
,
0100
0010
1000
0001
,
0101
1000
1100
0100
,
0101
0100
1100
1000
,
0010
0100
0001
1000
,
0100
0011
0000
0001
,
1000
0100
0010
0100
,
1000
0010
0000
0110
,
0000
1001
0000
0110
,
1001
0110
0000
1010
,
0000
0101
0000
1100
,
0000
0011
0000
0001
,
0100
0010
1000
0002
,
2003
3000
0200
0000
0300
0000
0000
0000
,
1000
0000
1000
0000
,
0010
0000
0100
0000
,
0001
0000
1000
0000
,
0010
0000
0100
0000
,
0010
0010
1000
1000
,
0010
0010
0100
0100
,
0001
0001
1000
0001
,
0200
0000
0300
0010
,
0010
0000
0010
0000
0000
0000
0010
0100
,
0010
0100
0000
0010
,
1000
0000
0000
0100
0000
0000
1000
0100
,
0010
0001
0010
0000
0000
0000
0001
0000
,
0001
0000
0001
0000
0000
0000
0010
0001
,
0010
0001
0000
0010
,
0100
0000
0000
1000
0000
0000
0010
0000
,
0100
0000
0110
0000
0110
0000
0010
0100
,
0010
0000
0100
0000
1000
0000
0100
1000
,
0100
0000
1100
0000
0011
0000
0001
0100
,
0010
0000
1000
0000
1001
0000
0001
0100
,
0010
0000
1000
0000
1100
0000
1000
0100
,
0010
0000
0001
0000
1010
0000
0010
0100
,
0001
0000
0100
0000
1010
0000
0001
0100
,
0010
0100
0002
0000
0000
0000
0000
0000
,
0003
0000
0000
0000
;

//---------------dance-single - ----------------
#NOTES:
     dance-single:
     :
     Easy:
     5:
     0.282,0.387,0.181,0.121,0.000:
0000
0000
0000
0000
,
0000
0000
0000
0000
,
0000
1000
0001
0100
,
0000
0001
1000
0100
,
0000
1000
0010
0000
,
0100
0001
0100
0010
,
1000
1000
0100
1000
,
0010
1000
0001
0001
,
0100
0010
1000
0100
,
0020
0000
0000
0000
,
0032
0000
0000
0000
,
0000
0000
0000
0000
,
0203
0000
0000
0000
,
0000
0000
0000
0000
,
0320
0000
0000
0000
,
0000
0000
0000
0000
,
2030
0000
0000
0000
,
3000
1000
0001
0100
,
0001
0100
0010
1000
,
0100
0010
0100
1000
,
0010
0100
0001
0001
,
0001
0001
0100
1000
,
0100
0001
0010
1000
,
0010
0001
0100
0010
,
1000
2200
0000
3300
,
1000
0001
1000
0000
,
0001
1000
0001
0000
,
1000
0001
1000
0001
,
1000
0000
0001
1000
0001
0000
0000
0000
,
0100
0010
0100
0000
,
0010
0100
0010
0000
,
0100
0010
0100
0010
,
0100
0000
0101
0101
,
0100
0010
0110
0110
,
0010
1000
1010
1010
,
0010
1000
1100
1100
,
1000
0001
0101
0101
,
0001
0100
0110
0110
,
0010
1000
1001
1001
,
0001
0010
1100
1100
,
1000
0010
0000
0100
,
0100
0000
0010
0100
0010
0000
0100
0000
,
0010
1000
0000
1000
,
0001
0100
0010
0100
,
0011
0100
0011
0100
,
1010
0100
1010
0100
,
0010
1000
0001
0010
,
0100
0010
0000
0010
,
0000
0010
0000
0010
,
0001
0100
0000
0100
,
0000
0010
0000
1000
,
1000
1000
0000
0001
,
0000
0100
0000
0010
,
1000
0100
0000
1000
,
0000
0001
0000
1001
,
1001
2002
3003
0000
,
0020
0000
0000
0000
,
0000
0000
0000
0000
,
2030
0000
0000
0000
,
0000
0000
0000
0000
,
3200
0000
0000
0000
,
0000
0000
0000
0000
,
0320
0000
0000
0000
,
0002
0000
0033
0001
,
1000
0001
0000
1000
,
0001
1000
0000
0001
,
1000
0001
1000
0001
,
1000
0001
0100
0000
0000
0000
0010
0000
,
0010
0010
0000
0100
,
0010
0010
0000
0100
,
0010
0100
0010
0100
,
0010
0100
0010
1000
,
0001
0010
1000
0010
,
0001
0100
0001
0100
,
1000
0100
0001
0100
,
0010
1000
0100
0100
,
1000
0100
1000
0010
,
0001
0100
0010
1000
,
0002
0200
0000
0003
,
0300
0000
0000
0000
;

//---------------dance-single - ----------------
#NOTES:
     dance-single:
     :
     Beginner:
     1:
     0.126,0.238,0.038,0.023,0.000: // measure 1
0000
0000
0000
0000
,  // measure 2
0000
0000
0000
0000
,  // measure 3
0010
0000
0000
0000
,  // measure 4
1000
0000
0000
0000
,  // measure 5
0001
0000
0000
0000
,  // measure 6
0100
0000
0000
0000
,  // measure 7
0010
0000
0000
0000
,  // measure 8
1000
0000
0000
0000
,  // measure 9
0100
0000
0000
0000
,  // measure 10
0001
0000
0000
0000
,  // measure 11
0100
0000
0000
0000
,  // measure 12
0010
0000
0000
0000
,  // measure 13
0001
0000
0000
0000
,  // measure 14
1000
0000
0000
0000
,  // measure 15
0010
0000
0000
0000
,  // measure 16
0100
0000
0000
0000
,  // measure 17
0001
0000
0000
0000
,  // measure 18
1000
1000
0000
0010
,  // measure 19
0010
0010
0000
0100
,  // measure 20
0000
0100
0000
0010
,  // measure 21
0010
0010
0000
1000
,  // measure 22
0000
1000
0000
0001
,  // measure 23
0001
0001
0000
1000
,  // measure 24
0000
0010
0000
0100
,  // measure 25
0100
0200
0000
0300
,  // measure 26
0000
0010
0000
0000
,  // measure 27
0000
1000
0000
0000
,  // measure 28
0000
0001
0000
0001
,  // measure 29
0000
0001
0000
0000
,  // measure 30
0000
1000
1000
0000
,  // measure 31
0000
0010
0010
0000
,  // measure 32
0000
0100
0000
0100
,  // measure 33
0000
0010
0100
0000
,  // measure 34
0000
0000
0010
0000
,  // measure 35
0000
0000
1000
0000
,  // measure 36
0000
0000
0001
0000
,  // measure 37
0000
0000
0010
0000
,  // measure 38
0000
0000
0100
0000
,  // measure 39
0000
0000
0010
0000
,  // measure 40
0000
0000
0001
0000
,  // measure 41
1000
0000
0100
0100
,  // measure 42
0000
0000
0000
1000
,  // measure 43
0000
0000
0000
0010
,  // measure 44
0000
0000
0000
0100
,  // measure 45
0000
0100
0000
0100
,  // measure 46
0000
0010
0000
1000
,  // measure 47
0000
0001
0000
1000
,  // measure 48
1000
1000
0000
0001
,  // measure 49
0000
0000
0000
1000
,  // measure 50
0000
0000
0000
0010
,  // measure 51
0000
0010
0000
0110
,  // measure 52
0000
0000
0000
0100
,  // measure 53
0000
0100
0000
1001
,  // measure 54
0000
0000
0000
0010
,  // measure 55
0000
0100
0000
1001
,  // measure 56
1001
1001
0000
0000
,  // measure 57
0010
0000
0000
0000
,  // measure 58
1000
0000
0000
0000
,  // measure 59
0001
0000
0000
0000
,  // measure 60
0100
0000
0000
0000
,  // measure 61
0010
0000
0000
0000
,  // measure 62
1000
0000
0000
0000
,  // measure 63
0100
0000
0000
0000
,  // measure 64
0020
0000
0030
0000
,  // measure 65
0001
0000
0000
0000
,  // measure 66
0001
0000
0000
0000
,  // measure 67
0001
0000
0001
0000
,  // measure 68
0001
0000
0000
0000
,  // measure 69
0100
0000
0000
0000
,  // measure 70
0100
0000
0000
0000
,  // measure 71
0100
0000
0100
0000
,  // measure 72
0100
0010
0000
0000
,  // measure 73
0000
0010
0000
0000
,  // measure 74
0000
1000
0000
1000
,  // measure 75
0000
1000
0000
0000
,  // measure 76
0000
0001
0000
0000
,  // measure 77
0000
1000
0000
0000
,  // measure 78
0000
0010
0000
0000
,  // measure 79
0000
0020
0000
0000
,  // measure 80
0030
0000
0000
0000
;
