#TITLE:Playing With Fire;
#SUBTITLE:;
#ARTIST:Paula Seling & Ovi;
#TITLETRANSLIT:;
#SUBTITLETRANSLIT:;
#ARTISTTRANSLIT:;
#CREDIT:;
#BANNER:;
#BACKGROUND:;
#LYRICSPATH:;
#CDTITLE:;
#MUSIC:Playing With Fire.mp3;
#OFFSET:-7.910;
#SAMPLESTART:39.340;
#SAMPLELENGTH:15.730;
#SELECTABLE:YES;
#BPMS:0.000=122.000;
#STOPS:;
#BGCHANGES:;

//---------------dance-single - ----------------
#NOTES:
     dance-single:
     :
     Hard:
     7:
     0.439,0.393,0.263,0.105,0.096:
1000
0000
0000
0000
0001
0000
0000
0000
0100
0000
0000
0010
0000
0000
0100
0000
,
0100
0000
0000
0000
0010
0000
0000
0000
1000
0000
0000
0001
0000
0000
0010
0000
,
0010
0000
0000
0000
0001
0000
0000
0000
1000
0000
0000
0100
0000
0000
1000
0000
,
0001
0000
0000
0000
1000
0000
0000
0000
0010
0000
0000
0100
0000
0000
0010
0000
,
0110
0000
1010
0000
0101
0000
0001
1000
,
0200
0000
0001
0000
1300
0000
1000
0001
,
0200
0000
1000
0000
0301
0000
0001
1000
,
0010
0000
0000
0000
1010
0000
0000
0000
1000
0000
0000
0001
0000
0000
0100
0000
,
0101
0000
1010
0000
1100
0000
0010
0001
,
2000
0000
0010
0000
3001
0000
1000
0010
,
0200
0000
1000
0000
0310
0000
0100
0001
,
1000
0000
0000
0000
0001
1000
0001
1000
0000
0000
0001
0000
1000
0000
0000
0000
,
1000
0010
0100
0001
1000
0001
0100
0000
,
0011
0000
1100
0000
0010
0001
0100
0000
,
0010
1000
0100
0001
0100
1000
0010
0100
,
0110
1001
0011
1100
,
0010
0001
0100
0010
0100
0010
1000
0100
,
0010
0001
1000
0010
0000
0101
0000
1000
,
0100
0001
0100
1000
0010
0001
0010
1000
,
0100
0010
0001
0100
0000
0101
0000
1000
,
0100
0000
1100
0000
0010
0001
0010
0001
,
0100
0010
1000
0010
0000
0110
0000
0100
,
0001
0001
1000
0000
1000
1000
0100
0000
,
0010
0000
0001
0010
0001
1000
0010
0200
,
0000
0000
0000
0000
0001
0000
0000
0000
0010
0000
0000
0001
0000
0000
0010
0000
,
0320
0000
0000
0000
1000
0000
0000
0000
0100
0000
0000
1000
0000
0000
0100
0000
,
0130
0000
0000
0100
0001
1000
0100
0010
,
0001
0000
0000
1000
0001
0010
0001
1000
,
0010
0000
0000
0100
0001
0100
0010
1000
,
0100
0010
0001
1000
0100
0010
0001
0100
,
0010
0000
0000
0100
0000
0000
0001
0000
1001
0000
0000
1000
0000
0000
0100
0000
,
0010
0000
0000
0100
0000
0000
1000
0000
1001
0000
0000
0001
0000
0000
0100
0000
,
0010
1000
0100
0010
0001
0100
0001
1000
,
0002
0010
1000
0103
,
0001
0000
0000
1000
0000
0000
0001
0000
0101
0000
0000
0100
0000
0000
0010
0000
,
0100
0000
0000
0001
0000
0000
1000
0000
1100
0000
0000
0100
0000
0000
0010
0000
,
0001
0000
1000
0000
0001
0000
1000
0000
0010
0000
0000
0100
0000
0000
0001
0000
,
1000
0000
0100
0000
0010
0000
0001
0000
1000
0001
1000
0000
0001
0000
2000
0002
,
0000
0000
0000
3003
,
1000
0001
0101
0000
0001
1000
1100
0000
,
0010
0001
0100
0010
0000
1010
0000
1000
,
0001
0010
0011
0000
1000
0010
1010
0000
,
1000
0100
0010
0001
0000
0110
0000
0000
,
0010
1000
0100
0010
0100
1000
0010
0100
,
0001
1000
0001
1000
0000
0110
0000
0000
,
1000
1000
1000
0000
0001
0001
0001
0000
,
0000
0000
1000
0010
1000
0001
0010
0001
,
2000
0000
0000
0000
0010
0000
0000
0000
0001
0000
0000
0100
0000
0000
0001
0000
,
3002
0000
0000
0000
0010
0000
0000
0000
1000
0000
0000
0100
0000
0000
1000
0000
,
1003
0000
0000
1000
0100
0010
0001
0100
,
0110
0000
0000
0001
0100
0010
1000
0100
,
0010
0001
0100
0010
1000
0010
0100
0001
,
2000
0010
3001
1001
;

//---------------dance-single - ----------------
#NOTES:
     dance-single:
     :
     Medium:
     5:
     0.372,0.347,0.149,0.123,0.018:
1000
0000
0000
0000
0001
0000
0000
0000
1000
0000
0000
1000
0000
0000
1000
0000
,
1000
0000
0000
0000
0010
0000
0000
0000
0100
0000
0000
0100
0000
0000
0100
0000
,
0100
0000
0000
0000
0001
0000
0000
0000
0010
0000
0000
0010
0000
0000
0010
0000
,
0010
0000
0000
0000
0001
0000
0000
0000
0100
0000
0000
0100
0000
0000
0100
0000
,
0100
0000
0001
0000
1000
0000
0001
0010
,
0001
0000
1000
0000
0001
0000
0100
0010
,
0100
0000
0010
1000
0010
0000
1000
0001
,
0100
0000
0001
0000
1000
0000
0001
0001
,
0001
0000
0011
0000
1100
0000
0010
0001
,
0010
0000
0001
0000
1000
0000
0010
1000
,
0010
0000
1000
0001
1000
0000
0010
0100
,
0010
0000
0100
0100
0100
0010
0100
0000
,
0110
0000
1010
0000
0001
0100
0001
0000
,
0011
0000
1100
0000
0001
1000
0001
0000
,
1000
0010
1000
0000
0001
0100
0001
0000
,
2000
0010
0002
3003
,
1000
0010
0100
0000
0001
0010
0100
0000
,
0010
0001
0010
0002
0000
1003
0000
0000
,
1000
0001
1000
0000
0010
0100
0010
0000
,
1000
0001
0100
0020
0000
0130
0000
0000
,
1010
0000
0101
0000
0001
1000
0001
0000
,
1000
0100
0010
0002
0000
1003
0000
0000
,
0010
1000
0001
0000
1000
0001
0010
0000
,
0001
0000
1000
0000
0100
0010
0100
0010
,
0200
0010
1000
0010
,
2300
0010
0001
0010
,
3001
0000
0000
1000
0010
0000
0100
0001
,
0100
0000
0000
0001
0010
0000
0100
1000
,
0100
0000
0000
1000
0001
0000
0100
0010
,
0100
0010
1000
0001
,
1001
0001
0101
0100
,
0110
0010
1010
1000
,
0001
0010
0001
0000
1000
0010
1000
0000
,
0001
0100
0001
0000
1000
0100
1000
0000
,
0001
0000
1000
0000
0010
0100
0010
0000
,
1000
0000
0001
0000
0100
0001
0100
0000
,
0001
1000
0001
0000
1000
0100
1000
0000
,
0001
0100
0010
0000
1000
0010
1000
0010
,
0200
0000
0000
0300
,
0010
1000
1000
0000
0001
1000
1000
0000
,
0001
0010
0001
2000
0000
3001
0000
0000
,
0001
0100
0100
0000
0010
0100
0100
0000
,
0010
1000
0100
2000
0000
3100
0000
0000
,
0011
1001
1010
1001
,
0001
0100
0010
2000
0000
3001
0000
0000
,
0001
0001
0001
0000
1000
1000
1000
0000
,
0010
0000
0100
0000
0001
1000
0001
2000
,
0000
0010
0001
0100
,
3002
0010
1000
0100
,
1003
0000
0000
1000
0001
0000
0100
0001
,
0100
0000
0000
0010
1000
0000
0100
1000
,
0100
0000
0010
0000
0001
0000
1000
0010
,
0200
0001
0310
1001
;

//---------------dance-single - ----------------
#NOTES:
     dance-single:
     :
     Easy:
     2:
     0.178,0.185,0.044,0.018,0.000:
1000
0000
0000
0001
,
0100
0000
0000
0100
,
0010
0000
0000
0010
,
1000
0000
0000
0000
,
0001
0001
0001
0001
,
0001
0000
0100
0010
,
0100
0000
0010
1000
,
0001
0000
0000
0000
,
1000
1000
1000
1000
,
1000
0000
0001
0010
,
0001
0000
1000
0100
,
1000
0000
0000
0000
,
0001
0000
1000
0100
,
1000
0000
0001
0100
,
0010
0000
0100
0000
,
0001
0001
1000
1000
,
1001
0000
1000
0000
,
0100
0010
0100
0000
,
0010
0000
0001
0000
,
1000
0001
1000
0000
,
0001
0000
0100
0000
,
0010
1000
0010
0000
,
1000
0000
0100
0000
,
0010
0000
0001
1000
,
0001
0000
0000
0000
,
1000
0000
0000
0000
,
0010
0000
0100
0010
,
0100
0000
0010
1000
,
0010
0000
1000
0001
,
1000
0001
1000
0100
,
0010
0000
0100
0000
,
1000
0000
0010
0000
,
0100
0000
0001
0000
,
1000
0000
0100
0000
,
0010
0000
0001
0000
,
1000
0000
0010
0000
,
0001
0000
0010
0000
,
0110
0000
1000
0000
,
2002
0000
0000
3003
,
1001
0000
0001
0000
,
0100
0001
0100
0000
,
0010
0000
1000
0000
,
0100
1000
0100
0000
,
0010
0000
0001
0000
,
1000
0001
1000
0000
,
0010
0100
0010
0100
,
0000
0001
0100
0001
,
0100
0000
0001
1000
,
0001
0000
1000
0100
,
1000
0000
0001
0010
,
0100
0000
0010
0001
,
0010
0001
1000
0010
,
0100
0001
1000
1001
;

//---------------dance-single - ----------------
#NOTES:
     dance-single:
     :
     Beginner:
     1:
     0.105,0.116,0.018,0.000,0.000:
0001
0000
0000
0000
,
1000
0000
0000
0000
,
0010
0000
0000
0000
,
0100
0000
0000
0000
,
0001
0000
0001
0000
,
0001
0000
0000
0000
,
1000
0000
0000
0000
,
0100
0000
0000
0000
,
0010
0000
0010
0000
,
0010
0000
0000
0000
,
0100
0000
0000
0000
,
1000
0000
0000
0000
,
0001
0000
0001
0000
,
1000
0000
1000
0000
,
0010
0000
0100
0000
,
0110
0000
0000
0000
,
0010
0000
1000
0000
,
0010
0000
1000
0000
,
0001
0000
0100
0000
,
0001
0000
0100
0000
,
0001
0000
0010
0000
,
0100
0000
1000
0000
,
0001
0000
1000
0000
,
0001
0000
0000
0000
,
0100
0000
0000
0000
,
0001
0000
0000
0000
,
1000
0000
0100
0000
,
1000
0000
0001
0000
,
0100
0000
0010
0000
,
0100
0000
0010
0000
,
1000
0000
0000
0000
,
0001
0000
0000
0000
,
0010
0000
0100
0000
,
0010
0000
0000
0000
,
0001
0000
0000
0000
,
1000
0000
0000
0000
,
0010
0000
0100
0000
,
0010
0000
0000
0000
,
0100
0000
0000
0000
,
0110
0000
0010
0000
,
1000
0000
0000
0000
,
0001
0000
0010
0000
,
0001
0000
0000
0000
,
1000
0000
0001
0000
,
0100
0000
0010
0000
,
0100
0000
0001
0000
,
1000
0000
0000
0000
,
0001
0000
0010
0000
,
0001
0000
1000
0000
,
0010
0000
0000
0000
,
0100
0000
0000
0000
,
0001
0000
1000
0000
,
0100
0100
0100
0100
;

//---------------dance-double - ----------------
#NOTES:
     dance-double:
     :
     Hard:
     7:
     0.432,0.393,0.166,0.175,0.110: // measure 1
10000000
00000000
00000000
00000000
00100000
00000000
00000000
00000000
01000000
00000000
00000000
00010000
00000000
00000000
01000000
00000000
,  // measure 2
00010000
00000000
00000000
00000000
00100000
00000000
00000000
00000000
00001000
00000000
00000000
00010000
00000000
00000000
00001000
00000000
,  // measure 3
00010000
00000000
00000000
00000000
00000100
00000000
00000000
00000000
00000010
00000000
00000000
00000001
00000000
00000000
00000010
00000000
,  // measure 4
00000001
00000000
00000000
00000000
00000100
00000000
00000000
00000000
00001000
00000000
00000000
00000100
00000000
00000000
00000001
00000000
,  // measure 5
00002001
00000000
00000001
00000000
00000001
00000000
00000001
00000001
,  // measure 6
00003001
00000000
00001000
00000000
00000100
00000000
00001000
00000100
,  // measure 7
00010000
00000000
00010000
00001000
01000000
00000000
01000000
00010000
,  // measure 8
10000000
00000000
00000000
00000000
01000000
00000000
00000000
00000000
00100000
00000000
00000000
01000000
00000000
00000000
00100000
00000000
,  // measure 9
00210000
00000000
00010000
00000000
00010000
00000000
00010000
00010000
,  // measure 10
00310000
00000000
00100000
00000000
00001000
00000000
00010000
00000100
,  // measure 11
00001000
00000000
00001000
00000100
00000010
00000000
00000010
00000100
,  // measure 12
00001000
00000000
00000000
00000000
00000001
00001000
00000001
00002000
00000000
00000000
00000010
00000000
00003010
00000000
00000000
00000000
,  // measure 13
00001000
00000100
00010000
00001000
01000000
00100000
10000000
00000000
,  // measure 14
00020000
00000000
00130000
00000000
00010000
10000000
00010000
00000000
,  // measure 15
00100000
00001000
00100000
00001000
00010000
00000100
00010000
00000100
,  // measure 16
00000020
00000032
00001003
00000110
,  // measure 17
00000010
00001000
00000100
00000000
00000010
00000001
00000100
00000000
,  // measure 18
00000001
00000100
00001000
00010000
00000000
00011000
00000000
00000000
,  // measure 19
00001000
00100000
01000000
00000000
00100000
00010000
01000000
00100000
,  // measure 20
10000000
01000000
00010000
00001000
00000000
00011000
00000000
00000000
,  // measure 21
00011000
00000000
00010100
00000000
00000100
00000010
00000001
00000100
,  // measure 22
00000010
00000100
00000010
00001000
00000000
00001100
00000000
00000000
,  // measure 23
00010000
00001000
01000000
00000000
00001000
01000000
00100000
10000000
,  // measure 24
01000000
00000000
00100000
01000000
10000000
01000000
00100000
00010000
,  // measure 25
00100000
00000000
00000000
00000000
00101000
00000000
00000000
00000000
00001000
00000000
00000000
00010000
00000000
00000000
00001000
00000000
,  // measure 26
00010000
00000000
00000000
00000000
00010100
00000000
00000000
00000000
00000100
00000000
00000000
00001000
00000000
00000000
00000100
00000000
,  // measure 27
00002000
00000000
00003000
00000001
00000100
00001000
00000100
00000001
,  // measure 28
00002000
00000000
00003000
00000100
00001000
00000100
00010000
00001000
,  // measure 29
02000000
00000000
03000000
00100000
10000000
01000000
00100000
01000000
,  // measure 30
00100000
00001000
00100000
00001000
00010000
00001000
00010000
00000100
,  // measure 31
00000010
00000000
00000000
00000001
00000000
00000000
00000100
00000000
00000101
00000000
00000000
00000001
00000000
00000000
00001000
00000000
,  // measure 32
00000100
00000000
00000000
00010000
00000000
00000000
00001000
00000000
01001000
00000000
00000000
01000000
00000000
00000000
00100000
00000000
,  // measure 33
10000000
01000000
00100000
00000000
01000000
00100000
00010000
00000000
,  // measure 34
00100000
00000000
00000000
00001000
00000000
00000000
00100000
00000000
00001000
00000000
00000000
00001000
00010000
00000000
00000000
00010000
,  // measure 35
00001000
00000000
00000000
00000010
00000000
00000000
00000001
00000000
00001000
00000000
00000000
00000010
00000000
00000000
00000001
00000000
,  // measure 36
00000010
00000000
00000000
00010000
00000000
00000000
00001000
00000000
00001000
00000000
00000000
00100000
00000000
00000000
00010000
00000000
,  // measure 37
10000000
00000000
00000000
01000000
00000000
00000000
00010000
00000000
10000000
00000000
00000000
00100000
00000000
00000000
00010000
00000000
,  // measure 38
00100000
00000000
00001000
00000000
00010000
00000000
00000100
00000000
00001000
00000100
00001000
00000000
00000001
00000000
00000200
00000020
,  // measure 39
00000000
00000000
00000000
00000330
,  // measure 40
00000010
00010000
00000010
00000000
00010000
00001000
00010000
00000000
,  // measure 41
00001000
01000000
00100000
10000000
00000000
10010000
00000000
00010000
,  // measure 42
00100000
00001000
00010000
00000000
00001000
00010000
00000100
00000000
,  // measure 43
00000010
00000001
00000100
00000010
00000000
00000110
00000000
00000100
,  // measure 44
00000002
00000000
00000023
00000000
00000130
00001000
00000100
00001000
,  // measure 45
00000100
00010000
00001000
01000000
00000000
01001000
00000000
00001000
,  // measure 46
01000000
00100000
10000000
00000000
00010000
00100000
01000000
00000000
,  // measure 47
00100000
00000000
00010000
00100000
00001000
00010000
00000100
00000020
,  // measure 48
00000000
00000000
00000000
00000000
00000001
00000000
00000000
00000000
00000130
00000000
00000000
00000010
00000000
00000000
00000001
00000000
,  // measure 49
00002000
00003100
00001100
00010100
,  // measure 50
00022000
00000000
00033000
00001000
01000000
00001000
00100000
00010000
,  // measure 51
00200000
00000000
00300000
00010000
00100000
00010000
10000000
01000000
,  // measure 52
10000000
01000000
00100000
00010000
00100000
00001000
00010000
00001000
,  // measure 53
00000020
00000032
00000103
00000110
;

//---------------dance-double - ----------------
#NOTES:
     dance-double:
     :
     Medium:
     5:
     0.349,0.323,0.219,0.096,0.000: // measure 1
10010000
00010000
00100000
00001000
,  // measure 2
00011000
00010000
00000100
00000010
,  // measure 3
00000110
00000100
00000010
00000001
,  // measure 4
00001000
00000010
00000100
00000001
,  // measure 5
00001001
00001001
00001001
00001001
,  // measure 6
00000001
00000000
00001000
00000000
00000100
00000000
00001000
00000100
,  // measure 7
00010000
00001000
01000000
00010000
,  // measure 8
20000000
00010000
00100000
31000000
,  // measure 9
01100000
01100000
01100000
01100000
,  // measure 10
01000000
00000000
00100000
00000000
00001000
00000000
00010000
00000100
,  // measure 11
00010000
00000100
00000010
00000001
,  // measure 12
00002000
00000000
00000010
00000010
00000000
00000001
00003001
00000000
,  // measure 13
00001000
00000100
00001000
00000000
00000100
00010000
00000100
00000000
,  // measure 14
00020000
00032000
01003000
00010000
,  // measure 15
10000000
00100000
01000000
00000000
00100000
01000000
00010000
00000000
,  // measure 16
20000000
32000000
00200000
03300000
,  // measure 17
00110000
00000000
00110000
00000000
00100000
00001000
00100000
00000000
,  // measure 18
00001000
00010000
00000100
00000010
,  // measure 19
00000011
00000000
00000011
00000000
00000001
00001000
00000001
00000000
,  // measure 20
00001000
00000010
00001000
00000100
,  // measure 21
00010100
00000000
00011000
00000000
00001000
00100000
00001000
00000000
,  // measure 22
00100000
00010000
01000000
00100000
,  // measure 23
10100000
00000000
10010000
00000000
00010000
00100000
00010000
00000000
,  // measure 24
00100000
00000000
00001000
00000000
00010000
00000100
00010000
00000200
,  // measure 25
00000000
00000000
00000010
00000000
00001300
00000000
00001000
00000100
,  // measure 26
00020000
00000000
00100000
00000000
00031000
00000000
00010000
00001000
,  // measure 27
01000000
00000000
00000000
01000000
00100000
00000000
10000000
00000000
,  // measure 28
01000000
00000000
00000000
01000000
10000000
00000000
00010000
00000000
,  // measure 29
00100000
00000000
00000000
00100000
00001000
00000000
00010000
00000000
,  // measure 30
00001000
00000000
00000010
00000000
00000001
00001000
00000001
00000000
,  // measure 31
00001000
00000000
00000010
00001000
00000010
00000000
00001000
00000100
,  // measure 32
00001000
00000000
00000100
00010000
00000100
00000000
00010000
00001000
,  // measure 33
00010000
00001000
01000000
00100000
,  // measure 34
10000000
01000000
00100000
01000000
,  // measure 35
10000000
00000000
00010000
00100000
00010000
00000000
00100000
00001000
,  // measure 36
00100000
00000000
00001000
00010000
00001000
00000000
00010000
00000100
,  // measure 37
00010000
00000100
00000010
00000001
,  // measure 38
00000100
00001000
00000100
00000001
,  // measure 39
00002000
00000000
00000000
00003000
,  // measure 40
00001100
00000000
00010100
00000000
00010000
00001000
00010000
00000000
,  // measure 41
00001000
00000000
01000000
00100000
00000000
00100000
01000000
00000000
,  // measure 42
00100000
00000000
10000000
00000000
01000000
10000000
00010000
00000000
,  // measure 43
00100000
00000000
00001000
00100000
00000000
00100000
00001000
00000000
,  // measure 44
00011000
00000000
00010100
00000000
00000100
00000010
00000100
00000000
,  // measure 45
00000010
00000000
00000001
00001000
00000000
00001000
00000100
00000000
,  // measure 46
00001000
00000100
00001000
00000000
00000100
00010000
00000100
00000000
,  // measure 47
00010000
00000000
00001000
00000000
01000000
00000000
00100000
10000000
,  // measure 48
00100000
00000000
01000000
00000000
00010000
00000000
00100000
00010000
,  // measure 49
00100000
00001000
00100000
00001000
,  // measure 50
00011000
00000000
00000000
00010000
00001000
00000000
00010000
00000000
,  // measure 51
00000100
00000000
00000000
00000100
00001000
00000000
00000100
00000010
,  // measure 52
00000001
00000000
00000010
00000000
00000001
00001000
00000010
00000000
,  // measure 53
00000200
00000010
00000301
00001001
;

//---------------dance-double - ----------------
#NOTES:
     dance-double:
     :
     Easy:
     2:
     0.163,0.162,0.035,0.018,0.000: // measure 1
10010000
00000000
00000000
10000000
,  // measure 2
01000000
00000000
00000000
01000000
,  // measure 3
00100000
00000000
00000000
00100000
,  // measure 4
00001000
00000000
00000000
00010000
,  // measure 5
00001000
00001000
00001000
00001000
,  // measure 6
00001000
00000000
00000000
00000000
,  // measure 7
00010000
00000000
00000100
00000000
,  // measure 8
00010000
00000000
00000000
00000000
,  // measure 9
00000100
00000100
00000100
00000100
,  // measure 10
00000100
00000000
00000000
00000000
,  // measure 11
00000010
00000000
00000001
00000000
,  // measure 12
00001000
00000000
00000000
00000000
,  // measure 13
00000001
00000000
00000100
00000000
,  // measure 14
00000010
00000000
00001000
00000000
,  // measure 15
00000100
00000000
00010000
00001000
,  // measure 16
00010000
00000000
00000000
00000000
,  // measure 17
00011000
00000000
00001000
00000000
,  // measure 18
00100000
00001000
00100000
00000000
,  // measure 19
00010000
00000000
01000000
00000000
,  // measure 20
00100000
01000000
00100000
00000000
,  // measure 21
10000000
00000000
01000000
00000000
,  // measure 22
00100000
00010000
00100000
00000000
,  // measure 23
00001000
00000000
00010000
00000000
,  // measure 24
00000100
00000000
00001000
00000100
,  // measure 25
00001000
00000000
00000001
00000000
,  // measure 26
00000100
00000000
00001000
00000000
,  // measure 27
00000100
00000000
00000100
00000100
,  // measure 28
00000001
00000000
00000001
00000001
,  // measure 29
00001000
00000000
00001000
00001000
,  // measure 30
00000100
00000000
00010000
00001000
,  // measure 31
00010000
00000000
00001000
00000000
,  // measure 32
00100000
00000000
00010000
00000000
,  // measure 33
10000000
00000000
01000000
00000000
,  // measure 34
00100000
00000000
00001000
00000000
,  // measure 35
00010000
00000000
00000100
00000000
,  // measure 36
00000010
00000000
00000100
00000000
,  // measure 37
00001000
00000000
00000001
00000000
,  // measure 38
00001001
00000000
00001000
00000000
,  // measure 39
00000220
00000000
00000000
00000330
,  // measure 40
00000010
00000000
00010000
00000000
,  // measure 41
00001000
00010000
00001000
00010000
,  // measure 42
00001000
00000000
01000000
00000000
,  // measure 43
00010000
01000000
00010000
01000000
,  // measure 44
00010000
00000000
10000000
00000000
,  // measure 45
01000000
10000000
01000000
10000000
,  // measure 46
01000000
00000000
00100000
00000000
,  // measure 47
00010000
00000000
00100000
00001000
,  // measure 48
00100000
00000000
00001000
00000000
,  // measure 49
00010000
00000000
00000100
00000000
,  // measure 50
00000010
00000000
00000001
00000001
,  // measure 51
00000001
00000000
00001000
00001000
,  // measure 52
00001000
00000000
00000100
00000000
,  // measure 53
00010000
00001000
00010000
00001000
;
