#TITLE:I Drove All Night;
#SUBTITLE:;
#ARTIST:Celine Dion;
#TITLETRANSLIT:;
#SUBTITLETRANSLIT:;
#ARTISTTRANSLIT:;
#CREDIT:348;
#BANNER:I Drove All Night Banner.png;
#BACKGROUND:I Drove All Night Background.png;
#LYRICSPATH:I Drove All Night.lrc;
#CDTITLE:;
#MUSIC:I Drove All Night.mp3;
#OFFSET:-0.522;
#SAMPLESTART:53.620;
#SAMPLELENGTH:14.000;
#SELECTABLE:YES;
#BPMS:0.000=135.000;
#STOPS:39.500=0.889
;
#BGCHANGES:;

//---------------dance-single - ----------------
#NOTES:
     dance-single:
     :
     Beginner:
     1:
     0.081,0.127,0.000,0.000,0.000: // measure 1
0000
0000
0000
0000
,  // measure 2
0000
0000
0000
0000
,  // measure 3
0000
0000
0000
0000
,  // measure 4
0000
0000
0000
0000
,  // measure 5
1000
0000
0000
0000
,  // measure 6
1000
0000
0000
0000
,  // measure 7
0001
0000
0000
0000
,  // measure 8
0001
0000
0000
0000
,  // measure 9
0100
0000
0000
0000
,  // measure 10
0010
0000
0000
0000
,  // measure 11
0000
0000
1000
0000
,  // measure 12
0000
0000
0001
0000
,  // measure 13
0000
1000
1000
0000
,  // measure 14
0001
0000
0001
0000
,  // measure 15
0000
0000
0100
0000
,  // measure 16
0000
0000
0010
0000
,  // measure 17
0000
0100
0100
0000
,  // measure 18
0010
0000
0010
0000
,  // measure 19
1000
0000
0000
0000
,  // measure 20
0001
0000
0000
0000
,  // measure 21
1000
0000
0001
0000
,  // measure 22
1000
0000
0000
0000
,  // measure 23
0010
0000
0000
0000
,  // measure 24
0010
0000
0000
0000
,  // measure 25
0100
0000
0000
0000
,  // measure 26
0100
0000
0000
0000
,  // measure 27
0010
0000
0000
0000
,  // measure 28
0100
0000
0000
0000
,  // measure 29
0001
0000
0000
0000
,  // measure 30
1000
0000
0000
0000
,  // measure 31
0001
0000
0000
0000
,  // measure 32
0100
0000
0001
0000
,  // measure 33
1000
0000
0000
0000
,  // measure 34
0100
0000
1000
0000
,  // measure 35
0010
0000
0000
0000
,  // measure 36
0010
0000
0000
0000
,  // measure 37
1000
0000
0000
0000
,  // measure 38
0001
0000
0100
0000
,  // measure 39
0001
0000
0000
0000
,  // measure 40
1000
0000
0100
0000
,  // measure 41
0010
0000
0000
0000
,  // measure 42
0010
0000
0000
0000
,  // measure 43
0010
0000
0000
0000
,  // measure 44
0000
0000
0000
0000
,  // measure 45
0001
0001
0000
0000
,  // measure 46
1000
1000
0000
0000
,  // measure 47
0001
0000
0000
0000
,  // measure 48
0000
0000
0000
0000
,  // measure 49
1000
0000
0000
0000
,  // measure 50
0010
0000
0000
0000
,  // measure 51
0100
0000
0000
0000
,  // measure 52
0000
0000
0000
0000
,  // measure 53
0001
0000
1000
0000
,  // measure 54
0001
0000
0000
0000
,  // measure 55
0100
0000
0010
0000
,  // measure 56
0100
0000
0000
0000
,  // measure 57
0001
0000
0000
0000
,  // measure 58
1000
0000
0000
0000
,  // measure 59
0010
0000
0000
0000
,  // measure 60
0100
0000
0000
0000
,  // measure 61
0010
0000
0000
0000
;

//---------------dance-single - ----------------
#NOTES:
     dance-single:
     :
     Easy:
     2:
     0.149,0.205,0.051,0.135,0.000: // measure 1
0000
0000
0000
0000
,  // measure 2
0000
0000
0000
0000
,  // measure 3
0000
0000
0000
0000
,  // measure 4
0000
0000
0000
0000
,  // measure 5
0001
0000
0000
1000
,  // measure 6
1000
0000
0000
0010
,  // measure 7
0010
0000
0000
0100
,  // measure 8
0100
0000
0000
0001
,  // measure 9
0001
0000
1000
0000
,  // measure 10
0010
0000
0100
0000
,  // measure 11
0002
0000
1003
0010
,  // measure 12
1000
0000
0010
0000
,  // measure 13
0200
0000
0310
1000
,  // measure 14
0001
0000
0100
0000
,  // measure 15
0001
0000
0010
0000
,  // measure 16
0100
0000
1000
0000
,  // measure 17
0001
2000
0000
3000
,  // measure 18
0010
0200
0000
0300
,  // measure 19
0011
0000
1000
0000
,  // measure 20
1100
0000
0001
0000
,  // measure 21
0100
0000
0010
0000
,  // measure 22
0200
0000
0000
0300
,  // measure 23
0001
0000
1000
0000
,  // measure 24
0010
0000
1000
0000
,  // measure 25
0001
0000
0100
0000
,  // measure 26
0001
0000
1000
0000
,  // measure 27
0002
0000
0000
0003
,  // measure 28
0100
0010
0100
0010
,  // measure 29
2000
0000
0000
3000
,  // measure 30
0110
0000
1001
0000
,  // measure 31
0110
0000
0000
0000
,  // measure 32
1000
0000
0100
0000
,  // measure 33
0001
0000
0010
0000
,  // measure 34
2000
0000
3001
0000
,  // measure 35
0020
0000
0130
0000
,  // measure 36
0100
0000
0010
0000
,  // measure 37
1001
0000
0000
0000
,  // measure 38
0010
0000
1000
0000
,  // measure 39
0010
0000
0001
0000
,  // measure 40
0010
0000
1000
0000
,  // measure 41
0020
0000
0000
0030
,  // measure 42
0100
0000
0001
0000
,  // measure 43
0200
0000
0000
0300
,  // measure 44
0001
0000
1000
0001
,  // measure 45
1000
0000
0010
0000
,  // measure 46
0100
0000
0000
0000
,  // measure 47
0002
0000
0000
0000
,  // measure 48
0000
0000
0000
0003
,  // measure 49
2000
0000
0000
0000
,  // measure 50
0000
0000
0000
3000
,  // measure 51
0020
0000
0000
0030
,  // measure 52
0200
0000
0000
0300
,  // measure 53
0001
0000
0001
0001
,  // measure 54
1000
0000
1000
0000
,  // measure 55
0010
0000
0100
0100
,  // measure 56
0010
0000
0100
0000
,  // measure 57
0001
0000
0000
0000
,  // measure 58
1000
0000
0000
0000
,  // measure 59
0001
0000
1000
0000
,  // measure 60
0010
0000
0000
0000
,  // measure 61
0200
0000
0000
0300
;

//---------------dance-single - ----------------
#NOTES:
     dance-single:
     :
     Medium:
     4:
     0.252,0.282,0.152,0.237,0.000: // measure 1
0000
0000
0000
0000
,  // measure 2
0000
0000
0000
0000
,  // measure 3
0000
0000
0000
0000
,  // measure 4
0000
0000
0000
0000
,  // measure 5
0001
1000
0100
0020
,  // measure 6
0000
0130
1000
0001
,  // measure 7
1000
0100
0010
0002
,  // measure 8
0000
0103
0001
1000
,  // measure 9
0001
1000
0001
1100
,  // measure 10
0010
0100
0010
0101
,  // measure 11
2000
0100
3001
0000
,  // measure 12
0002
0010
1003
0000
,  // measure 13
0001
0100
0100
0001
,  // measure 14
1000
0000
1001
0000
,  // measure 15
0020
0100
1030
0000
,  // measure 16
0200
0010
0301
0000
,  // measure 17
1000
0010
0000
0100
,  // measure 18
0001
0000
0110
0000
,  // measure 19
1000
1000
0100
1100
,  // measure 20
0010
0001
0001
0011
,  // measure 21
2000
0000
3002
0000
,  // measure 22
0203
0000
0020
0330
,  // measure 23
1000
0000
0000
1000
1000
0000
0000
0000
,  // measure 24
0001
0000
0000
0001
0001
0000
0000
0000
,  // measure 25
0100
0000
0000
0100
0100
0000
0000
0000
,  // measure 26
0010
0000
0000
0010
0010
0000
0000
0000
,  // measure 27
2000
0000
0001
3001
,  // measure 28
0001
0010
0100
1000
,  // measure 29
0020
0000
0100
0130
,  // measure 30
0110
0000
1001
0000
,  // measure 31
0020
0000
0130
0000
,  // measure 32
0001
1000
0100
0000
,  // measure 33
0100
1000
0001
0010
,  // measure 34
0002
0000
1003
0000
,  // measure 35
0011
0000
1000
0010
,  // measure 36
1010
0000
0110
0000
,  // measure 37
2000
0000
3001
0000
,  // measure 38
1000
0010
0100
0000
,  // measure 39
0001
0010
0100
1000
,  // measure 40
0200
0000
0310
0001
,  // measure 41
2000
0000
0000
3000
,  // measure 42
0001
1000
0001
0010
,  // measure 43
0200
0000
1300
0000
,  // measure 44
0001
0000
0100
0010
,  // measure 45
1001
0000
0001
1000
,  // measure 46
0110
0000
0010
0100
,  // measure 47
0002
0000
1000
1003
,  // measure 48
2000
0000
0010
3010
,  // measure 49
0020
0000
0100
0130
,  // measure 50
0200
0000
0001
0301
,  // measure 51
0002
0000
0023
0000
,  // measure 52
0230
0000
2300
0000
,  // measure 53
3001
0000
0100
0100
,  // measure 54
0010
1000
0001
0000
,  // measure 55
1100
0000
0011
0000
,  // measure 56
1001
0000
0010
0100
,  // measure 57
0010
0000
1000
0001
,  // measure 58
1000
0000
0001
1000
,  // measure 59
0110
0000
1001
0000
,  // measure 60
0200
0000
0310
0000
,  // measure 61
0020
0000
0000
0030
;

//---------------dance-single - ----------------
#NOTES:
     dance-single:
     :
     Hard:
     7:
     0.413,0.411,0.321,0.152,0.042: // measure 1
0000
0000
0000
0000
,  // measure 2
0000
0000
0000
0000
,  // measure 3
0000
0000
0000
0000
,  // measure 4
0000
0000
0000
0000
,  // measure 5
0001
0000
1000
0100
0000
2000
0000
3010
,  // measure 6
0000
0000
0100
0002
0000
1003
0000
0010
,  // measure 7
0000
0000
1000
0010
0000
0101
0000
1100
,  // measure 8
0000
1000
0000
0011
0000
1010
0000
0001
,  // measure 9
0000
0000
1000
0000
0001
0100
0001
0000
,  // measure 10
1000
0000
0010
0000
1000
0100
0010
0001
,  // measure 11
1000
0000
0100
0000
0010
0001
0100
0010
,  // measure 12
0000
1000
0011
1100
,  // measure 13
0001
0000
1000
0000
0001
0010
0100
0000
,  // measure 14
1000
0100
0010
0000
0010
0001
1000
0000
,  // measure 15
1000
0000
0001
0010
0000
0100
1000
0000
,  // measure 16
0001
0000
0100
0001
0000
1000
0010
1000
,  // measure 17
0001
0100
0010
0000
0010
0100
0001
0000
,  // measure 18
1000
0001
0100
0010
1000
0000
0110
0000
,  // measure 19
0001
0000
1000
0100
2000
0000
3001
0000
,  // measure 20
0100
0000
0001
0010
0002
0000
0103
0000
,  // measure 21
0010
0000
1000
0100
1000
0000
1000
0010
,  // measure 22
0200
0320
1030
1001
,  // measure 23
0010
0000
0000
0100
0000
0000
0010
0000
1000
0000
0000
0100
0000
0000
0010
0000
,  // measure 24
0001
0000
0000
0001
0000
0000
0001
0000
2000
0000
0000
0000
3001
0000
0000
0000
,  // measure 25
0001
0000
0000
0100
0000
0000
0100
0000
0010
0000
0000
1000
0000
0000
0001
0000
,  // measure 26
1000
0000
0000
1000
0000
0000
0001
0000
0010
0000
0000
0001
0000
0000
0010
0000
,  // measure 27
0001
0000
1001
0000
0100
0010
0100
0000
,  // measure 28
0001
0010
0001
0100
0001
1000
0001
0000
,  // measure 29
0100
0000
0110
0000
0001
1000
0010
0000
,  // measure 30
0010
1000
0010
0001
0010
0000
1001
0000
,  // measure 31
0200
0000
0001
0000
0310
1000
0010
0000
,  // measure 32
2000
0000
0001
0000
3100
0001
0100
0000
,  // measure 33
1001
0000
0000
0000
0110
0000
0000
0000
0010
0000
0000
0100
0000
0000
0010
0000
,  // measure 34
2000
0000
3001
0000
0001
0010
0001
0000
,  // measure 35
1000
0000
0010
1000
0100
0010
0001
0000
,  // measure 36
1000
0100
1000
0001
0010
0000
0011
0000
,  // measure 37
0002
0000
0010
0000
1003
0100
1000
0000
,  // measure 38
0020
0000
0001
0000
1030
0001
0100
0000
,  // measure 39
0110
0000
0000
0000
1001
0000
0000
0000
0001
0000
0000
0010
0000
0000
0001
0000
,  // measure 40
2000
0000
3010
0100
0001
0000
1000
0000
,  // measure 41
0001
0000
1000
0000
0001
0100
0010
1000
,  // measure 42
0000
0010
0100
0001
1000
0000
0110
0000
,  // measure 43
0011
0000
1010
0000
0001
0010
1000
0000
,  // measure 44
1000
0010
0001
1000
0001
0000
0011
0000
,  // measure 45
0101
0000
0000
0100
0010
0000
1100
0000
,  // measure 46
1010
0000
0000
0001
1000
0000
0110
0000
,  // measure 47
1002
0000
0100
0100
0000
1000
0000
0100
,  // measure 48
0000
0010
0000
0100
0000
1000
0000
0103
,  // measure 49
0000
0001
0000
1100
0000
0101
0000
1000
,  // measure 50
0000
0020
0000
1000
0000
0001
0000
0100
,  // measure 51
0000
0001
0000
1000
0000
0100
0000
1030
,  // measure 52
0000
0001
0000
0100
0010
0000
1001
0000
,  // measure 53
0110
0000
1000
0000
0001
0010
0001
0000
,  // measure 54
1000
0100
0001
0000
1000
0010
0001
0000
,  // measure 55
1100
0000
0000
0000
0101
0000
0000
0000
2000
0000
0000
0001
0000
0000
3001
0000
,  // measure 56
1000
0000
0001
0001
0010
0100
1000
0000
,  // measure 57
0110
0000
1000
0010
0100
0001
0001
0000
,  // measure 58
1010
1001
0011
1001
,  // measure 59
0100
0000
0001
0000
1000
0100
0010
0000
,  // measure 60
0001
0000
0001
1000
0010
0000
1001
0000
,  // measure 61
0220
0000
0000
0330
;

//---------------dance-single - ----------------
#NOTES:
     dance-single:
     :
     Challenge:
     9:
     0.580,0.616,0.262,0.211,0.279: // measure 1
0000
0000
0000
0000
,  // measure 2
0000
0000
0000
0000
,  // measure 3
0000
0000
0000
0000
,  // measure 4
0000
0000
0000
0000
,  // measure 5
1001
0000
0000
0010
0001
0000
1000
0000
0100
0000
0010
0000
0001
0000
0010
0000
,  // measure 6
0011
0000
0000
0100
0010
0000
1000
0000
0100
0000
0001
0000
0100
0000
1000
0000
,  // measure 7
1100
0000
0000
0001
1000
0000
0100
0000
0010
0000
0001
0000
1000
0000
0001
0000
,  // measure 8
1010
0000
0000
0100
0010
0000
1000
0000
0001
0000
1000
0000
0001
0010
0000
0100
,  // measure 9
1000
0000
0000
0001
1000
0000
0001
0000
0010
0000
0010
0000
0001
0000
0100
0010
,  // measure 10
0000
0000
0010
1000
0000
0000
1000
0001
0000
0000
0001
0010
0000
1000
0020
0000
,  // measure 11
0031
0000
1000
0000
0002
0000
0000
1003
0100
0000
0010
0000
0100
0000
0000
0000
,  // measure 12
1000
0000
0100
0000
0002
0000
0000
0103
1000
0000
0001
0000
0010
0000
0000
0000
,  // measure 13
0001
0000
1000
0000
0100
0000
0000
1000
0010
0000
0001
0000
0010
0000
1000
0000
,  // measure 14
0011
0000
0000
0000
1100
0000
0000
0000
0001
1000
0000
1000
0001
0000
0000
0000
,  // measure 15
0110
0000
0000
1000
0100
0000
0100
0000
1000
0000
0000
0001
0010
0000
0010
0000
,  // measure 16
0001
0000
0000
0100
0010
0000
1000
0000
0001
0000
0010
0000
0001
0000
1000
0000
,  // measure 17
0002
0010
0013
0000
2000
0100
3100
0000
,  // measure 18
0002
0010
0100
1000
0100
0010
0103
0001
,  // measure 19
1000
0000
0000
0001
1000
0000
1000
0000
0100
0000
0010
0000
1001
0000
0000
0000
,  // measure 20
0010
0000
0000
0010
0100
0000
0001
0000
1000
0000
0010
0000
0100
0000
0001
0000
,  // measure 21
0110
0000
0000
0000
1000
0000
0001
0010
0002
0000
0000
0000
0103
0000
0010
0100
,  // measure 22
0010
0000
1000
0100
1000
0000
0100
0010
0100
0000
0010
0001
0010
0000
0001
1000
,  // measure 23
0001
0000
0000
0010
0001
0000
0010
0000
0001
0000
0000
1000
0200
0000
1000
0000
,  // measure 24
0301
0000
0000
0100
1000
0000
0001
0000
0010
0000
0000
0001
2000
0000
0100
0000
,  // measure 25
3010
0000
0000
1000
0100
0000
0010
0000
0001
0000
0000
0100
0020
0000
1000
0000
,  // measure 26
0130
0000
0000
1000
0001
0000
1000
0000
0001
0000
0000
1000
0002
0000
0010
0000
,  // measure 27
1003
0000
0000
1000
0100
0000
0000
0100
0001
0000
0000
0001
0100
0000
0000
0100
,  // measure 28
2000
0100
0010
0001
0010
0001
0010
3100
,  // measure 29
1100
0000
0001
0010
0001
0000
0000
0000
0011
0000
1000
0100
1000
0000
0000
0000
,  // measure 30
1001
0000
0010
0100
0001
0000
1000
0010
0100
0000
0001
1000
0001
0000
0100
0010
,  // measure 31
0100
0000
0001
1000
0100
0000
0100
1000
,  // measure 32
0001
0010
1000
0010
0001
1000
0100
0010
,  // measure 33
1001
0000
0000
0000
1100
0000
0000
0000
0001
0010
0000
0100
1000
0000
0001
0000
,  // measure 34
1000
0000
0001
1000
0020
0001
0100
1000
,  // measure 35
2030
0000
3100
1000
0002
0000
0013
0001
,  // measure 36
1000
0000
0001
0010
0001
0000
1000
0010
0100
0000
0010
0100
0001
0000
1000
0001
,  // measure 37
1000
0000
0001
0100
1000
0100
0001
1000
,  // measure 38
0100
0001
0100
0000
1100
0000
0101
0000
,  // measure 39
1000
0000
0100
0000
0010
0000
0000
0000
0100
1000
0000
0001
0010
0000
0001
0000
,  // measure 40
0100
0000
0001
1000
0100
1000
0010
1000
,  // measure 41
0020
0000
0000
0031
0010
0000
1000
0000
0002
0000
0000
0103
1000
0000
0100
0000
,  // measure 42
0001
0000
1000
0001
0010
0000
0010
0001
,  // measure 43
1000
0100
0010
0100
0001
0100
1000
0100
,  // measure 44
1000
0001
1100
0000
0001
1000
0011
0000
,  // measure 45
0100
0010
0101
0000
0010
0100
1010
0000
,  // measure 46
0200
0001
0010
1000
0010
0001
1000
0010
,  // measure 47
0301
0000
1000
0000
0100
0000
1000
0020
0000
0000
0130
0000
0001
0000
1000
0000
,  // measure 48
0100
0000
0001
0000
0100
0000
1000
0020
0000
0000
0130
0000
0001
0000
0010
0000
,  // measure 49
0001
0000
0100
0000
0001
0000
0010
0200
0000
0000
1300
0000
0100
0000
0010
0000
,  // measure 50
0001
0000
1000
0000
0010
0000
1000
0200
0000
0000
1300
0000
0001
0000
0010
0000
,  // measure 51
0001
0010
1100
0000
1000
0010
0101
0000
,  // measure 52
0110
0000
1000
0001
0100
0000
0010
1000
0001
0000
1000
0100
0010
0000
0100
0010
,  // measure 53
0001
0000
1000
0100
0000
0100
0010
1000
,  // measure 54
0000
0010
0001
0000
0011
0000
1010
0000
,  // measure 55
1000
0000
0100
0000
0010
0000
0001
0000
0100
0010
0000
0010
0100
0000
0001
0000
,  // measure 56
1000
0000
0001
0010
0001
0000
1000
0000
,  // measure 57
0101
1010
1001
0110
,  // measure 58
0020
0100
1000
0100
0001
0100
1000
0130
,  // measure 59
0001
0000
1000
0001
0010
0100
1000
0000
,  // measure 60
0001
0000
1001
0000
0010
0100
0010
0000
,  // measure 61
2002
0000
0000
3003
;
