#TITLE:Feuer frei;
#SUBTITLE:;
#ARTIST:Rammstein;
#TITLETRANSLIT:;
#SUBTITLETRANSLIT:;
#ARTISTTRANSLIT:;
#GENRE:;
#CREDIT:Telperion;
#BANNER:Feuer frei-bn.png;
#BACKGROUND:Feuer frei-bg.png;
#LYRICSPATH:;
#CDTITLE:;
#MUSIC:Feuer frei.ogg;
#OFFSET:-0.237;
#SAMPLESTART:29.129;
#SAMPLELENGTH:20.799;
#SELECTABLE:YES;
#DISPLAYBPM:190.180;
#BPMS:0.000=190.180,427.875=-190.180,431.875=190.180,435.875=190.180,437.375=-190.180,441.375=190.180,445.375=190.180;
#STOPS:;
#BGCHANGES:;
#KEYSOUNDS:;

//---------------dance-single - Telperion----------------
#NOTES:
     dance-single:
     Telperion:
     Hard:
     9:
     0.631,0.656,0.398,0.147,0.004:
2002
0000
0000
0000
,
0000
0000
0000
0000
,
0000
0000
0000
0000
,
0000
0000
0000
0000
,
0000
0000
0000
0000
,
0000
0000
0000
0000
,
3003
0000
0000
0000
,
0000
0000
0000
0000
,
1001
0000
0001
1000
,
0100
0010
0001
0010
,
0100
0000
0100
0000
,
0100
0000
0100
0000
,
1000
0000
0001
0100
,
0010
1000
0010
0000
,
0100
0000
0100
0000
,
0001
0000
0000
0000
1000
0001
1000
0001
,
0010
0000
0000
1100
0000
0000
0100
0000
,
1000
1000
0010
0100
,
1010
0000
0000
0101
0000
0000
0001
0000
,
0010
0010
0100
1000
,
1100
0000
0000
0011
0000
0000
1000
0000
,
0001
0010
0001
0100
,
0101
0000
0000
1010
0000
0000
0010
1000
,
0001
1000
0000
1000
0001
0010
0100
1000
,
0001
0000
0001
1000
0001
0000
1010
0000
,
0100
0001
0010
0000
0110
0000
0110
0000
,
1000
0000
1000
0001
1000
0000
0101
0000
,
0001
0010
0100
0010
1000
0010
0001
0000
,
1001
0000
1000
0001
1000
0000
0011
0000
,
0010
0100
1000
0010
0001
0010
0100
0000
,
0001
0000
0001
1000
0001
0010
0001
0000
,
1000
0010
1000
0001
0010
0100
1000
0010
,
0110
1000
0100
0110
0000
0000
1000
0000
,
1000
0100
0010
0001
0010
0001
0010
0000
,
0001
0000
0100
0001
1000
0010
1000
0000
,
0100
0010
0001
0100
1000
0100
1000
0100
,
0110
1000
0100
0110
0000
0000
0010
0000
,
0001
0100
0010
1000
0010
0100
0010
0000
,
1000
0100
0010
0001
0100
0010
1000
0100
,
0010
0001
0100
0001
0010
0100
0010
0100
,
0010
0000
0001
0100
0000
0000
1100
0000
,
0010
0000
1000
0100
0000
0100
0010
0000
,
0001
0000
1000
0100
0000
0000
0101
0000
,
0001
0100
0010
1000
0000
1000
0010
0000
,
0100
0000
0001
0010
0000
0000
1010
0000
,
1000
0000
0001
0010
0000
0010
0100
0000
,
1000
0000
1000
0010
0000
0000
0011
0000
,
0100
0001
0010
0000
0100
1000
0010
0000
,
0200
0010
0000
1000
,
0000
0000
0301
0000
1000
0100
0001
0000
,
0200
0010
0000
0001
,
0000
0000
1300
0000
0001
0010
1000
0000
,
0010
0000
0001
0100
0000
0100
0001
0000
,
0010
0000
0100
1000
0010
0001
0010
0000
,
1000
0000
0100
0010
0001
0000
0010
0100
,
1000
0000
0100
1000
0100
0000
1000
0000
0001
0000
0010
0000
0001
0000
1000
0000
,
1010
0100
0001
0011
0000
0000
0010
0100
,
1000
0010
0100
0001
0010
0001
0010
0001
,
0011
0100
1000
1010
0000
0000
0100
0010
,
1000
0001
0010
0100
1000
0010
1000
0010
,
0200
0000
0000
0000
,
0302
0010
2000
3003
,
1001
0000
0001
0010
0001
1000
0010
1000
,
0000
0100
1000
0100
0001
0100
0010
0001
,
0011
0010
0100
1010
0000
0000
0010
0100
,
0001
0010
1000
0010
0100
1000
0100
0000
,
1010
0010
0100
0011
0000
0000
0010
0001
,
0100
0010
0001
0010
1000
0010
0001
0000
,
0120
0000
0000
0000
,
2030
0100
0002
3003
,
1000
0000
0001
0010
0000
0100
1000
0000
,
0010
0010
0000
0100
0001
1000
0001
0000
,
0010
0100
0010
0100
0010
1000
0010
1000
,
0000
1000
0010
0001
0100
0001
0100
0000
,
0010
0100
0010
0100
0010
0001
0010
0001
,
0000
0010
1000
0100
0010
0001
0010
0000
,
0001
0010
0001
1000
0010
1000
0100
0010
,
0000
0100
1000
0010
0100
0001
0100
0010
,
1000
0100
0001
0100
1000
0010
1000
0100
,
0000
0010
0001
0100
1000
0100
0010
0100
,
0001
0001
0010
1100
0000
0000
1000
0000
,
1000
0010
0100
0001
0100
0010
1000
0000
,
1100
1000
0010
0101
0000
0000
0001
0010
,
0100
1000
0010
0100
0001
0100
0001
0000
,
0020
0000
0000
0000
,
0032
0100
2000
3003
,
0010
0000
0010
0100
0001
0100
0001
0010
,
0100
1000
0100
0010
0001
1000
0001
0000
,
1010
1000
0001
0110
0000
0000
0010
1000
,
0010
0100
1000
0100
0001
0010
0001
0000
,
0011
0001
1000
0110
0000
0000
0010
0001
,
0100
1000
0100
0010
1000
0100
0100
0000
,
0210
0000
0000
0000
,
2300
0010
0002
3003
,
1001
0000
0001
1000
0001
0000
1000
0100
,
1000
0000
0001
0100
0001
0010
0001
0000
,
1100
0010
0000
0101
0010
0000
0100
0001
,
0010
0100
1000
0100
0010
0001
0010
0000
,
0101
0010
0000
1100
0010
0000
1000
0100
,
0010
0100
1000
0010
0100
1000
0100
0010
,
0200
0000
0000
0000
,
0302
0010
1003
1001
,
0200
0000
0000
0000
,
2300
0010
3001
0011
,
1000
0000
1100
0000
0001
0100
0001
0100
,
1000
0100
1000
0100
0001
0000
0110
0000
,
1001
0000
0000
0000
,
1111
0000
0000
1111
0000
0000
0000
0000
,
0000
0000
0000
0000
,
MMMM
0000
0000
1111
0000
0000
0000
0000
,
0000
0000
0000
0000
,
MMMM
0000
0000
MMMM
0000
0000
0000
0000
;

//---------------dance-single - Telperion----------------
#NOTES:
     dance-single:
     Telperion:
     Medium:
     7:
     0.507,0.615,0.398,0.250,0.000:
2000
0000
0000
0000
,
0000
0000
0000
0000
,
0000
0000
0000
0000
,
0000
0000
0000
0000
,
0000
0000
0000
0000
,
0000
0000
0000
0000
,
3000
0000
0000
0000
,
0000
0000
0000
0000
,
1001
0000
0001
0100
,
0000
0100
0000
0100
,
0010
0000
1000
0100
,
0000
0100
0000
0100
,
1000
0000
0001
0100
,
0000
0100
0000
0100
,
0010
0100
0000
0100
,
0000
0100
0010
0100
,
1001
0000
0000
0011
0000
0000
0001
0000
,
0010
0100
1000
0000
,
1001
0000
0000
1010
0000
0000
0010
0000
,
1000
0001
0100
0000
,
2010
0000
0000
3001
0000
0000
0001
0000
,
0010
0010
0100
0000
,
0012
0000
0000
1003
0000
0000
0000
0000
,
1010
0000
0101
0000
0011
0000
0100
1000
,
0010
0000
0100
0001
0000
0001
0010
0000
,
0100
1000
0000
1000
0010
0000
0010
0000
,
1000
0000
0100
0010
0000
0010
0001
0000
,
0100
0010
0000
0010
0100
0000
0001
0000
,
0011
0000
0010
0100
0000
1000
0100
0000
,
0010
0001
0000
0100
0001
0000
0001
0000
,
1000
0000
1000
0010
0000
0100
0010
0000
,
1000
0001
0000
0010
0001
0010
0001
0000
,
0011
0000
0000
1100
0000
1000
0010
0000
,
0100
0001
0000
0100
0010
0000
0010
0000
,
1000
0000
1000
0100
0000
0100
0010
0000
,
0001
0100
0000
0001
1000
0000
0010
0000
,
1010
0000
0000
0101
0000
0001
0010
0000
,
0100
1000
0000
1000
0010
0000
0010
0000
,
0100
0000
0100
0001
0000
0010
0001
0000
,
1000
0010
0000
1000
0001
0010
0001
0000
,
1000
0000
0010
0100
0000
0000
0100
0000
,
0000
0001
0100
0001
0000
0001
0010
0000
,
0001
0000
0010
0100
0000
0000
0100
0000
,
0000
1000
0100
1000
0000
1000
0001
0000
,
0100
0000
0010
0100
0000
0000
0100
0000
,
0000
0010
1000
0001
0000
0010
0001
0000
,
0010
0000
0100
0010
0000
0000
0010
0000
,
0100
1000
0001
0000
0100
0001
1000
0000
,
0020
0000
0000
0000
,
1030
0100
0010
0000
0021
0000
0000
0000
,
0230
0000
0000
0000
,
1300
0010
0100
0000
1200
0000
0000
0000
,
0320
0000
0000
0000
,
1030
0100
0010
0100
2000
0000
0000
0000
,
3002
0203
0320
2030
,
3100
0010
0100
1000
0010
0100
0010
0000
,
0110
0000
0000
1001
0000
0000
0010
0000
,
0100
1000
0100
0000
0010
0000
0010
0000
,
1001
0000
0000
0110
0000
0000
0010
0000
,
0100
0001
0100
0000
0001
0010
0001
0000
,
0020
0000
0000
0000
,
0230
0000
2300
3010
,
0101
0000
0000
0011
0000
0000
0100
0000
,
1000
0100
1000
0000
0001
0100
0001
0000
,
1001
0000
0000
0110
0000
0000
0100
0000
,
1000
0100
0010
0000
0001
0000
0001
0000
,
0110
0000
0000
1001
0000
0000
1000
0000
,
0001
0100
0010
0000
1000
0000
1010
0000
,
0200
0000
0000
0000
,
0302
0000
0023
0130
,
2001
0100
3002
0100
,
0013
0100
1000
0001
0010
0100
1000
0000
,
0010
1000
0010
0000
0100
0001
0100
0000
,
0001
0000
0010
0100
1000
0000
0100
0010
,
0001
0000
0100
0010
1000
0000
1000
0000
,
0100
0010
0001
0000
0001
0000
1000
0001
,
0100
0000
0100
0010
0000
0100
1000
0000
,
0100
0010
0000
0100
0001
0000
0001
0000
,
0010
0000
0010
0100
0000
0010
1000
0000
,
0010
0100
0010
0001
1000
0001
1000
0000
,
1001
0000
0000
0110
0000
0000
0010
0000
,
0100
0001
0100
0000
0010
0000
1000
0000
,
0110
0000
0000
1001
0000
0000
0010
0000
,
0100
1000
0100
0000
0010
0000
0011
0000
,
0200
0000
0000
0000
,
0302
0000
0023
0130
,
1001
0000
0001
1000
0000
1000
0100
0000
,
1000
0001
0000
0001
0100
0000
0100
0000
,
0110
0000
0000
1001
0000
0000
0001
0000
,
0010
0001
1000
0000
0010
0000
0010
0000
,
0110
0000
0000
1001
0000
0000
0001
0000
,
1000
0100
0010
0000
0100
0000
1100
0000
,
0020
0000
0000
0000
,
0230
0000
0302
0013
,
1100
0000
0000
0011
0000
0000
0101
0000
,
0010
1000
0000
1000
0001
1000
0001
0000
,
0011
0000
0000
1100
0000
0000
0010
0000
,
0020
0001
0100
1030
,
1010
0000
0000
0101
0000
0000
0010
0000
,
0020
1000
0100
0031
,
0200
0000
0000
0000
,
2300
0000
3100
0101
,
0020
0000
0000
0000
,
2030
0000
3010
0011
,
0200
0000
0310
0000
0100
0010
0100
0010
,
1000
0001
1000
0001
1000
0000
0110
0000
,
1001
0000
0000
0000
,
1001
0000
0000
1001
0000
0000
0000
0000
,
0000
0000
0000
0000
,
M00M
0000
0000
1001
0000
0000
0000
0000
,
0000
0000
0000
0000
,
M00M
0000
0000
M00M
0000
0000
0000
0000
;

//---------------dance-single - Telperion----------------
#NOTES:
     dance-single:
     Telperion:
     Easy:
     4:
     0.273,0.369,0.250,0.140,0.000:
0002
0000
0000
0000
,
0000
0000
0000
0000
,
0000
0000
0000
0000
,
0000
0000
0000
0000
,
0000
0000
0000
0000
,
0000
0000
0000
0000
,
0003
0000
0000
0000
,
0000
0000
0000
0000
,
1001
0000
0000
0000
,
0000
0000
0000
0000
,
1000
0000
1000
0000
,
1000
0000
1000
0000
,
1000
0000
0000
0000
,
0000
0000
0000
0000
,
0001
0000
0001
0000
,
0001
0000
0001
0000
,
1001
0000
0000
0010
0000
0000
0000
0000
,
0000
0000
0000
0000
,
1001
0000
0000
0010
0000
0000
0000
0000
,
0000
0000
0000
0000
,
1001
0000
0000
0010
0000
0000
0000
0000
,
0000
0000
0000
0000
,
1001
0000
0000
0010
0000
0000
0000
0000
,
0100
0100
0100
0100
,
0100
0000
0000
0001
0000
0000
0010
0000
,
0000
0100
0000
0000
1000
0000
0000
0000
,
0010
0000
0000
1000
0000
0000
0100
0000
,
0000
0010
0000
0000
0001
0000
0000
0000
,
1000
0000
0000
0010
0000
0000
0100
0000
,
0000
0001
0000
0000
0010
0000
0000
0000
,
0001
0000
0000
0010
0000
0000
0100
0000
,
0000
1000
0000
0000
0010
0000
0000
0000
,
0110
0000
0000
0110
0000
0000
0010
0000
,
0000
1000
0000
0000
0001
0000
0000
0000
,
0100
0000
0000
0010
0000
0000
1000
0000
,
0000
0001
0000
0000
0010
0000
0000
0000
,
0110
0000
0000
0110
0000
0000
0010
0000
,
0000
0001
0000
0000
1000
0000
0000
0000
,
0100
0000
0000
0010
0000
0000
0001
0000
,
0000
1000
0000
0000
0001
0000
0000
0000
,
0000
0000
0000
0000
,
0000
0000
0000
0000
,
1000
0000
1000
0000
,
1000
0000
1000
0000
,
1000
0000
0000
0000
,
0000
0000
0000
0000
,
0001
0000
0001
0000
,
0001
0000
0001
0000
,
0002
0000
0000
0000
,
0000
0000
0003
0000
,
2000
0000
0000
0000
,
0000
0000
3000
0000
,
0020
0000
0000
0000
,
0000
0000
0030
0000
,
0200
0000
0000
0300
,
0100
0100
0100
0100
,
0110
0000
0000
0110
0000
0000
0010
0000
,
0000
1000
0000
0000
0100
0000
0000
0000
,
0110
0000
0000
0110
0000
0000
0010
0000
,
0000
0001
0000
0000
1000
0000
0000
0000
,
0020
0000
0000
0000
,
0230
0000
0010
0000
,
0301
0000
0000
0000
,
0000
0000
0000
0000
,
0110
0000
0000
0110
0000
0000
0010
0000
,
0000
1000
0000
0000
0001
0000
0000
0000
,
0110
0000
0000
0110
0000
0000
0010
0000
,
0000
0001
0000
0000
0100
0000
0000
0000
,
0020
0000
0000
0000
,
2030
0000
0100
0000
,
3002
0000
0000
0000
,
1003
0001
1000
0001
,
1000
0100
0001
0000
,
0100
1000
0010
0000
,
0001
0100
1000
0000
,
0100
0001
1000
0001
,
0010
0100
0001
0000
,
0100
1000
0010
0000
,
0100
0001
1000
0100
,
1000
0001
1000
0001
,
0110
0000
0000
0110
0000
0000
1000
0000
,
0000
0100
0000
0000
0010
0000
0000
0000
,
0110
0000
0000
0110
0000
0000
0001
0000
,
0000
0100
0000
0000
0010
0000
0000
0000
,
2000
0000
0000
0000
,
3020
0000
0001
0000
,
0130
0000
0000
0000
,
0001
1000
0001
1000
,
0110
0000
0000
0110
0000
0000
0001
0000
,
0000
0010
0000
0000
0100
0000
0000
0000
,
0110
0000
0000
0110
0000
0000
1000
0000
,
0000
0010
0000
0000
0100
0000
0000
0000
,
0002
0000
0000
0000
,
0023
0000
1000
0000
,
0130
0000
0000
0000
,
0010
0001
0100
0010
,
0110
0000
0000
0110
0000
0000
1000
0000
,
0000
0100
0000
0000
0010
0000
0100
0000
,
0110
0000
0000
0110
0000
0000
0001
0000
,
0000
0100
0000
0000
0010
0000
0110
0000
,
0002
0000
0000
0000
,
0023
0000
1000
0031
,
2000
0000
0000
0000
,
3020
0000
0001
1030
,
0002
0010
0000
0013
,
1000
0001
1000
0001
,
0110
0000
0000
0000
,
1001
0000
0000
1001
0000
0000
0000
0000
,
0000
0000
0000
0000
,
M00M
0000
0000
1001
0000
0000
0000
0000
,
0000
0000
0000
0000
,
M00M
0000
0000
M00M
0000
0000
0000
0000
;

//---------------dance-single - Telperion----------------
#NOTES:
     dance-single:
     Telperion:
     Beginner:
     2:
     0.105,0.242,0.147,0.000,0.000:
0000
0000
0000
0000
,
0000
0000
0000
0000
,
0000
0000
0000
0000
,
0000
0000
0000
0000
,
0000
0000
0000
0000
,
0000
0000
0000
0000
,
0000
0000
0000
0000
,
0000
0000
0000
0000
,
0010
0000
0000
0000
,
0000
0000
0000
0000
,
0000
0000
0000
0000
,
0000
0000
0000
0000
,
0010
0000
0000
0000
,
0000
0000
0000
0000
,
0000
0000
0000
0000
,
0000
0000
0000
0000
,
0100
0000
0000
0000
,
0000
0000
0000
0000
,
0010
0000
0000
0000
,
0000
0000
0000
0000
,
0100
0000
0000
0000
,
0000
0000
0000
0000
,
0001
0000
0000
0000
,
1000
0000
0001
0000
,
1001
0000
0000
0000
,
0000
0000
0000
0000
,
0010
0000
0000
0000
,
0000
0000
0000
0000
,
1001
0000
0000
0000
,
0000
0000
0000
0000
,
0010
0000
0000
0000
,
0000
0000
0000
0000
,
0011
0000
0000
0000
,
0000
0000
0000
0000
,
1000
0000
0000
0000
,
0000
0000
0000
0000
,
1010
0000
0000
0000
,
0000
0000
0000
0000
,
0001
0000
0000
0000
,
0000
0000
0000
0000
,
0010
0000
0000
0000
,
0010
0000
0000
0000
,
0001
0000
0000
0000
,
1000
0000
0000
0000
,
0010
0000
0000
0000
,
0010
0000
0000
0000
,
1000
0000
0000
0000
,
0001
0000
0000
0000
,
0100
0000
0000
0000
,
0100
0000
0000
0000
,
0100
0000
0000
0000
,
0100
0000
0000
0000
,
0010
0000
0000
0000
,
0010
0000
0000
0000
,
1000
0000
0000
0000
,
0001
0000
1000
0000
,
1001
0000
0000
0000
,
0000
0000
0000
0000
,
1001
0000
0000
0000
,
0000
0000
0000
0000
,
0010
0000
0000
0000
,
0100
0000
0000
0000
,
1000
0000
0000
0000
,
0000
0000
0000
0000
,
1001
0000
0000
0000
,
0000
0000
0000
0000
,
1001
0000
0000
0000
,
0000
0000
0000
0000
,
0010
0000
0000
0000
,
0100
0000
0000
0000
,
0001
0000
0000
0000
,
0000
0000
0000
0000
,
1000
0000
0000
0000
,
1000
0000
0000
0000
,
0001
0000
0000
0000
,
0010
0000
0000
0000
,
0001
0000
0000
0000
,
1000
0000
0000
0000
,
0100
0000
0000
0000
,
0010
0000
0000
0000
,
1001
0000
0000
0000
,
0000
0000
0000
0000
,
1001
0000
0000
0000
,
0000
0000
0000
0000
,
0010
0000
0000
0000
,
0001
0000
1000
0000
,
1001
0000
0000
0000
,
0000
0000
0000
0000
,
1001
0000
0000
0000
,
0000
0000
0000
0000
,
1001
0000
0000
0000
,
0000
0000
0000
0000
,
0010
0000
0000
0000
,
1000
0000
0001
0000
,
1001
0000
0000
0000
,
0000
0000
0000
0000
,
1001
0000
0000
0000
,
0100
0000
0000
0000
,
1001
0000
0000
0000
,
0100
0000
0000
0000
,
0010
0000
0000
0000
,
0001
0000
0001
0000
,
0100
0000
0000
0000
,
1000
0000
1000
0000
,
0010
0000
0000
0000
,
0001
0000
1000
0000
,
1001
0000
0000
0000
,
1001
0000
0000
1001
0000
0000
0000
0000
,
0000
0000
0000
0000
,
0000
0000
0000
1001
0000
0000
0000
0000
;

//---------------dance-double - Telperion----------------
#NOTES:
     dance-double:
     Telperion:
     Hard:
     9:
     0.600,0.656,0.354,0.206,0.004:
00022000
00000000
00000000
00000000
,
00000000
00000000
00000000
00000000
,
00000000
00000000
00000000
00000000
,
00000000
00000000
00000000
00000000
,
00000000
00000000
00000000
00000000
,
00000000
00000000
00000000
00000000
,
00033000
00000000
00000000
00000000
,
00000000
00000000
00000000
00000000
,
00011000
00000000
00010000
00100000
,
10000000
01000000
00100000
00000000
,
10000000
01000000
00100000
00010000
,
01000000
00100000
00010000
00001000
,
00011000
00000000
00000100
00000010
,
00000001
00000100
00001000
00000000
,
00001000
00000100
00000010
00000100
,
00000001
00000010
00000100
00010000
,
00021000
00000000
00000000
00130000
00000000
00000000
00010000
00000000
,
00001000
00000010
00000001
00001000
,
00001020
00000000
00000000
00000031
00000000
00000000
00000010
00000000
,
00001000
00000100
00000010
00001000
,
00012000
00000000
00000000
00003010
00000000
00000000
00001000
00000000
,
00010000
00100000
10000000
01000000
,
00110000
00000000
00000000
11000000
00000000
00000000
00000000
10000000
,
00100000
10000000
00000000
10000000
01000000
00010000
00001000
00000010
,
00000001
00000000
00000010
00000001
00000000
00000001
00000100
00000000
,
00001000
00010000
00000000
01000000
00010000
01000000
00100000
01000000
,
10000000
00000000
00100000
10000000
00000000
10000000
00010000
00000000
,
01000000
00001000
00000000
00001000
00010000
00000100
00000010
00000001
,
00001000
00000000
00000001
00000100
00000000
00000001
00001000
00000000
,
00000100
00000010
00000000
00000100
00010000
00001000
01000000
00010000
,
10000000
01000000
10000000
00010000
01000000
00001000
00010000
00000100
,
00001000
00000001
00000100
00000001
00000010
00000100
00000010
00000000
,
00000011
00000000
00001000
00001010
00000000
00000000
00000100
00000001
,
00000010
00000100
00010000
00001000
00010000
00100000
10000000
00000000
,
01000000
10000000
00000000
01000000
00100000
00000000
01000000
00010000
,
00000000
01000000
00100000
00010000
01000000
00100000
10000000
00000000
,
10100000
00000000
00010000
00110000
00000000
00000000
10000000
01000000
,
00010000
00001000
00100000
00001000
00010000
00100000
01000000
00000000
,
10000000
01000000
00100000
00010000
00001000
00000010
00000100
00000001
,
00000100
00000010
00000001
00000100
00001000
00010000
00001000
00000000
,
00011000
00000000
00001000
01000000
00000000
00000000
01100000
00000000
,
10000000
00000000
01000000
00100000
00000000
00100000
00010000
00100000
,
01000000
00000000
10000000
00100000
00000000
00000000
01010000
00000000
,
00001000
00010000
00001000
01000000
00000000
00010000
01000000
00000000
,
00001000
00000000
00010000
00000100
00000000
00000000
00000011
00000000
,
00000001
00000010
00000100
00000000
00001000
00000010
00000100
00000000
,
00000001
00000000
00000001
00000100
00000000
00000000
00001010
00000000
,
00010000
00000000
00010100
00000000
00001000
00000100
00010000
00000000
,
00002000
00000000
00000000
00000000
,
00000000
00000000
00000000
00000000
00103000
01000000
10000000
00100000
,
00020000
00000000
00000000
00000000
,
00000000
00000000
00000000
00000000
00030010
00000100
00000001
00000010
,
00002000
00000000
00000000
00000000
,
00000000
00000000
00000000
00000000
00003010
00000001
00000100
00001000
,
00020000
00230000
02000000
03300000
,
01100000
00000000
00100000
10000000
00100000
00000000
01000000
00000000
00010000
00000000
00100000
00000000
00000100
00000000
00001000
00000000
,
00001010
00000000
00000100
00000011
00000000
00000001
00000100
00000000
,
00000010
00001000
00000100
00000001
00000100
00010000
00001000
00000000
,
00011000
00000000
01000000
01100000
00000000
00010000
01000000
00000000
,
00100000
10000000
01000000
00010000
00001000
00100000
01000000
00000000
,
20000000
00000000
00000000
00000000
,
32000000
00001000
00200000
03300000
,
10010000
00000000
00010000
01000000
00000000
01000000
10000000
00000000
,
01000000
00100000
00010000
00001000
00000010
00000100
00000001
00000100
,
00001100
00000000
00000010
00000101
00000000
00001000
00000100
00000000
,
00000010
00000001
00000100
00010000
00000100
00000010
00001000
00000000
,
00001100
00000000
00010000
00011000
00000000
00000100
00001000
00000000
,
00000100
00010000
00001000
01000000
00100000
01000000
00001000
00000000
,
00020000
00000000
00000000
00000000
,
02030000
10000000
00200000
03300000
,
01100000
00000000
10000000
00100000
00000000
00100000
00010000
00000000
,
00100000
01000000
00001000
00010000
00000100
00000010
00000001
00000000
,
00000010
00000100
00000010
00000100
00000010
00001000
00000010
00000001
,
00000000
00000010
00000100
00010000
00001000
00010000
01000000
00000000
,
10000000
00100000
01000000
00100000
00010000
00100000
01000000
00010000
,
00000000
10000000
01000000
00010000
00001000
00000100
00000001
00000000
,
00000010
00000100
00000010
00000100
00000010
00000001
00000100
00000010
,
00000000
00000100
00000001
00000010
00001000
00010000
01000000
10000000
,
00010000
00100000
00001000
01000000
00000100
00010000
00000010
00001000
,
00000001
00000100
00000010
00001000
00000001
00001000
00000001
00000000
,
00001010
00000000
00000100
00000011
00000000
00000001
00000100
00000000
,
00001000
00010000
00001000
00100000
01000000
00000000
10000000
00000000
,
10100000
00000000
01000000
00110000
00000000
00010000
10000000
00000000
,
00100000
01000000
00010000
00100000
00000100
00001000
00000010
00000000
,
00000200
00000000
00000000
00000000
,
00000302
00000010
00002000
00003003
,
00001001
00000000
00000010
00001000
00000000
00000100
00000010
00000000
,
00000100
00010000
00000000
00001000
00000100
00001000
00010000
00001000
,
00011000
00000000
00100000
00110000
00000000
00001000
00100000
00000000
,
00001000
00010000
00100000
10000000
01000000
00100000
01000000
00000000
,
01100000
00000000
00010000
01010000
00000000
01000000
00100000
00000000
,
10000000
00100000
00010000
00100000
01000000
00010000
00100000
00000000
,
02000000
00000000
00000000
00000000
,
23000000
00100000
00020000
30030000
,
10010000
00000000
00010000
00100000
00000100
00001000
00000010
00000000
,
00010000
00000010
01000000
00001000
00010000
00000100
00100000
00001000
,
00011000
00000000
00000000
00000110
00000000
00000000
00000002
00000000
,
00001000
00000013
00000100
00010000
,
00011000
00000000
00000000
01100000
00000000
00000000
20000000
00000000
,
00010000
00100000
31000000
00100000
,
20000000
00000000
00000000
30000000
,
10000000
00100000
01000000
00010000
00001000
00000100
00000010
00000000
,
00000002
00000000
00000000
00000003
,
00000001
00000010
00000100
00001000
00010000
01000000
00100000
00000000
,
00020000
00000000
10000000
00000000
01030000
00100000
01000000
10000000
,
01000000
00100000
00010000
00001000
00000010
00000000
00000011
00000000
,
00001100
00000000
00000000
00000000
,
10010000
00000000
00000000
00001001
00000000
00000000
00000000
00000000
,
00000000
00000000
00000000
00000000
,
MMMM0MM0
00000000
00000000
00001001
00000000
00000000
00000000
00000000
,
00000000
00000000
00000000
00000000
,
MMMM0MM0
00000000
00000000
0MM0MMMM
00000000
00000000
00000000
00000000
;

//---------------dance-double - Telperion----------------
#NOTES:
     dance-double:
     Telperion:
     Medium:
     7:
     0.459,0.574,0.332,0.184,0.000:
00020000
00000000
00000000
00000000
,
00000000
00000000
00000000
00000000
,
00000000
00000000
00000000
00000000
,
00000000
00000000
00000000
00000000
,
00000000
00000000
00000000
00000000
,
00000000
00000000
00000000
00000000
,
00030000
00000000
00000000
00000000
,
00000000
00000000
00000000
00000000
,
00011000
00000000
00001000
00000000
,
00010000
00000100
00000010
00000000
,
00000001
00000010
00000000
00000010
,
00000000
00000100
00000000
00000100
,
00001000
00000000
00000010
00000000
,
00000100
00001000
00010000
00000000
,
00001000
00100000
00000000
00100000
,
00000000
01000000
00000000
01000000
,
10010000
00000000
00000000
00100000
00000000
00000000
10000000
00000000
,
01000000
00100000
00001000
00000000
,
00011000
00000000
00000000
00000010
00000000
00000000
00001000
00000000
,
00000100
00000010
00000001
00000000
,
00001001
00000000
00000000
00000010
00000000
00000000
00000001
00000000
,
00000100
00000100
00000010
00000000
,
00010010
00000000
00000000
00000100
00000000
00000000
00001000
00000000
,
00000011
00000110
00001100
00000000
,
00001001
00000000
00000001
00000100
00000000
00000100
00001000
00000000
,
00010000
01000000
00000000
01000000
10000000
00000000
00010000
00000000
,
10000000
00000000
10000000
00100000
00000000
00100000
00010000
00000000
,
00001000
00000010
00000000
00000010
00000001
00000000
00001000
00000000
,
00000010
00000000
00000100
00001000
00000000
00001000
00010000
00000000
,
01000000
00100000
00000000
00100000
00010000
00000000
10000000
00000000
,
00010000
00000000
01000000
00100000
00000000
00100000
00010000
00000000
,
00001000
00000100
00000000
00000100
00000001
00000000
00000010
00000000
,
00000110
00000000
00000000
00000110
00000000
00000000
00000001
00000000
,
00000100
00001000
00010000
01000000
,
10000000
00000000
10000000
00100000
00000000
00100000
01000000
00000000
,
00001000
00010000
00000000
00010000
01000000
00000000
00100000
00000000
,
01100000
00000000
00000000
01100000
00000000
00000000
10000000
00000000
,
01000000
00010000
00001000
00000010
,
00000001
00000100
00000000
00000001
00001000
00000000
00000100
00010000
,
00000000
00001000
01000000
00000000
00010000
10000000
01000000
10000000
,
00020000
00000000
01030000
00100000
,
00020000
00001000
00000010
00031000
,
00000000
00000100
00000010
00000001
,
00000100
00000010
00000100
00000001
,
00000020
00000000
00000130
00010000
,
00002000
00000100
00010000
00003100
,
00000000
00000010
00000100
00001000
,
00010000
01000000
10000000
10000000
,
00200000
00000000
00000000
00000000
,
00000000
00000000
10300000
00010000
,
00000020
00000000
00000000
00000000
,
00000000
00000000
00000031
00001000
,
00200000
00000000
00000000
00000000
,
00000000
00000000
01300000
00100000
,
00010000
00000100
00000010
00000001
,
00001000
00000100
00000000
00001000
00000001
00000100
00000001
00000000
,
00001001
00000000
00000000
00000110
00000000
00000000
00000010
00000000
,
00000001
00000100
00001000
00000000
00010000
00000000
01000000
00000000
,
10010000
00000000
00000000
01100000
00000000
00000000
00100000
00000000
,
10000000
01000000
00010000
00000000
00001000
00000000
00001000
00000000
,
00200000
00000000
00000000
00000000
,
02300000
00000000
20000000
33000000
,
10010000
00000000
00010000
00000000
01000000
00010000
01000000
00000000
,
00001000
00010000
00001000
00000000
00100000
01000000
10000000
00000000
,
10010000
00000000
00000000
01100000
00000000
00000000
01000000
00000000
,
00010000
00100000
00001000
00000000
00000100
00000000
00000001
00000000
,
00001001
00000000
00000000
00000110
00000000
00000000
00000010
00000000
,
00001000
00000100
00000001
00000000
00000100
00000000
00001000
00000000
,
00000020
00000000
00000000
00000000
,
00000230
00000000
00000002
00000303
,
00001001
00000000
00000001
00000010
00000000
00000000
00000010
00000000
,
00000001
00000100
00000000
00000100
00000010
00000100
00000000
00000100
,
00000001
00000000
00001000
00000000
00000100
00000000
00010000
00000100
,
00000000
00000100
00001000
00000100
00010000
00000000
00001000
01000000
,
00010000
00000000
10000000
01000000
00000000
10000000
00010000
00000000
,
01000000
00001000
00010000
00000000
00000100
00010000
00001000
00000000
,
01000000
00000000
00100000
00000000
10000000
01000000
00100000
00000000
,
00010000
01000000
00100000
00000000
00010000
00001000
00100000
00000000
,
00010000
01000000
00001000
00000000
00010000
00000100
00000010
00000000
,
00000100
00001000
00000001
00000100
00000001
00001000
00000001
00000000
,
00001001
00000000
00000000
00000110
00000000
00000000
00000001
00000000
,
00000100
00000010
00010000
00000000
00100000
00000000
01000000
00000000
,
10010000
00000000
00000000
01100000
00000000
00000000
10000000
00000000
,
01000000
00100000
00001000
00000000
00000010
00000000
00000001
00000000
,
00000200
00000000
00000000
00000000
,
00000320
00000000
00002000
00003030
,
00000101
00000100
00000001
00000100
,
00001000
00010000
01000000
00000000
10000000
00000000
00010000
00000000
,
10010000
00000000
00000000
01100000
00000000
00000000
00100000
00000000
,
00010000
00001000
00000010
00000000
00000001
00000000
00001000
00000000
,
00001001
00000000
00000000
00000110
00000000
00000000
00000010
00000000
,
00001000
00010000
00100000
00000000
10000000
00000000
00100000
00000000
,
02000000
00000000
00000000
00000000
,
03020000
00000000
20000000
30030000
,
10010000
00000000
00000000
01000000
00000000
00000000
00110000
00000000
,
00000000
00001000
00000000
00000000
00010010
00000000
00000100
00000000
,
00001001
00000000
00000000
00000021
00000000
00000000
00000100
00000000
,
00000000
00001030
00000000
00000000
00010000
00000000
00100000
00000000
,
10010000
00000000
00000000
10200000
00000000
00000000
01000000
00000000
,
00000000
00310000
00000000
00000000
00001000
00000000
00000010
00000000
,
00000200
00000001
00000000
00000010
,
00000000
00001300
00000100
00010000
,
02001000
00100000
00000000
10000000
,
00000000
03010000
01000000
00001000
,
00012000
00000000
00000010
00003000
00010000
00001000
00000100
00000001
,
00000010
00000100
00001000
00000001
00000100
00000000
00000100
00000000
,
00000110
00000000
00000000
00000000
,
10010000
00000000
00000000
10010000
00000000
00000000
00000000
00000000
,
00000000
00000000
00000000
00000000
,
M00M0000
00000000
00000000
10010000
00000000
00000000
00000000
00000000
,
00000000
00000000
00000000
00000000
,
M00M0000
00000000
00000000
M00M0000
00000000
00000000
00000000
00000000
;

//---------------dance-double - Telperion----------------
#NOTES:
     dance-double:
     Telperion:
     Easy:
     2:
     0.169,0.246,0.081,0.111,0.000:
00011000
00000000
00000000
00000000
,
00000000
00000000
00000000
00000000
,
00000000
00000000
00000000
00000000
,
00000000
00000000
00000000
00000000
,
00000000
00000000
00000000
00000000
,
00000000
00000000
00000000
00000000
,
00000000
00000000
00000000
00000000
,
00000000
00000000
00000000
00000000
,
00010000
00000000
00000000
00000000
,
00000000
00000000
00000000
00000000
,
00000100
00000000
00000100
00000000
,
00000100
00000000
00000100
00000000
,
00000100
00000000
00000000
00000000
,
00000000
00000000
00000000
00000000
,
01000000
00000000
01000000
00000000
,
01000000
00000000
01000000
00000000
,
01000000
00000000
00000000
00000000
,
00010000
00000000
00000000
00000000
,
00100000
00000000
00000000
00000000
,
01000000
00000000
00000000
00000000
,
00010000
00000000
00000000
00000000
,
00001000
00000000
00000000
00000000
,
00000100
00000000
00000000
00000000
,
00000010
00000010
00000010
00000010
,
00000010
00000000
00000100
00000000
,
00001000
00000000
00000000
00000000
,
00010000
00000000
01000000
00000000
,
00100000
00000000
00000000
00000000
,
00010000
00000000
01000000
00000000
,
00001000
00000000
00000000
00000000
,
00010000
00000000
00000100
00000000
,
00001000
00000000
00000000
00000000
,
00000110
00000000
00000010
00000000
,
00000100
00000000
00000000
00000000
,
00001000
00000000
00010000
00000000
,
01000000
00000000
00000000
00000000
,
01100000
00000000
01000000
00000000
,
00100000
00000000
00000000
00000000
,
00001000
00000000
00010000
00000000
,
00000010
00000000
00000000
00000000
,
00000100
00000000
00000000
00000000
,
00000000
00000000
00000000
00000000
,
00000010
00000000
00000010
00000000
,
00000010
00000000
00000010
00000000
,
00000010
00000000
00000000
00000000
,
00000000
00000000
00000000
00000000
,
00100000
00000000
00100000
00000000
,
00100000
00000000
00100000
00000000
,
00200000
00000000
00000000
00000000
,
00000000
00000000
00300000
00000000
,
00200000
00000000
00000000
00000000
,
00000000
00000000
00300000
00000000
,
00200000
00000000
00000000
00000000
,
00000000
00000000
00300000
00000000
,
01000000
00000000
01000000
00000000
,
00100000
00100000
00100000
00100000
,
00100000
00000000
00000000
00000000
,
00001000
00010000
00000010
00000000
,
00000010
00000000
00000000
00000000
,
00010000
00001000
00100000
00000000
,
02000000
00000000
00000000
00000000
,
00200000
00000000
03300000
00000000
,
01100000
00000000
00000000
00000000
,
00000000
00000000
00000000
00000000
,
00100000
00000000
00000000
00000000
,
00001000
00000000
00010000
00000000
,
00000100
00000000
00000000
00000000
,
00010000
00000000
00001000
00000000
,
00000200
00000000
00000000
00000000
,
00000020
00000000
00000330
00000000
,
00000110
00000000
00000000
00000000
,
00000000
00000000
00000000
00000000
,
00000010
00000000
00001000
00000000
,
00000100
00000000
00001000
00000000
,
00000010
00000000
00001000
00000000
,
00000100
00000000
00010000
00000000
,
00001000
00000000
00100000
00000000
,
00010000
00000000
01000000
00000000
,
00001000
00000000
00010000
00000000
,
00000010
00000010
00000010
00000010
,
00000010
00000000
00000000
00000000
,
00010000
00000000
00001000
00000000
,
00100000
00000000
00000000
00000000
,
01000000
00000000
00010000
00000000
,
00002000
00000000
00000000
00000000
,
00020000
00000000
00033000
00000000
,
00011000
00000000
00000000
00000000
,
00000000
00000000
00000000
00000000
,
00100000
00000000
00000000
00000000
,
00001000
00000000
00010000
00000000
,
00000100
00000000
00000000
00000000
,
00000010
00000000
00001000
00000000
,
00020000
00000000
00000000
00000000
,
00002000
00000000
00033000
00000000
,
00011000
00000000
00000000
00000000
,
00000000
00000000
00000000
00000000
,
00001000
00000000
00000000
00001000
00000000
00000000
00000000
00000000
,
00000000
00000000
00000000
00000000
,
00010000
00000000
00000000
00010000
00000000
00000000
00000000
00000000
,
00000000
00000000
00000000
00000000
,
00000200
00000000
00000000
00000000
,
00000300
00000000
00000000
00000000
,
02000000
00000000
00000000
00000000
,
03000000
00000000
00000000
00000000
,
00000200
00000000
00000000
00000000
,
00020300
00000000
00031000
00010000
,
00011000
00000000
00000000
00000000
,
10000001
00000000
00000000
10000001
00000000
00000000
00000000
00000000
,
00000000
00000000
00000000
00000000
,
M000000M
00000000
00000000
10000001
00000000
00000000
00000000
00000000
,
00000000
00000000
00000000
00000000
,
M000000M
00000000
00000000
M000000M
00000000
00000000
00000000
00000000
;
