#TITLE:Bye Bye Bye;
#SUBTITLE:;
#ARTIST:NSYNC;
#TITLETRANSLIT:;
#SUBTITLETRANSLIT:;
#ARTISTTRANSLIT:;
#GENRE:;
#CREDIT:;
#MENUCOLOR:;
#METERTYPE:DDR;
#BANNER:ByeByeBye-logo.png;
#BACKGROUND:ByeByeBye-bg.png;
#LYRICSPATH:;
#CDTITLE:;
#MUSIC:ByeByeBye.mp3;
#OFFSET:-0.063;
#SAMPLESTART:100.000;
#SAMPLELENGTH:11.660;
#SELECTABLE:YES;
#LISTSORT:;
#BPMS:0.000=172.600,236.000=86.300,248.000=129.450,254.000=172.600;
#STOPS:344.000=0.350
;
#BGCHANGES:;
#ATTACKS:;

//---------------dance-single - ----------------
#NOTES:
     dance-single:
     :
     Hard:
     8:
     0.538,0.541,0.438,0.215,0.004: // measure 1
0000
0000
0000
0110
,  // measure 2
1001
0000
1001
0000
0001
1000
0000
0000
,  // measure 3
0000
0000
0000
0000
,  // measure 4
1001
0000
1001
0000
1000
0001
0000
0000
,  // measure 5
0000
0000
0000
0110
,  // measure 6
1001
0000
1001
0000
0001
1000
0000
0000
,  // measure 7
0000
0000
0000
0000
,  // measure 8
1001
0000
1001
0000
1000
0001
0000
0000
,  // measure 9
0000
0000
0000
0000
,  // measure 10
1001
0000
1100
0000
,  // measure 11
0001
0010
0100
1000
,  // measure 12
0001
0000
1100
0000
,  // measure 13
0001
1000
0100
1000
0001
0000
0001
0000
,  // measure 14
1100
0000
0101
0000
,  // measure 15
1000
0010
0100
0001
,  // measure 16
1000
0010
1000
0000
0010
0100
0010
0000
,  // measure 17
0100
0001
0100
0000
0001
1000
0001
0000
,  // measure 18
1001
0001
1000
0000
,  // measure 19
0001
0010
1000
0010
,  // measure 20
0001
0001
1100
0000
,  // measure 21
1000
0010
0001
0010
,  // measure 22
1000
1000
0101
0000
,  // measure 23
0010
1000
0100
0010
,  // measure 24
0001
1000
0001
0000
0010
0100
0010
0000
,  // measure 25
0100
1000
0100
0000
1000
0001
1000
0000
,  // measure 26
0110
0000
0002
0203
,  // measure 27
0320
2030
3200
0320
,  // measure 28
0100
0000
0130
0000
1100
0000
0000
0010
,  // measure 29
0100
1000
0020
0130
,  // measure 30
0101
0000
2000
3020
,  // measure 31
0230
0302
2003
3200
,  // measure 32
0001
0000
0301
0000
1100
0000
0010
0100
,  // measure 33
2000
0001
3001
0101
,  // measure 34
0101
0000
0000
0001
0100
0001
0100
1000
,  // measure 35
0100
0000
1000
0100
0000
0100
0001
0000
,  // measure 36
1000
0001
1000
0001
1000
0100
1000
0100
,  // measure 37
0001
0000
0100
0001
0000
0100
1000
0000
,  // measure 38
0001
0001
2000
3020
,  // measure 39
0230
0302
0023
0130
,  // measure 40
1100
0000
0110
0000
0101
0000
0001
0100
,  // measure 41
1000
0110
0101
0100
,  // measure 42
1100
0000
0000
0100
0010
0100
0010
1000
,  // measure 43
0010
0000
1000
0010
0000
0010
0001
0000
,  // measure 44
0001
1000
0001
1000
0010
1000
0010
0001
,  // measure 45
0010
0000
0001
0010
0000
0010
1000
0000
,  // measure 46
0001
0001
0020
0230
,  // measure 47
2300
3020
0230
0301
,  // measure 48
0101
0000
0110
0000
1100
0000
1000
0100
,  // measure 49
0001
0110
1100
0100
,  // measure 50
0101
0000
0001
0000
,  // measure 51
1000
0001
0100
0000
0001
0000
0000
0000
,  // measure 52
1001
0000
0000
0001
1000
0100
1000
0001
,  // measure 53
0010
0000
0100
1000
0000
0000
0010
0100
,  // measure 54
0010
1000
0100
0010
0100
1000
0010
0100
,  // measure 55
0010
0000
1000
0001
0000
0000
1001
0000
,  // measure 56
1001
0000
0000
1000
0001
0100
0001
1000
,  // measure 57
0010
0000
0100
0001
0000
0000
0010
0100
,  // measure 58
0010
0001
0100
0010
0100
0001
0010
0100
,  // measure 59
0010
0000
0001
0010
0000
0000
0100
1000
,  // measure 60
0001
0000
1000
0000
0001
0010
0100
1000
,  // measure 61
0020
0000
1000
0130
0000
0000
1000
0010
,  // measure 62
0200
0000
0001
0310
0000
0000
1000
0001
,  // measure 63
0100
0000
0000
0101
0000
0000
0110
0000
,  // measure 64
0000
0000
1100
0000
0000
0100
0000
0000
0001
0000
1000
0000
0100
0000
0000
0000
,  // measure 65
0001
0100
1000
0000
0010
0100
0001
0000
,  // measure 66
1000
0010
0001
0000
0010
1000
0100
0000
,  // measure 67
0010
0001
0100
0000
1000
0100
0001
0000
,  // measure 68
0010
1000
0010
0000
0001
1000
0100
0000
,  // measure 69
0010
0001
0100
0000
1000
0100
0001
0000
,  // measure 70
0010
0100
1000
0000
0010
0100
0001
0000
,  // measure 71
0010
0100
0001
0000
0100
1000
0001
0000
,  // measure 72
1001
0000
1001
0000
0000
0000
0000
0100
,  // measure 73
0001
0100
0001
0010
1000
0000
0010
0001
,  // measure 74
0000
0001
1000
0000
0100
1000
0100
1000
,  // measure 75
0010
0001
0010
0001
0010
0000
1000
0010
,  // measure 76
0000
1000
0001
0000
0100
0010
1000
0000
,  // measure 77
0100
0010
1000
0000
0010
0001
0100
0000
,  // measure 78
0100
0001
0010
0000
1100
0000
0110
0000
,  // measure 79
0101
0000
0001
0100
1000
0000
0110
0000
,  // measure 80
0101
0000
0100
0000
1100
0000
0000
0100
,  // measure 81
1000
0100
1000
0010
0001
0000
0010
1000
,  // measure 82
0000
0100
0010
0000
0001
0100
0001
0100
,  // measure 83
0001
0010
1000
0010
1000
0000
0010
1000
,  // measure 84
0000
0010
0001
0000
0100
0010
1000
0000
,  // measure 85
0010
0100
0001
0000
0010
0100
0001
0000
,  // measure 86
0100
1000
0010
0000
0101
0000
0110
0000
,  // measure 87
1100
1010
0110
0011
,  // measure 88
0001
2002
0000
0000
,  // measure 89
3003
0000
0000
0000
;

//---------------dance-single - ----------------
#NOTES:
     dance-single:
     :
     Medium:
     5:
     0.312,0.406,0.230,0.046,0.004:
0000
0000
0000
1001
,
1001
0000
0000
0000
,
0000
0000
0000
0000
,
0000
0000
0000
0000
,
0000
0000
0000
1001
,
1001
0000
0000
0000
,
0000
0000
0000
0000
,
0000
0000
0000
0000
,
0000
0000
0000
0000
,
0001
0000
1000
0000
,
0001
0100
0010
0100
,
0001
0000
1000
0000
,
0001
0100
0010
0100
,
0001
0000
1000
0000
,
0100
0010
0001
0100
,
0010
1000
0100
0010
,
0100
1000
0001
1000
,
1001
0000
0001
0000
,
1000
0100
0010
0100
,
1000
0000
0001
0000
,
1000
0100
0010
0100
,
1000
0000
0001
0000
,
1000
0100
0010
0001
,
0100
0010
1000
0010
,
0100
0001
1000
0001
,
1001
0000
2000
0000
,
3100
0000
0020
0000
,
0031
0100
1000
0000
,
0100
0001
0010
0100
,
0010
0000
0200
0000
,
1300
0000
0002
0000
,
0103
0100
0100
0000
,
0010
0010
0010
1000
,
1001
0000
1000
0000
,
0001
1000
0100
0000
,
1000
0000
0001
0000
,
1000
0001
0100
0000
,
0001
0000
1000
0100
,
0010
0001
0010
0100
,
1000
1000
0001
0000
,
0101
1100
0101
0010
,
0010
0000
0001
0000
,
1000
0001
0010
0000
,
0001
0000
1000
0000
,
0001
1000
0010
0000
,
1000
0000
0001
0100
,
0010
1000
0010
0100
,
0001
0001
1000
0000
,
0101
1100
0101
0000
,
1001
0000
1000
0000
,
0001
0001
0001
0000
,
1001
0000
1000
0100
,
0010
0000
0100
1000
0000
0000
0010
0000
,
0100
0001
0010
0001
,
0100
0000
0001
0100
0000
0000
0101
0000
,
0101
0000
1000
0000
,
0001
0010
0100
0000
,
0010
0001
0100
0010
,
0100
0000
0001
1000
0000
0000
0100
0000
,
0110
0000
0100
1000
,
0001
0000
1000
0010
0000
0000
0100
0000
,
0001
0000
1000
0010
0000
0000
0100
0001
,
0010
0000
0000
0100
0000
0000
1000
0000
,
0000
0000
0001
0000
0000
1000
0000
0000
0001
0000
0000
0000
0000
0000
0000
0000
,
0100
0100
0100
0000
,
0010
0000
1000
0000
,
0100
0000
0010
0010
,
0010
0000
0001
0000
,
1000
0000
0010
0000
,
0100
0000
0101
0000
,
1001
0000
1010
0000
,
1000
0001
1000
1000
,
0100
0010
0100
0100
,
1000
0000
0001
0001
,
0100
0010
0100
0100
,
0001
0000
1000
0001
,
0100
0000
0001
1000
,
0100
0000
0010
0001
,
0010
0000
1100
0101
,
1100
1000
0100
0010
,
0010
0001
0100
0100
,
0010
0000
0010
0010
,
1000
0100
0010
0010
,
0100
0000
1000
0000
,
0001
0000
1000
0000
,
0010
0100
0101
1100
,
0101
0011
1010
0011
,
0002
2000
0000
0000
,
3003
0000
0000
0000
;

//---------------dance-single - ----------------
#NOTES:
     dance-single:
     :
     Easy:
     3:
     0.241,0.338,0.230,0.046,0.000:
0000
0000
0000
0000
,
0000
0000
0000
0000
,
0000
0000
0000
0000
,
0000
0000
0000
0000
,
0000
0000
0000
1000
,
1000
0000
0000
0000
,
0000
0000
0000
0000
,
0000
0000
0000
0000
,
0000
0000
0000
0000
,
1001
0000
0001
0000
,
1000
0000
0100
0000
,
0010
0000
0100
0000
,
0010
0001
0100
0001
,
0010
0000
0001
0000
,
0100
0000
0010
0000
,
2000
0000
3002
0000
,
2003
0000
3002
0000
,
1003
0000
1000
0000
,
0001
0000
0100
0000
,
0001
0000
1000
0000
,
0100
0000
1000
0000
,
0010
0000
1000
0000
,
0100
0000
0010
0000
,
0001
0000
0100
0000
,
0001
0000
0010
0000
,
0110
0000
0100
0000
,
1000
0000
0010
0000
,
1000
1000
1000
0000
,
0001
0001
0001
0000
,
0100
0000
0001
0000
,
1000
0000
0001
0000
,
0100
0100
0100
0000
,
0010
0010
0010
0000
,
1000
0000
0001
0000
,
1000
0000
0001
0000
,
1100
1100
1100
0000
,
0001
0000
1000
0000
,
0101
0101
0101
0000
,
1000
0000
0001
0000
,
1000
0100
0001
0000
,
0001
0100
1000
0000
,
0001
0000
1000
0000
,
1000
0000
0000
0000
,
1100
1100
1100
0000
,
0001
0000
1000
0000
,
0101
0101
0101
0000
,
0001
0000
1000
0000
,
0001
0100
1000
0000
,
1000
0100
0001
0000
,
1001
0000
0000
0000
,
0000
0000
0000
0000
,
1001
0000
1000
0000
,
0001
0100
0010
0000
,
1000
0000
0001
0000
,
1000
0100
0010
0000
,
0011
0000
0001
0000
,
0010
0100
1000
0000
,
0010
0000
1000
0000
,
0010
0100
0001
0000
,
1001
0000
0000
0000
,
0001
0000
0000
0000
,
1000
0000
0000
0000
,
0100
0000
0000
0010
0000
0000
0100
0000
,
0000
0010
0000
0000
0100
0000
0100
0000
,
1000
0000
0010
0000
,
0100
0000
0001
0001
,
1000
0000
0001
0000
,
1000
0000
0100
0100
,
0010
0000
0001
0000
,
1000
0000
0010
0000
,
0100
0000
0010
0000
,
0100
0001
0000
0000
,
1000
0000
0001
0000
,
1000
0000
0101
0101
,
0101
0000
0001
0000
,
1000
0000
1100
1100
,
1100
0000
0001
0000
,
1000
0000
0001
0100
,
1000
0000
1000
0100
,
0001
0000
1000
0000
,
0001
0000
1000
0000
,
0001
0000
0101
0101
,
0101
0000
1000
0000
,
0001
0000
1100
1100
,
1100
0000
1000
0000
,
0001
0000
1000
0100
,
0001
0001
0100
1000
,
0002
2000
0000
0000
,
3003
0000
0000
0000
;
