#TITLE:Boom Digi Da;
#SUBTITLE:Kyz Steps;
#ARTIST:Bambee;
#TITLETRANSLIT:;
#SUBTITLETRANSLIT:;
#ARTISTTRANSLIT:;
#GENRE:;
#CREDIT:;
#BANNER:;
#BACKGROUND:;
#LYRICSPATH:;
#CDTITLE:;
#MUSIC:Boom digi da.ogg;
#OFFSET:-0.132000;
#SAMPLESTART:85.000000;
#SAMPLELENGTH:15.000000;
#SELECTABLE:YES;
#BPMS:0.000000=138.999996;
#STOPS:;
#DELAYS:;
#TIMESIGNATURES:0.000000=4=4
;
#BGCHANGES:;
#KEYSOUNDS:;
#ATTACKS:;

//---------------dance-double - Kyzentun----------------
#NOTES:
     dance-double:
     Kyzentun:
     Challenge:
     10:
     0.484,0.480,0.114,0.553,0.154,335.000,14.000,68.000,0.000,87.000,0.000,0.000,0.484,0.480,0.114,0.553,0.154,335.000,14.000,68.000,0.000,87.000,0.000,0.000:
00000000
00000000
00000000
00000000
,
00000000
00000000
00000000
00000000
,
00000000
00000000
00000000
00000000
,
00000000
00000000
00011000
00100100
,
10000001
00000000
00000000
00000000
00000000
00000000
00000000
00000000
01000000
00000000
00000000
00000010
00000000
00000000
00010000
00000000
,
00000100
00000000
00000000
00000010
00000000
00000000
00000001
00000000
00000000
00000001
00000000
00000000
00000100
00000000
00010000
00000000
,
01000000
00010000
00100000
01000000
20000000
00000000
01000000
00010000
,
02000000
00000000
00200000
00020000
00000000
00001000
00000000
00001000
,
33330000
00000000
00000000
00000000
00000000
00000000
00000000
00000000
10000000
00000000
00000000
01000000
00000000
00000000
00100000
00000000
,
00001000
00000000
00000000
00000010
00000000
00000000
00000100
00000000
00000000
00010000
00000000
00000000
00001000
00000000
00000100
00000000
,
00000001
00000100
00001000
00010000
00000200
00000000
00010000
00100000
,
00020000
00000000
00000002
00002000
00000000
00000010
00000000
00000010
,
00033303
00000000
00000000
00000000
00000000
00000000
00000100
00010000
,
00000100
00000010
00000002
00000200
00000010
00000000
00000020
00000003
,
00000301
00000100
00001030
00000000
00000100
00000000
00000100
00002000
,
00020000
00000000
01000000
00100000
20000000
00033000
00001000
00000000
,
30010000
00000000
00001000
00000000
00001000
00000000
00001000
00010000
,
00100000
10000000
00020000
02000000
00001000
00000000
00002000
00030000
,
03010000
01000000
00103000
00000000
01000000
00000000
01000000
00001000
,
00200000
00000200
00011000
01000010
,
10300301
00000000
00000000
00000000
00200000
00000000
00001000
00000010
,
00002000
00000000
00000100
00000020
00300000
00100000
00003000
00001000
,
00000000
00010000
00000100
00002000
00000230
00000000
00000010
00010000
,
00003302
00000000
00001000
00000010
00000000
00000100
00000000
00000020
,
00000003
00000030
00000000
00000000
00000100
00001000
00010000
00200000
,
02000000
00000000
10000000
00002000
00000000
10000000
00300000
00100000
,
03000000
01000000
10000000
01000000
00023000
00000000
01000000
10000000
,
02000000
00000000
00200000
20000000
00000000
00001000
00000000
00001000
,
33330000
00000000
00010000
01000000
00010000
00000000
02000000
00000000
00000200
00000000
00000000
00000000
00010000
00000000
00001000
00000000
,
00100000
00000010
00000000
00100010
00000000
03000300
00000000
00000000
,
00000000
00000000
01000000
00000100
01000000
00000000
00002000
00000000
00020000
00000000
00000020
00000000
00000000
00000000
00000001
00000000
,
00000000
00000100
00000000
00000002
00000000
00000000
00033033
00000000
,
00000000
00000000
00001000
00010000
00001000
00000000
00200000
00000000
02000000
00000000
00000000
00000000
00000100
00000000
00000010
00000000
,
00000100
00000010
00000000
00000110
00000000
03300000
00000000
00000000
,
00000000
00000000
00100000
01000000
00100000
00000000
00002000
00000000
00020000
00000000
00000001
00000000
00000000
00000000
00000002
00000000
,
00003000
00031000
00010000
00002000
00000000
01003000
00010000
01000000
,
00000000
00000000
00000003
00000000
00000000
00000000
00000000
00000000
00010000
00000000
00000000
01000000
00000000
00000000
00100000
00000000
,
10000000
00000000
00000000
00010000
00000000
00000000
00100000
00000000
00000000
00001000
00000000
00000000
00000010
00000000
00000001
00000000
,
00000100
00000000
00001000
00000000
01000000
00000000
00100000
00000000
00010000
00000000
00000000
00001000
00000000
00000000
00000010
00000000
,
00000100
00000000
00000000
00010000
00000000
00000000
00001000
00000000
00000000
01000000
00000000
00000000
00100000
00000000
00010000
00000000
,
00001000
00000000
00010000
00000000
01000000
00000000
00100000
00000000
00001000
00000000
00000000
00000100
00000000
00000000
00000010
00000000
,
00010000
00000000
00000000
00000001
00000000
00000000
00100000
00000000
00000000
00000100
00000000
00000000
00010000
00000000
01000000
00000000
,
10000000
00000000
00001000
00000000
01000000
00000000
00100000
00000000
00010000
00000000
00000000
00000010
00000000
00000000
00000100
00000000
,
00010000
00000000
00000000
01000000
00000000
00000000
00001000
00000000
00000000
00000010
00000000
00000000
00000001
00000000
00000010
00000000
,
00001000
00010000
00001000
00000100
00000002
00000000
00000000
00000200
,
00000000
00000000
00000000
00000000
00000020
00000000
00000000
00002000
,
00000000
00000000
00000000
00000000
00010000
01000000
00000000
00100000
,
00000000
20000000
00000000
00200000
00000000
00000000
00000000
00000000
,
30303333
00000000
00000000
00000000
00000020
00000000
00000000
00000002
,
00000000
00000000
00000000
00000000
00002000
00000000
00000000
00000200
,
00000000
00000000
00000000
00000000
00010000
00100000
00000000
01000000
,
00000000
20000000
00000000
02000000
00000000
00000000
00000000
00000000
,
00000000
00000000
00000000
33000000
11000000
00003300
00110000
00000000
,
00001133
00000000
00000010
00000001
00000010
00000000
00000200
00000000
00000020
00000000
00000000
00000000
00100000
00000000
01000000
00000000
,
00100000
01000000
00000000
01100000
00000000
00000330
00000000
00000000
,
00000000
00000000
00000100
00000010
00000100
00000000
00002000
00000000
00020000
00000000
00100000
00000000
00000000
00000000
00000010
00000000
,
00000000
10000000
00000000
00000002
00000000
00000000
00033003
00000000
,
00000000
00000000
00001000
00010000
00001000
00000000
02000000
00000000
00200000
00000000
00000000
00000000
00001000
00000000
00010000
00000000
,
00001000
00010000
00000000
00011000
00000000
03300000
00000000
00000000
,
00000000
00000000
01000000
00100000
01000000
00000000
00020000
00000000
20000000
00000000
00100000
00000000
00000000
00000000
00000020
00000000
,
30030000
00010000
01000000
00020000
00000000
01030000
00100000
01000000
,
00000030
00000000
00000000
00000000
00000000
00000000
00000000
00000000
00100000
00000000
00000000
01000000
00000000
00000000
00010000
00000000
,
00100000
00000000
00000000
00001000
00000000
00000000
00000010
00000000
00000000
00000001
00000000
00000000
00000010
00000000
00000100
00000000
,
00010000
00000000
00000010
00000000
00000100
00000000
00001000
00000000
00010000
00000000
00000000
00001000
00000000
00000000
01000000
00000000
,
10000000
00000000
00000000
01000000
00000000
00000000
00100000
00000000
00000000
00010000
00000000
00000000
00001000
00000000
00100000
00000000
,
01000000
00000000
00010000
00000000
00001000
00000000
00100000
00000000
01000000
00000000
00000000
00010000
00000000
00000000
00000100
00000000
,
00000010
00000000
00000000
00000001
00000000
00000000
00001000
00000000
00000000
00000100
00000000
00000000
00010000
00000000
00001000
00000000
,
00000010
00000000
00000100
00000000
00001000
00000000
00000010
00000000
00000100
00000000
00000000
00001000
00000000
00000000
01000000
00000000
,
00010000
00000000
00000000
10000000
00000000
00000000
00100000
00000000
00000000
00010000
00000000
00000000
00001000
00000000
00000100
00000000
,
00000010
00010000
00001000
00000100
00000110
00000000
00000000
00000000
;

//---------------dance-double - Kyzentun----------------
#NOTES:
     dance-double:
     Kyzentun:
     Hard:
     8:
     0.480,0.452,0.114,0.520,0.154,335.000,14.000,64.000,0.000,100.000,0.000,0.000,0.480,0.452,0.114,0.520,0.154,335.000,14.000,64.000,0.000,100.000,0.000,0.000:
00000000
00000000
00000000
00000000
,
00000000
00000000
00000000
00000000
,
00000000
00000000
00000000
00000000
,
00000000
00000000
00011000
00100100
,
01000010
00000000
00000000
00000000
00000000
00000000
00000000
00000000
01000000
00000000
00000000
00000010
00000000
00000000
00010000
00000000
,
00001000
00000000
00000000
00000010
00000000
00000000
00000001
00000000
00000000
00001000
00000000
00000000
00000100
00000000
00010000
00000000
,
00001000
00010000
00100000
01000000
00020000
00000000
01000000
01000000
,
02000000
00000000
00200000
20000000
00000000
00001000
00000000
00001000
,
33330000
00000000
00000000
00000000
00000000
00000000
00000000
00000000
00010000
00000000
00000000
01000000
00000000
00000000
00100000
00000000
,
00010000
00000000
00000000
00001000
00000000
00000000
00000010
00000000
00000000
00000100
00000000
00000000
00001000
00000000
00000100
00000000
,
00000001
00000100
00000010
00000001
00002000
00000000
00000100
00000100
,
00000200
00000000
00000002
00000020
00000000
00010000
00000000
00010000
,
00003333
00000000
00000000
00000000
00000000
00000000
00001000
00000100
,
00001000
00000010
00020000
00002000
00100000
00000000
00100000
00000000
,
00000010
00100000
00033010
00000000
00010000
00000000
00010000
02000000
,
20000000
00000000
00100000
00010000
00200000
00000000
00001000
00000000
,
33301000
00000000
01000000
00000000
01000000
00000000
01000000
10000000
,
00100000
10000000
00020000
02000000
00001000
00000000
00001000
00000000
,
10000000
00100000
13030000
00000000
00010000
00000000
00010000
01000000
,
00000200
00200000
00011000
00011000
,
00311300
00000000
00000000
00000000
00000200
00000000
00010000
00010000
,
00020000
00000000
00000010
00000002
00000000
00001000
00000000
00000010
,
00000300
00030100
00010000
00002000
00020003
00000000
00000010
00100000
,
00033020
00000000
00001000
01000000
00000000
00010000
00000000
02000000
,
00000030
03000000
00000000
00000000
00010000
01000000
00010000
00200000
,
02000000
00000000
00010000
00002000
00000000
00013000
00000000
00001000
,
03000000
01300000
00100000
01000000
20000000
00000000
01000000
01000000
,
02000000
00000000
00200000
00020000
00000000
00001000
00000000
00001000
,
33330000
00000000
10000000
01000000
10000000
00000000
00020000
00000000
02000000
00000000
00000000
00000000
00100000
00000000
10000000
00000000
,
00100000
10000000
00000000
10100000
00000000
03030000
00000000
00000000
,
00000000
00000000
00001000
00010000
00001000
00000000
00020000
00000000
00000200
00000000
00000020
00000000
00000000
00000000
00000001
00000000
,
00000000
00000001
00000000
00000002
00000000
00000000
00030333
00000000
,
00000000
00000000
00010000
00000100
00010000
00000000
00000200
00000000
00002000
00000000
00000000
00000000
00000010
00000000
00000001
00000000
,
00000010
00000001
00000000
00000011
00000000
00003300
00000000
00000000
,
00000000
00000000
00000100
00001000
00000100
00000000
00000010
00000000
00000001
00000000
00000200
00000000
00000000
00000000
00000002
00000000
,
00000000
00001000
00000010
00002000
00000000
00003010
00001000
00000010
,
00000000
00000000
00000303
00000000
00000000
00000000
00000000
00000000
00000100
00000000
00000000
00000001
00000000
00000000
00000100
00000000
,
00001000
00000000
00000000
00010000
00000000
00000000
00100000
00000000
00000000
00010000
00000000
00000000
00001000
00000000
01000000
00000000
,
00010000
00000000
01000000
00000000
00100000
00000000
00010000
00000000
00100000
00000000
00000000
10000000
00000000
00000000
01000000
00000000
,
00100000
00000000
00000000
00001000
00000000
00000000
00010000
00000000
00000000
00000010
00000000
00000000
00001000
00000000
00000001
00000000
,
00000100
00000000
00001000
00000000
00000100
00000000
00000010
00000000
00001000
00000000
00000000
00000001
00000000
00000000
00000010
00000000
,
00000100
00000000
00000000
00010000
00000000
00000000
00001000
00000000
00000000
01000000
00000000
00000000
00010000
00000000
01000000
00000000
,
10000000
00000000
01000000
00000000
00100000
00000000
01000000
00000000
00010000
00000000
00000000
00100000
00000000
00000000
00001000
00000000
,
00010000
00000000
00000000
00000100
00000000
00000000
00000010
00000000
00000000
00000001
00000000
00000000
00000100
00000000
00000010
00000000
,
00001000
00000100
00001000
00000010
00000200
00000000
00000000
00000002
,
00000000
00000000
00000000
00000000
00002000
00000000
00000000
00000020
,
00000000
00000000
00000000
00000000
00010000
00100000
00000000
00010000
,
00000000
00200000
00000000
00020000
00000000
00000000
00000000
00000000
,
00333333
00000000
00000000
00000000
00000200
00000000
00000000
00000002
,
00000000
00000000
00000000
00000000
00002000
00000000
00000000
00000020
,
00000000
00000000
00000000
00000000
00010000
00100000
00000000
00010000
,
00000000
00200000
00000000
00020000
00000000
00000000
00000000
00000000
,
00000000
00000000
00000000
00330000
00110000
00003000
00011000
00000030
,
00001313
00000000
00000100
00000001
00000100
00000000
00000020
00000000
00000200
00000000
00000000
00000000
00001000
00000000
00010000
00000000
,
00001000
00010000
00000000
00011000
00000000
00000330
00000000
00000000
,
00000000
00000000
00000010
00000100
00000010
00000000
00002000
00000000
00000002
00000000
00000010
00000000
00000000
00000000
00010000
00000000
,
00000000
00000010
00000000
00020000
00000000
00000000
00033003
00000000
,
00000000
00000000
00001000
00000100
00001000
00000000
00000200
00000000
02000000
00000000
00000000
00000000
00001000
00000000
00010000
00000000
,
00001000
00010000
00000000
00011000
00000000
03000300
00000000
00000000
,
00000000
00000000
00000100
01000000
00000100
00000000
01000000
00000000
00001000
00000000
20000000
00000000
00000000
00000000
00020000
00000000
,
00000000
00100000
00001000
00200000
00000000
00301000
00100000
00001000
,
00000000
00000000
30030000
00000000
00000000
00000000
00000000
00000000
10000000
00000000
00000000
00100000
00000000
00000000
00010000
00000000
,
00100000
00000000
00000000
01000000
00000000
00000000
00001000
00000000
00000000
00010000
00000000
00000000
00000100
00000000
00000010
00000000
,
00001000
00000000
00000010
00000000
00000100
00000000
00001000
00000000
00000010
00000000
00000000
00000100
00000000
00000000
00001000
00000000
,
00010000
00000000
00000000
00100000
00000000
00000000
01000000
00000000
00000000
00010000
00000000
00000000
10000000
00000000
01000000
00000000
,
00100000
00000000
10000000
00000000
00100000
00000000
00010000
00000000
10000000
00000000
00000000
01000000
00000000
00000000
00010000
00000000
,
00001000
00000000
00000000
00000010
00000000
00000000
00000100
00000000
00000000
00001000
00000000
00000000
00000001
00000000
00000100
00000000
,
00000010
00000000
00000100
00000000
00001000
00000000
00010000
00000000
00001000
00000000
00000000
00100000
00000000
00000000
01000000
00000000
,
00010000
00000000
00000000
01000000
00000000
00000000
00100000
00000000
00000000
00010000
00000000
00000000
10000000
00000000
00100000
00000000
,
00010000
00001000
00000100
00000010
00000110
00000000
00000000
00000000
;

//---------------dance-double - Kyzentun----------------
#NOTES:
     dance-double:
     Kyzentun:
     Medium:
     6:
     0.431,0.452,0.089,0.366,0.000,315.000,11.000,45.000,0.000,12.000,0.000,0.000,0.431,0.452,0.089,0.366,0.000,315.000,11.000,45.000,0.000,12.000,0.000,0.000: // measure 1
00000000
00000000
00000000
00000000
,  // measure 2
00000000
00000000
00000000
00000000
,  // measure 3
00000000
00000000
00000000
00000000
,  // measure 4
00000000
00000000
00011000
00110000
,  // measure 5
10100000
00000000
00000000
00000000
00100000
00000000
10000000
00010000
,  // measure 6
01000000
00000000
00001000
00010000
00001000
00000000
00100000
00001000
,  // measure 7
00010000
00000010
00001000
00000010
00002000
00000000
00003001
00000001
,  // measure 8
00000002
00000000
00000023
00000200
00000000
00000001
00000000
00000001
,  // measure 9
00000330
00000000
00000000
00000000
00000010
00000000
00000100
00001000
,  // measure 10
00000100
00000000
00010000
00001000
00100000
00000000
00001000
00010000
,  // measure 11
00001000
01000000
00010000
01000000
00200000
00000000
10300000
10000000
,  // measure 12
20000000
00000000
30020000
02000000
00000000
00100000
00000000
00100000
,  // measure 13
03030000
00000000
00000000
00000000
00000000
00000000
00010000
10000000
,  // measure 14
00010000
00100000
00001000
00010000
00000010
00000000
00000010
00000000
,  // measure 15
00001000
00000100
00001000
00000000
00000000
00000000
00000100
00010000
,  // measure 16
00002000
00000000
01003000
00010000
20000000
00000000
00020000
00000000
,  // measure 17
30130000
00000000
00000000
00000000
00000000
00000000
10000000
00100000
,  // measure 18
10000000
00100000
01000000
00010000
01000000
00000000
00001000
00000000
,  // measure 19
00010000
00000100
00010000
00000000
00000000
00000000
00000001
00000010
,  // measure 20
00000200
00020300
00030200
00002000
,  // measure 21
00003310
00000000
00000000
00000000
00000200
00000000
00010000
00010000
,  // measure 22
00020300
00000000
00031000
00002000
00000000
00103000
00000000
00100000
,  // measure 23
00000000
00100000
00010000
10000000
00020000
00000000
01030000
00100000
,  // measure 24
02000000
00000000
03020000
20000000
00000000
00100000
00000000
00100000
,  // measure 25
30030000
00000000
00000000
00000000
00010000
00100000
00001000
00100000
,  // measure 26
00002000
00000000
00013000
00000010
00000000
00000100
00000000
00001000
,  // measure 27
00000000
00000100
00000010
00000100
00000002
00000000
00000013
00000010
,  // measure 28
00000020
00000000
00000230
00002000
00000000
00000010
00000000
00000010
,  // measure 29
00003300
00000000
00000100
00010000
00000010
00000000
00010000
00001000
,  // measure 30
00010000
00001000
00000000
01010000
00000000
00000000
00000000
00000000
,  // measure 31
00000000
00000000
01000000
00001000
00100000
00010000
00000000
00100000
,  // measure 32
00000000
00001000
00000000
00020000
00000000
00000000
00030000
00000000
,  // measure 33
00000000
00000000
00000010
00010000
00000100
00000000
00010000
00001000
,  // measure 34
00010000
00001000
00000000
00110000
00000000
00000000
00000000
00000000
,  // measure 35
00000000
00000000
00100000
00001000
01000000
00010000
00000000
10000000
,  // measure 36
00000000
00001000
00100000
00002000
00000000
01003000
00001000
01000000
,  // measure 37
00000000
00000000
00000000
00000000
00001000
00000000
00010000
00000100
,  // measure 38
00010000
00000000
00000100
00000010
00000100
00000000
00001000
00000001
,  // measure 39
00000100
00000001
00000100
00000010
00000100
00000000
00000010
00001000
,  // measure 40
00000010
00000000
00010000
00001000
00010000
00000000
00001000
00100000
,  // measure 41
00010000
00100000
00010000
10000000
00100000
00000000
01000000
00100000
,  // measure 42
01000000
00000000
00010000
00100000
00010000
00000000
00100000
00001000
,  // measure 43
00010000
00001000
00010000
00000010
00001000
00000000
00000001
00000100
,  // measure 44
00000001
00000000
00001000
00000010
00001000
00000000
00000100
00010000
,  // measure 45
00000100
00010000
00001000
01000000
00020000
00000000
00000000
20030000
,  // measure 46
00000000
00000000
00000000
00000000
32000000
00000000
00000000
03020000
,  // measure 47
00000000
00000000
00000000
00000000
00031000
00000100
00000000
00000002
,  // measure 48
00000000
00002000
00000000
00000020
00000000
00000000
00000000
00000000
,  // measure 49
00003033
00000000
00000000
00000000
00000002
00000000
00000000
00000023
,  // measure 50
00000000
00000000
00000000
00000000
00002030
00000000
00000000
00023000
,  // measure 51
00000000
00000000
00000000
00000000
00130000
10000000
00000000
00020000
,  // measure 52
00000000
02000000
00000000
00200000
00000000
00000000
00000000
00000000
,  // measure 53
03330000
00000000
01010000
10010000
,  // measure 54
00101000
00000000
00100000
00001000
01000000
00000000
00001000
00010000
,  // measure 55
00001000
00010000
00000000
00001100
00000000
00000000
00000000
00000000
,  // measure 56
00000000
00000000
00000100
00010000
00000010
00010000
00000000
00001000
,  // measure 57
00000000
01000000
00000000
00020000
00000000
00000000
00030000
00000000
,  // measure 58
00000000
00000000
01000000
00001000
00100000
00000000
00001000
00010000
,  // measure 59
00001000
00010000
00000000
00001010
00000000
00000000
00000000
00000000
,  // measure 60
00000000
00000000
00000010
00010000
00000100
00010000
00000000
00000100
,  // measure 61
00000000
00000010
00000001
00000020
00000000
00000031
00000100
00000001
,  // measure 62
00000000
00000000
00000000
00000000
00000100
00000000
00000010
00010000
,  // measure 63
00000010
00000000
00100000
00001000
00100000
00000000
00010000
10000000
,  // measure 64
00010000
10000000
01000000
00100000
01000000
00000000
10000000
00010000
,  // measure 65
10000000
00000000
00100000
01000000
00100000
00000000
01000000
00010000
,  // measure 66
01000000
00001000
00010000
00000100
00010000
00000000
00000100
00000010
,  // measure 67
00000100
00000000
00001000
00000010
00001000
00000000
00000001
00000100
,  // measure 68
00000010
00000100
00000010
00001000
00000100
00000000
00010000
00001000
,  // measure 69
00010000
00000000
00001000
00100000
00001000
00000000
10000000
00100000
,  // measure 70
10000000
01000000
00100000
00010000
00110000
00000000
00000000
00000000
;

//---------------dance-double - Kyzentun----------------
#NOTES:
     dance-double:
     Kyzentun:
     Easy:
     4:
     0.263,0.254,0.089,0.179,0.000,193.000,11.000,22.000,0.000,6.000,0.000,0.000,0.263,0.254,0.089,0.179,0.000,193.000,11.000,22.000,0.000,6.000,0.000,0.000: // measure 1
00000000
00000000
00000000
00000000
,  // measure 2
00000000
00000000
00000000
00000000
,  // measure 3
00000000
00000000
00000000
00000000
,  // measure 4
00000000
00000000
00011000
00011000
,  // measure 5
00011000
00000000
00001000
00010000
,  // measure 6
00001000
01000000
00001000
00100000
,  // measure 7
00010000
10000000
00100000
00000000
,  // measure 8
02000000
00000000
00020000
00000000
,  // measure 9
03030000
00000000
01000000
00010000
,  // measure 10
01000000
00001000
00010000
00000100
,  // measure 11
00001000
00000001
00001000
00000000
,  // measure 12
00000020
00000000
00000200
00000000
,  // measure 13
00000330
00000000
00000000
00000010
,  // measure 14
00000100
00000010
00010000
00001000
,  // measure 15
00010000
00001000
00000000
00100000
,  // measure 16
00001000
00100000
00020000
20000000
,  // measure 17
30130000
00000000
00000000
00010000
,  // measure 18
10000000
01000000
00100000
00001000
,  // measure 19
00010000
00001000
00000000
00010000
,  // measure 20
00000010
00001000
00000002
00002000
,  // measure 21
00003013
00000000
00000001
00000100
,  // measure 22
00000001
00000010
00000000
00000100
,  // measure 23
00000000
00010000
00001000
01000000
,  // measure 24
00020000
00000000
20000000
00000000
,  // measure 25
30030000
00000000
00010000
00100000
,  // measure 26
00001000
00010000
00000000
00000100
,  // measure 27
00000000
00000010
00000001
00000010
,  // measure 28
00000002
00000000
00002000
00000000
,  // measure 29
00003003
00000001
00000010
00001000
,  // measure 30
00010000
00000000
01010000
00000000
,  // measure 31
00000000
00010000
00100000
10000000
,  // measure 32
00100000
02000000
00000000
03000000
,  // measure 33
00000000
10000000
01000000
00010000
,  // measure 34
00001000
00000000
00001010
00000000
,  // measure 35
00000000
00001000
00000100
00000001
,  // measure 36
00000100
00000010
00000001
00001000
,  // measure 37
00000010
00000000
00001000
00000100
,  // measure 38
00001000
00000010
00010000
00001000
,  // measure 39
00100000
00001000
01000000
00010000
,  // measure 40
10000000
00010000
10000000
00100000
,  // measure 41
01000000
00001000
00010000
00000010
,  // measure 42
00001000
00000001
00000010
00000001
,  // measure 43
00000010
00000001
00001000
00000010
,  // measure 44
00000100
00000010
00000100
00000010
,  // measure 45
00010000
00001000
02000000
00000000
,  // measure 46
00020000
00000000
00200000
00000000
,  // measure 47
20000000
00000000
00000000
00000000
,  // measure 48
00000000
00000000
00000000
00000000
,  // measure 49
33330000
00000000
20000000
00000000
,  // measure 50
02000000
00000000
00200000
00000000
,  // measure 51
00020000
00000000
00000000
00000000
,  // measure 52
00000000
00000000
00000000
00000000
,  // measure 53
33330000
00000000
11000000
11000000
,  // measure 54
11000000
10000000
01000000
00010000
,  // measure 55
00001000
00000000
00001100
00000000
,  // measure 56
00000000
00001000
00000010
00000001
,  // measure 57
00000010
00000200
00000000
00000300
,  // measure 58
00000000
00000001
00000100
00001000
,  // measure 59
00010000
00000000
01010000
00000000
,  // measure 60
00000000
00010000
00100000
10000000
,  // measure 61
00100000
00010000
10000000
00100000
,  // measure 62
01000000
00000000
00001000
00010000
,  // measure 63
00000100
00010000
00000100
00001000
,  // measure 64
00000001
00000010
00000100
00001000
,  // measure 65
00000010
00001000
00000010
00010000
,  // measure 66
00001000
00100000
00010000
10000000
,  // measure 67
00100000
10000000
00100000
10000000
,  // measure 68
00010000
01000000
00001000
00010000
,  // measure 69
00000100
00010000
00000100
00001000
,  // measure 70
00000010
00000100
00000101
00000000
;
