#TITLE:Black UFO;
#SUBTITLE:(The Factory Team Eurobeat Revenge);
#ARTIST:Lupin;
#TITLETRANSLIT:;
#SUBTITLETRANSLIT:;
#ARTISTTRANSLIT:;
#CREDIT:;
#BANNER:Black UFO-bn.png;
#BACKGROUND:Black UFO-bg.png;
#LYRICSPATH:;
#CDTITLE:;
#MUSIC:Black UFO.mp3;
#OFFSET:-5.970;
#SAMPLESTART:5.967;
#SAMPLELENGTH:12.000;
#SELECTABLE:YES;
#BPMS:0.000=162.000;
#STOPS:;
#BGCHANGES:;

//---------------dance-single - ----------------
#NOTES:
     dance-single:
     :
     Challenge:
     12:
     0.900,1.000,0.531,0.435,0.662: // measure 1
1000
0100
1000
0000
0001
0010
0001
1000
0001
0010
0001
0000
1000
0100
0010
0001
,  // measure 2
0010
0100
0010
0000
0001
0100
0010
1000
0010
0100
0001
0010
0001
0010
0100
1000
,  // measure 3
0001
0010
0001
0010
0100
1000
0100
1000
0010
1000
0010
1000
0001
0100
0001
0100
,  // measure 4
0001
0100
0010
1000
0010
0100
0001
0100
0010
1000
0001
1000
0010
1000
0010
0100
,  // measure 5
0001
1000
0001
0000
0001
0010
0001
0010
0100
1000
0100
0000
0010
0001
0100
0010
,  // measure 6
1000
0010
0100
0000
0001
0010
0001
0010
0001
1000
0001
1000
0001
1000
0100
0010
,  // measure 7
0100
1000
0001
1000
0001
1000
0001
1000
0100
0010
0100
1000
0001
1000
0100
1000
,  // measure 8
0001
0000
0000
0100
0000
0000
0001
0000
0000
1000
0000
0000
0100
0000
0000
1000
0000
0000
0100
0000
0000
0010
0000
0000
0001
0000
1000
0000
0001
0000
1000
0000
0001
0000
1000
0000
0001
0000
1000
0000
0001
0000
1000
0000
0001
0000
1000
0000
,  // measure 9
0001
1000
0010
0100
0001
10M0
0001
01M0
,  // measure 10
0001
1000
0001
0100
0010
1000
0010
0100
,  // measure 11
0010
1000
0010
1000
0010
1010
0010
0110
,  // measure 12
0001
0010
0100
1000
0010
0100
0001
0100
,  // measure 13
0001
1000
0010
1000
0100
0020
0031
0020
,  // measure 14
0031
0010
0100
0010
1000
0100
0010
0001
,  // measure 15
0101
0001
1000
0100
1000
0100
1000
0001
,  // measure 16
0101
0000
0100
0000
0110
0000
0000
1000
0010
0000
0100
0000
0101
0000
0000
0000
,  // measure 17
1001
1000
0001
1000
0000
0020
0000
0230
,  // measure 18
0000
0301
0100
0001
1000
0001
0100
0001
,  // measure 19
1000
0100
0001
0100
0000
2200
3300
0022
,  // measure 20
0033
0010
1000
0010
0100
0010
1000
0010
,  // measure 21
1010
0010
1000
0001
0000
0002
0000
2003
,  // measure 22
0000
3001
0010
0001
0010
0001
0010
0001
,  // measure 23
0011
0110
1100
1010
,  // measure 24
0001
0010
0001
0010
0100
0010
0001
0010
0100
0010
0100
1000
0100
0010
0100
0010
,  // measure 25
0001
0010
0100
1000
0200
1300
0010
2000
,  // measure 26
3001
0020
0230
2300
3100
0010
0001
0010
,  // measure 27
0100
0000
0000
1000
0000
0000
0100
0000
0010
0000
0000
0100
0000
0000
0010
0000
,  // measure 28
0001
0000
0100
0000
0010
0000
0100
1000
,  // measure 29
0012
0000
0000
0000
2000
0000
0000
0010
,  // measure 30
3003
0000
0000
0000
0000
0000
1000
0000
0001
0000
0000
0001
0000
0000
0001
0000
,  // measure 31
0202
0000
0000
0000
0000
0010
0010
0313
,  // measure 32
M000
M000
0000
0101
0000
1010
1000
0001
,  // measure 33
2001
0000
0000
0010
3000
0000
0000
0001
,  // measure 34
0100
1000
0100
0002
0000
0000
1003
1000
,  // measure 35
1001
0000
0001
0101
0000
0001
1000
0001
,  // measure 36
0100
0010
1000
0000
0001
0001
0001
0010
,  // measure 37
2002
0000
0000
0010
3003
0000
1001
0001
,  // measure 38
0100
0001
1000
0020
0000
0000
1000
1030
,  // measure 39
1010
0000
0010
1010
0000
0001
1000
0001
,  // measure 40
0100
0000
0100
0000
0010
1000
0010
1000
0001
0100
0001
0100
0001
0000
0010
0000
,  // measure 41
2200
0000
0000
0010
3300
0000
1100
1000
,  // measure 42
0001
0100
0001
2002
0000
0000
3MM3
0000
,  // measure 43
0011
0000
1000
1100
0000
0001
0010
0100
,  // measure 44
1000
0100
0001
0000
0101
0100
0001
1000
,  // measure 45
2002
0000
0000
0010
3003
0000
0011
0001
,  // measure 46
0100
0001
1000
0002
0000
0000
1000
1003
,  // measure 47
1000
0010
1000
0010
0100
0001
0100
0001
1000
0010
1000
0010
1000
0100
0010
0001
,  // measure 48
1001
1001
1001
0011
0000
0100
0100
0100
,  // measure 49
2200
0001
0010
3301
,  // measure 50
0202
0010
1000
0313
,  // measure 51
0220
0000
1000
1000
1000
1330
0000
M00M
,  // measure 52
0000
1000
0001
1000
0010
0010
0100
0100
,  // measure 53
0110
0000
0000
0000
0100
0000
0001
0000
1000
0000
0001
0000
0000
0000
1000
0100
,  // measure 54
1000
0000
0010
0000
0100
0000
0001
0100
0010
0000
0010
0000
1000
0100
1000
0100
,  // measure 55
0010
0100
0010
0100
0001
0100
0001
0100
0010
0100
0010
0100
1000
0010
1000
0010
,  // measure 56
2020
3030
2002
3003
0022
0033
1001
1000
,  // measure 57
2002
0000
0000
3013
0000
0000
0101
0001
,  // measure 58
0100
0001
0002
0200
0000
0000
1000
1000
,  // measure 59
1313
0000
M000
00M0
0000
0100
0001
0100
,  // measure 60
0001
1000
0001
0000
1001
0001
1000
0001
,  // measure 61
0202
0000
0000
0010
0303
00M0
M000
0001
,  // measure 62
1000
0001
0100
0020
0000
0000
0130
0001
,  // measure 63
0101
0000
0001
1001
0000
0001
1000
0001
,  // measure 64
0101
0110
1010
1001
0000
0011
0011
0011
,  // measure 65
0001
1000
0001
0000
1000
0100
1000
0100
1000
0100
1000
0000
0001
1000
0001
0100
,  // measure 66
0010
0100
0010
0000
0010
0100
0010
0100
0010
0100
0010
0100
0010
0100
0010
1000
,  // measure 67
0100
1000
0100
0010
0001
0010
0001
1000
0001
1000
0001
1000
0100
0010
0001
0010
,  // measure 68
0100
1000
0100
0010
0001
0010
0100
1000
0100
0010
0001
1000
0100
0010
0001
1000
,  // measure 69
0100
0010
0001
0000
0001
0100
0001
1000
0100
1000
0001
0000
0100
0001
0010
0100
,  // measure 70
1000
0001
1000
0000
0001
0010
0100
1000
0100
0010
0001
0010
0100
1000
0100
0010
,  // measure 71
0001
0100
0010
1000
0010
0100
0001
0100
0010
0100
0001
0010
0100
1000
0100
0010
,  // measure 72
0001
0010
0100
1000
0010
1000
0001
1000
0001
0000
1001
0000
0110
0000
0000
0000
;

//---------------dance-single - ----------------
#NOTES:
     dance-single:
     :
     Hard:
     9:
     0.687,0.752,0.305,0.244,0.174:
1000
0100
1000
0100
0010
0100
1000
0100
,
0010
0000
0001
0000
0010
0000
0100
0000
1000
0010
1000
0000
0001
0100
0001
0000
,
0010
0100
1000
0100
0010
0100
0010
0001
,
0010
0001
1000
0001
0100
0001
1000
0001
,
1000
0000
0100
0000
1000
0100
1000
0000
0100
0000
0010
0000
0001
1000
0001
0000
,
1000
0000
0001
0000
1000
0100
1000
0000
0100
0010
0100
0000
0010
0001
0010
0000
,
0001
0001
0100
0100
0010
0010
1000
1000
,
0001
0010
0001
0000
1000
0100
1000
0000
2002
0000
0000
0000
3003
0000
0000
0000
,
1001
0001
0010
0100
0000
0010
0000
0010
,
0001
0100
1000
0100
0010
1000
0100
0001
,
0100
0010
0001
0010
0000
0010
0000
0010
,
0000
0100
1000
0100
1000
0001
0010
0001
,
0010
0100
0010
0100
0000
2000
0000
3002
,
0000
0103
0010
1000
0100
0010
0001
0000
,
1001
1100
0110
0011
,
0001
0000
0001
0000
0001
0000
0000
1000
0100
0000
0010
0000
0001
0000
0000
0000
,
1001
0001
1000
0001
0000
0200
0000
0320
,
0000
1030
0100
0010
0001
0100
0001
0100
,
1000
0100
0001
0100
0010
1000
0010
1000
,
0010
0001
0100
0010
1000
0010
0100
0001
,
0100
1000
0100
0010
0000
1000
0000
1000
,
0000
0100
0010
0001
0100
0010
1000
0200
,
1000
0000
0000
0000
1000
0000
0000
0000
0010
0000
0000
0000
0310
0000
0000
0001
,
0010
0000
0100
0000
1000
0010
1000
0000
0001
0100
0001
0000
1000
0100
1000
0000
,
2200
0000
3300
0000
0210
0000
0000
0310
,
0000
0001
0001
2000
0000
0000
0001
0001
,
3001
0000
0000
1000
0000
0000
0010
0000
1000
0000
0000
0001
0000
0000
0100
0000
,
0010
0000
1000
0000
0001
0010
0001
0010
,
0022
0000
0030
0000
1000
0000
0000
0103
,
0000
0000
0000
0000
0000
0000
0010
0000
1000
0000
0000
0001
0000
0000
1000
0000
,
2001
0000
0000
0000
0000
3001
0100
0001
,
0100
0100
0000
0010
0000
0100
0100
0000
,
1001
1000
0100
1000
0100
0010
0011
0001
,
1000
0010
1000
0010
0100
0001
0100
0001
,
0010
0000
0010
0002
0000
0000
1003
0100
,
1000
0100
0010
0000
0010
0100
0010
0001
,
2001
0000
0000
3010
0000
0100
0101
0000
,
0001
0010
0100
1000
0000
0000
0001
0001
,
0012
0000
1003
0200
0000
0310
0001
0100
,
0010
0000
0010
0000
0010
0000
1000
0000
0001
0000
0001
0010
0001
0000
0010
0001
,
0010
0100
1000
0010
0100
0001
0100
0010
,
1000
0100
0010
0100
0010
0100
1000
1000
,
1100
0000
1000
1010
0000
0000
1000
0010
,
1000
0001
0010
0000
0100
1000
0010
1000
,
2010
0000
0000
3001
0000
0001
0011
0000
,
0001
1000
0001
2000
0000
0000
3001
0001
,
0011
0000
0001
0020
0000
0130
1000
0010
,
0100
0100
0100
0100
0000
0001
0001
0001
,
1001
0100
0010
0000
0001
0100
0010
0000
,
1000
0100
0010
0000
0002
0000
1000
0000
,
0100
0010
0100
1000
,
0103
1000
0100
0010
0001
0010
0001
0010
,
0011
0000
0000
0000
0001
0000
1000
0000
0100
0000
1000
0000
0000
0000
0001
0010
,
0001
0000
0100
0000
0010
0000
1000
0010
1000
0000
0010
0000
0100
0000
0001
0000
,
0101
0100
1001
0010
,
0011
0000
0110
0000
1100
0000
1001
1000
,
0200
0000
0000
0310
0000
0000
1001
0000
,
0001
0100
0010
2000
0000
0000
0000
0000
,
3100
0000
0100
0020
0000
0031
0100
0010
,
1000
0100
0010
0000
0001
0010
0100
1000
,
2100
0000
0000
3001
0000
0000
1000
0100
,
0010
0001
0100
0010
0000
0000
1000
1000
,
1100
0000
0100
1000
0000
0001
1000
0100
,
0010
0010
0010
0010
0000
0001
0001
0001
,
1000
0001
1000
0000
0100
0000
0010
0000
0001
0100
0001
0000
0010
0000
0100
0000
,
1000
0010
1000
0000
0100
0000
0010
0000
0001
0100
0001
0000
1000
0010
1000
0000
,
0001
0100
0001
0000
1000
0010
1000
0000
0001
1000
0001
0000
1000
0010
1000
0000
,
0001
0100
0001
0000
1000
0010
1000
0000
0001
0000
0001
0000
0010
0000
0010
0000
,
1001
0000
0000
0000
1000
0010
1000
0010
1000
0000
0000
0000
0001
0010
0001
0010
,
0001
0000
0000
0000
1000
0100
1000
0000
0001
0010
0001
0000
1000
0010
0100
0000
,
0001
0100
0010
0000
1000
0000
0100
0000
0010
0000
0001
0000
0100
0000
0001
0000
,
0100
0010
0100
0001
0010
0011
2002
0000
,
3003
0000
0000
0000
;

//---------------dance-single - ----------------
#NOTES:
     dance-single:
     :
     Medium:
     7:
     0.566,0.534,0.244,0.340,0.013:
1000
0100
1000
0000
0001
0100
0001
0000
,
1000
0100
1000
0000
0010
1000
0010
1000
,
0001
0100
0001
0100
0010
1000
0010
1000
,
0001
0010
0001
0010
0100
1000
0100
0010
,
0001
0000
1000
0100
1000
0000
0001
0100
,
0001
0000
1000
0100
1000
0100
0010
0001
,
1000
0001
0100
0001
1000
0001
0010
1000
,
0010
0001
1000
0002
2000
0000
3003
0000
,
2001
0000
0000
3001
0000
0020
0000
0230
,
0000
0301
0010
1000
,
0010
0000
0001
1000
0000
0110
0000
0100
,
0000
0011
0001
1000
,
0001
0100
0001
0100
0000
0020
0000
2030
,
0000
3001
0010
0001
0010
0001
0010
0000
,
1001
1100
0110
0011
,
0001
0001
0001
0000
0100
0100
0100
0000
,
0010
1000
0010
0100
0000
0002
0000
0023
,
0000
0130
1000
0000
0100
0000
0001
0000
,
0100
1000
0100
0010
0000
0020
0000
0032
,
0000
0103
0010
0000
1000
0000
0001
0100
,
0100
0010
0010
1000
0000
0010
0000
0100
,
0000
0001
0010
0100
1000
0100
0001
0100
,
1000
1000
0010
0100
,
0001
0010
0100
1000
0100
0010
0001
0000
,
0022
0000
0033
0000
0200
0000
0000
0301
,
0000
1000
0100
2000
0000
0000
0001
0001
,
3001
0000
0000
1000
0000
0000
0010
0000
1000
0000
0000
0001
0000
0000
0100
0000
,
0010
0000
1000
0000
0001
0010
0001
0010
,
0002
0000
0000
0000
1000
0000
0000
0103
,
0000
0000
0000
0000
0000
0000
0010
0000
1000
0000
0000
0001
0000
0000
1000
0000
,
2000
0000
0000
0000
0000
3001
0100
0001
,
0100
0100
0000
0010
0000
0100
0100
0000
,
1002
0000
0000
1003
0000
0000
1100
0000
,
1000
0010
1000
0010
0000
0000
0000
0000
,
0100
0000
0010
0002
0000
0000
1003
0100
,
1000
0100
0010
0000
0010
0100
0010
0001
,
2000
0000
0000
3010
0000
0000
1010
0000
,
1000
0010
0100
0100
0000
0000
0001
0010
,
0002
0000
1003
0200
0000
0310
0001
0100
,
0010
1000
0010
1000
0001
0001
0010
0001
,
0020
0000
0000
1030
0000
0000
1010
0000
,
0001
0100
1000
0001
0000
0000
0100
1000
,
0100
0000
0010
0001
0000
0000
1000
0010
,
1000
0001
0010
0000
0100
1000
0010
1000
,
0020
0000
0000
0100
0000
0000
0130
0000
,
0001
1000
0001
2000
0000
0000
3010
0100
,
0001
0000
0001
0020
0000
0130
1000
0010
,
0100
0001
0100
0001
0000
0010
0010
0001
,
2001
3010
0200
0301
,
2000
3010
0002
1003
,
0200
0310
2000
3001
,
2000
0100
0001
3010
,
0011
0000
0001
1000
0100
1000
0000
0001
,
0001
0100
0010
1000
1000
0010
0100
0000
,
0101
0100
1001
0010
,
0011
0110
1100
1001
,
0200
0000
0000
0310
0000
0000
1001
0000
,
0001
0100
0010
2000
0000
0000
0000
0000
,
3100
0000
0100
0020
0000
0031
0100
0010
,
1000
0100
0010
0000
0001
0010
0100
1000
,
0200
0000
0000
0301
0000
0000
0100
1000
,
0100
0010
0001
0010
0000
0000
1000
0100
,
1000
0000
0100
1000
0000
0001
1000
0100
,
0010
0001
0010
0001
0000
1000
0001
1000
,
0001
0101
0001
0011
,
0001
0000
0011
0000
0001
1000
0001
1000
,
0100
0010
0100
0010
0001
0010
0001
0010
,
0100
0010
0100
0010
0001
0010
0001
0000
,
0011
1100
0100
0110
,
0001
0000
0011
0000
0100
1000
0100
0010
,
0100
0010
0001
0100
0010
0010
1000
1000
,
0100
0010
0100
0001
0010
0000
0002
2000
,
0000
3003
0000
0000
0000
0000
0000
0000
;

//---------------dance-single - ----------------
#NOTES:
     dance-single:
     :
     Easy:
     5:
     0.308,0.344,0.200,0.078,0.000:
1001
0001
1000
0100
,
0010
0001
0100
0010
,
1000
0010
1000
0001
,
0010
0100
1000
0010
,
0100
0001
1000
0001
,
0010
0100
1000
0001
,
0100
0010
1000
0001
,
1000
0000
0220
0330
,
1001
0000
0000
0000
,
0000
0001
1000
0100
,
0010
0000
0000
0001
0000
0000
0000
0000
,
0000
1000
0010
0100
,
0001
0000
0000
1000
0000
0100
0000
0100
,
0000
0010
0001
0000
,
1001
0000
0110
0000
,
0100
0100
0010
0010
,
1001
0000
0000
0100
0000
0100
0000
0100
,
0000
1000
0100
0010
,
0001
0000
0000
0100
0000
0010
0000
0010
,
0000
1000
0001
0100
,
0001
0000
0000
1000
0000
0100
0000
0100
,
0000
0010
0001
0000
,
1000
0000
0001
0000
,
2000
0000
0000
3000
,
1001
0000
0000
0000
0100
0000
0000
0100
,
0000
0000
0000
0001
,
1000
0000
0100
0000
,
0010
0010
0000
0000
,
0001
0000
0000
0000
1000
0000
0000
0001
,
0000
0000
1000
0000
,
0001
0000
0000
0000
,
2000
0000
0000
0002
0000
0000
3003
0000
,
1001
0000
0000
0110
,
0001
0000
0000
1000
0000
0000
0000
0000
,
0001
0000
0000
1000
0000
0000
0100
0000
,
0010
0100
0010
0000
0001
0000
0000
0000
,
1100
0000
0000
1000
0000
0000
1001
0000
,
0001
0000
0000
1000
0000
0000
0000
0000
,
0100
0000
0000
0010
0000
0000
0001
0000
,
1000
0100
1000
0000
0001
0000
0010
0000
,
0110
0000
0000
0001
0000
0000
1001
0000
,
0100
0000
0000
0010
0000
0000
0000
0000
,
0001
0000
0000
0100
0000
0000
0010
0000
,
1000
0001
1000
0001
,
1001
0000
0000
0100
0000
0000
0110
0000
,
0001
0000
0000
1000
0000
0000
0000
0000
,
0110
0000
0000
0001
0000
0000
1000
0000
,
0100
0010
0100
0000
0001
0000
0010
0000
,
0020
0000
0031
0000
,
0200
0000
2300
0000
,
0000
0000
0000
0000
,
0001
0001
0001
3001
,
1001
0000
0000
0000
,
0100
0010
0100
0010
,
1001
0000
0110
0000
,
0001
1000
0001
1000
,
1001
0000
0000
0100
0000
0000
0110
0000
,
0001
0000
0000
1000
0000
0000
0001
0000
,
1000
0000
0000
0100
0000
0000
0010
0000
,
0001
0010
0001
0000
1000
0000
0100
0000
,
0110
0000
0000
0001
0000
0000
1001
0000
,
0100
0000
0000
0010
0000
0000
0000
0000
,
0001
0000
0000
1000
0000
0000
0100
0000
,
0010
0100
0010
0000
0001
0000
0000
0000
,
1000
0000
0100
0010
0100
0000
0010
0001
,
0010
0100
0100
1000
,
0010
0100
0001
1000
,
0001
0000
0010
0000
,
0001
0000
0010
0100
0010
0000
0001
1000
,
0001
0010
0010
0001
,
0100
0001
1000
0001
,
0200
0000
0000
0000
0000
0001
0301
0000
;

//---------------dance-double - ----------------
#NOTES:
     dance-double:
     :
     Hard:
     9:
     0.634,0.627,0.270,0.244,0.057:
00010000
00001000
00100000
00001000
00100000
00010000
01000000
00100000
,
10000000
00100000
10000000
00010000
01000000
00001000
00100000
00001000
,
00010000
00000100
00001000
00000001
00000100
00000010
00001000
00000010
,
00001000
00000010
00000100
00000001
00001000
00000100
00000010
00000001
,
00001000
00000100
00001000
00000100
00010000
00001000
00100000
00010000
,
01000000
00010000
10000000
01000000
00010000
01000000
10000000
00100000
,
01000000
11000000
00010000
00010000
10000000
10000000
00100000
00100000
,
01000000
01000000
00010000
10000000
20020000
00000000
30030000
00000000
,
00110000
00100000
00010000
00100000
00000000
00001000
00000000
00010000
,
00001000
01000000
00100000
10000000
01000000
00010000
00001000
00000010
,
00000001
00001000
00000100
00010000
00000000
00011000
00000000
00001000
,
00000000
00100000
00001000
00100000
00010000
01000000
00010000
00100000
,
00001000
00000000
00000000
00000000
00000000
20000000
00000000
30020000
,
00000000
01030000
00100000
10000000
01000000
00100000
00010000
00000000
,
10010000
11000000
01100000
00110000
,
00100000
00001000
00100000
00000000
00010000
00001000
00010000
00000000
,
00011000
00001000
01000000
00010000
00000000
02000000
00000000
03200000
,
00000000
10300000
00100000
01000000
00010000
01000000
00001000
00010000
,
00000100
00000010
00001000
00000001
00001000
00000001
00000100
00000010
,
00001000
00000100
00000001
00000100
00000010
00000001
00000100
00001000
,
00000100
00000010
00001000
00000100
00000010
00001000
00000000
00000100
,
00000000
00100000
00001000
00010000
00001000
00100000
00001000
00020000
,
00000100
00000000
00000000
00000000
00000100
00000000
00000000
00000000
00031000
00000000
00000000
00000000
00010000
00000000
00000000
00010000
,
00001000
01000000
00100000
00100000
10000000
10000000
00010000
00010000
,
20020000
00000000
30030000
00000000
02001000
00000000
00000000
03100000
,
00000000
00010000
00010000
00200000
00000000
00000000
01000000
01000000
,
01300000
00000000
00000000
10000000
00000000
00000000
00100000
00000000
00010000
00000000
00000000
00001000
00000000
00000000
00000010
00000000
,
00000001
00000000
00001000
00000000
00000100
00100000
00010000
00100000
,
00220000
00000000
00300000
00000000
01000000
00000000
00000000
01030000
,
00000000
00000000
00000000
00000000
00000000
00000000
00100000
00000000
10000000
00000000
00000000
00010000
00000000
00000000
10000000
00000000
,
20010000
00000000
00000000
00000000
00000000
30010000
01000000
00010000
,
01000000
00010000
00000000
00100000
00000000
01000000
01000000
00000000
,
10010000
10000000
01000000
10000000
01000000
00010000
00001000
00000100
,
00000001
00000100
00001000
00000100
00000010
00001000
00000010
00010000
,
00011000
00000000
00100000
00020000
00000000
00000000
10030000
01000000
,
10000000
01000000
00100000
00000000
00100000
01000000
00001000
00010000
,
00012000
00000000
00000000
00103000
00000000
01000000
00010000
00000000
,
00010000
00100000
01000000
10000000
00000000
00000000
00000100
00000100
,
00002000
00000000
01003000
02000000
00000000
03100000
00001000
00010000
,
00100000
00100000
00100000
00001000
00010000
00000100
00001000
00000010
,
00001000
00000100
00001000
00000001
00000100
00000010
00000100
00000001
,
00000100
00000010
00001000
00000010
00001000
00000010
00001000
00000100
,
00001100
00000000
00001000
00100000
00000000
00000000
01000000
00001000
,
01000000
00001000
00010000
00000000
00001000
00100000
00010000
01000000
,
02010000
00000000
00000000
03001000
00000000
00010000
00001000
00000000
,
00100000
00001000
00100000
00020000
00000000
00000000
00001000
00031000
,
00011000
00000000
00001000
00200000
00000000
00301000
00100000
00001000
,
00100000
00001000
00100000
00001000
00000000
00010000
00000100
00010000
,
00000100
00100000
00001000
00000000
00010000
00000000
00001000
00010000
,
00001000
00010000
00001000
00000000
00020000
00000000
01000000
00000000
,
00000100
00001000
00000100
00001000
,
00030100
00100000
00001000
00100000
00000100
00010000
00000100
00010000
,
00000100
00000000
00001000
00000010
00001000
00000010
00000100
00000001
,
00001000
00000100
00010000
00001000
00100000
00001000
00100000
00010000
,
01010000
00000000
10010000
00000000
,
01010000
00000000
00011000
00000000
00110000
00000000
10010000
10000000
,
02000000
00000000
00000000
03100000
00000000
00000000
10010000
00000000
,
00010000
01000000
00100000
20000000
00000000
00000000
00000000
00000000
,
31000000
00000000
01000000
00200000
00000000
00310000
01000000
00100000
,
10000000
01000000
00010000
00000000
00010000
01000000
10000000
00010000
,
20010000
00000000
00000000
30100000
00000000
00000000
10000000
00100000
,
01000000
00010000
01000000
00001000
00000000
00000000
00000010
00000010
,
00000110
00000000
00000001
00000100
00000000
00000100
00001000
00000010
,
00010000
00001000
00010000
00001000
00000000
00010000
00001000
00010000
,
00010000
00001000
00010000
00000000
00000000
00000000
00000000
00000000
00010000
01000000
00010000
00000000
00000000
00000000
00000000
00000000
,
10000000
00100000
10000000
00000000
00000000
00000000
00000000
00000000
10000000
00000000
10000000
00000000
00100000
00000000
00100000
00000000
,
01000000
01000000
00001000
00001000
00010000
00010000
00001000
00001000
,
00010000
00010000
00000010
00000010
00000100
00000100
00000010
00000010
,
00001001
00000000
00000000
00000000
00001000
00000001
00001000
00000000
00000000
00000000
00000000
00000000
00010000
00001000
00010000
00000000
,
00000000
00000000
00000000
00000000
01000000
10000000
01000000
00000000
00100000
00010000
00100000
00000000
01000000
10000000
01000000
00000000
,
00100000
00010000
00100000
00000000
10000000
00000000
01000000
00000000
00010000
00000000
00001000
00000000
00000100
00000000
00000001
00000000
,
00000100
00000010
00001000
00010000
00000100
00011000
00020200
00000000
,
00030300
00000000
00000000
00000000
;

//---------------dance-single - ----------------
#NOTES:
     dance-single:
     :
     Beginner:
     2:
     0.165,0.250,0.122,0.000,0.000:
1001
0000
0000
0000
,
1000
0000
0000
0000
,
0001
0000
0000
0000
,
1000
0000
0000
0000
,
0110
0000
0000
0000
,
0010
0000
0000
0000
,
0100
0000
0100
0000
,
0001
0000
0001
0000
,
1001
0000
0000
0000
,
0000
0001
0001
0001
,
0000
0000
0000
0000
,
0000
1000
1000
1000
,
0000
0000
0000
0000
,
0000
0000
0000
0000
,
0100
0000
0000
0000
,
0100
0000
0100
0000
,
1001
0000
0000
0000
,
0000
0001
0001
0001
,
0000
0000
0000
0000
,
0000
0100
0100
0100
,
0000
0000
0000
0000
,
0000
0000
0000
0000
,
0001
0000
1000
0000
,
0001
0001
0001
0001
,
0001
0000
0000
0000
,
0000
0000
0000
0000
,
1001
0000
0110
0000
,
0001
0001
0000
0000
,
1000
0000
0001
0000
,
0000
0000
1000
0000
,
0001
0000
0000
0000
,
1001
0000
0000
0000
,
0110
0000
0000
0000
,
0001
0000
0000
0000
,
1000
0000
0100
0000
,
0010
0010
0010
0000
,
1001
0000
0000
0000
,
0100
0000
0000
0000
,
0010
0000
0001
0000
,
1000
1000
1000
0000
,
1001
0000
0000
0000
,
1000
0000
0000
0000
,
1000
0000
0000
0000
,
0100
0100
0100
0000
,
0010
0000
0000
0000
,
0001
0000
0000
0000
,
1000
0000
0000
0000
,
0001
0001
0001
0000
,
1000
1000
1000
0000
,
0100
0100
0100
0000
,
0010
0010
0010
0000
,
0001
0001
0001
0000
,
1000
1000
1000
0000
,
1001
0000
0110
0000
,
0001
0000
1000
0000
,
0001
0001
0001
0000
,
1001
0000
0000
0000
,
0000
0000
0000
0000
,
1000
0000
0000
0000
,
0100
0100
0100
0000
,
0010
0000
0000
0000
,
0001
0000
0000
0000
,
1000
0000
0001
0000
,
1000
1000
1000
0000
,
0100
0000
0010
0000
,
0001
0000
1000
0000
,
0001
0000
1000
0000
,
0001
0000
1000
0000
,
0001
0000
1000
0000
,
0100
0000
0010
0000
,
0100
0000
0010
0000
,
0100
0000
0000
1001
;
