#TITLE:Melody;
#SUBTITLE:;
#ARTIST:bermei.inazawa;
#TITLETRANSLIT:;
#SUBTITLETRANSLIT:;
#ARTISTTRANSLIT:;
#GENRE:;
#CREDIT:Telperion;
#BANNER:[Round 2] Melody-bn.png;
#BACKGROUND:[Round 2] Melody-bg.png;
#LYRICSPATH:;
#CDTITLE:;
#MUSIC:[Round 2] Melody.ogg;
#OFFSET:-0.255;
#SAMPLESTART:57.702;
#SAMPLELENGTH:21.064;
#SELECTABLE:YES;
#DISPLAYBPM:94.000:188.000;
#BPMS:0.000=94.000,19.000=188.000,67.000=94.000,99.000=188.000,259.000=94.000;
#STOPS:;
#BGCHANGES:0.000=[Round 2] Melody-bg.png=1.000=0=0=0=StretchNoLoop====,
0.384=[Round 2] Melody.avi=1.000=0=0=0=StretchNoLoop====,
266.000=[Round 2] Melody-bg.png=1.000=1=0=0=StretchNoLoop==CrossFade==,
99999=-nosongbg-=1.000=0=0=0 // don't automatically add -songbackground-
;
#KEYSOUNDS:;

//---------------dance-single - Telperion----------------
#NOTES:
     dance-single:
     Telperion:
     Hard:
     9:
     0.471,0.483,0.242,0.095,0.091:
0000
0000
0000
0000
0000
0000
0001
1000
,
0000
1000
0000
0001
0000
0000
0100
0000
0000
0000
0000
0000
0001
0000
1000
0000
,
0000
1000
0000
0100
0000
1000
0001
0001
0020
0000
0000
0000
0031
0000
1000
0000
,
0000
1000
0000
0000
0010
0000
0100
0000
0000
0001
0000
0000
0020
0000
0000
0000
,
0000
0200
0330
1001
,
1000
0000
0001
1000
0100
0010
0001
0000
,
0001
0000
0010
0001
0100
0010
1000
0000
,
0010
0000
1000
0010
0100
0001
0000
0001
,
0010
0100
0000
1000
0100
0010
0001
0000
,
0001
0000
1000
0001
0100
0001
0010
0000
,
0010
0000
0001
0100
0010
1000
0100
0000
,
0100
0000
1000
0010
0100
0001
0000
0001
,
0010
1000
0000
1000
0010
0001
0100
0000
,
0001
0000
0100
0000
0000
0010
0000
1000
,
0000
0010
0000
0100
0000
0000
0001
0000
,
0010
0000
0000
0001
0000
1000
0000
0100
,
1001
0000
0000
0001
,
1000
0100
1001
0001
,
0010
0100
1001
0001
,
1000
0010
1000
0000
0101
0001
0010
0000
,
0110
0000
0100
0000
1000
0100
1000
0000
0001
0000
0001
0100
0001
0000
0000
1000
,
0000
0000
1000
0000
0100
0000
0000
0010
0000
0000
0001
0000
0010
0000
0000
0100
,
0000
0000
0001
0000
0100
0000
0000
0010
0000
0000
0001
0000
0100
0000
0000
0010
,
0000
0000
0010
0000
0100
0000
0000
1000
0000
0000
1000
0000
0100
0000
0000
0001
,
0000
0000
0010
0000
0100
0010
0100
0000
1000
0001
1000
0001
1000
0000
0000
0000
,
0000
0011
0000
0000
0010
0000
0001
1000
,
0100
0000
0010
0001
0100
0000
0001
0000
,
0000
1010
0000
0000
1000
0000
0100
1000
,
0001
0000
0010
0001
0100
0000
0010
0000
,
1001
0000
0010
0001
0100
0000
0001
0000
,
1010
0000
1000
0100
0010
0000
0001
1000
,
0000
1000
0000
0100
0000
0100
1000
0010
,
0001
0010
1000
0100
0010
0001
1000
0000
,
0011
0000
1000
0001
0010
0100
0000
0000
,
0011
0000
0100
1000
0010
0100
0000
0000
,
1010
0000
0100
0001
0010
0100
0000
1000
,
0100
0010
0001
0000
0001
0000
1000
0100
,
0010
0001
0000
0100
0010
1000
0000
0100
,
0010
1000
0000
0010
0100
1000
0001
0100
,
0010
1000
0001
0100
0010
1000
0002
0000
,
0000
1000
0010
1003
,
1010
0000
0001
1000
0010
0100
0000
0000
,
1010
0000
0000
0000
0100
0000
0000
0001
0000
0000
0010
0000
0100
0000
0000
0000
,
0011
0000
0010
0001
0100
0010
0000
1000
,
0010
0100
0001
0000
0001
0000
1000
0010
,
0100
0010
0000
1000
0100
0010
0000
0001
,
0010
0100
0000
0001
0100
2000
0000
0000
,
0000
0000
3000
0000
1000
0002
0003
0000
,
0001
2000
3000
0000
1000
0001
0100
0000
,
1010
0000
0000
0010
1000
0100
0000
0000
,
0011
0000
0000
0010
0100
1000
0000
0000
,
1010
0000
0010
1000
0100
0001
0000
0100
,
1000
0010
0000
1000
0100
0010
0001
0000
,
1100
0000
0100
1000
0010
1000
0000
0000
,
0101
0000
0010
0100
0101
0000
0001
0010
,
0100
1000
0001
0010
0100
1000
0002
0000
,
0000
1000
0100
1003
,
1100
0000
0010
0001
0100
0010
0000
0000
,
0101
0000
0001
0010
0010
0100
0000
0000
,
1001
0000
0100
0010
0010
2000
0000
0000
,
0000
3020
0000
0000
0000
0130
0000
0000
,
0110
0000
0010
1000
0100
1000
0001
0000
,
0011
0000
0001
1000
0010
0100
0010
0000
,
1010
0000
0010
1000
0100
0001
0000
0100
,
1000
0010
0001
0010
0100
0001
0020
0000
,
0000
0000
0000
0030
;

//---------------dance-double - Telperion----------------
#NOTES:
     dance-double:
     Telperion:
     Hard:
     9:
     0.484,0.454,0.233,0.112,0.086:
00000000
00000000
00000000
00000000
00000000
00000000
00010000
20000000
,
00000000
30000000
00000000
01000000
00000000
00000000
00200000
00000000
00000000
00000000
00300000
00000000
00001000
00000000
00010000
00000000
,
00000000
00001000
00000000
00010000
00000000
00000100
00000010
00000100
00000020
00000000
00000000
00000000
00000031
00000000
00000100
00000000
,
00000000
00001000
00000000
00000000
00010000
00000000
01000000
00000000
00000000
10000000
00000000
00000000
00200000
00000000
00000000
00000000
,
00000000
02000000
03300000
01100000
,
00100000
10000000
01000000
00100000
00001000
00100000
01000000
00000000
,
10000000
00100000
00010000
00001000
00000100
00000001
00000010
00000000
,
00000100
00001000
00000100
00000010
00000001
00000100
00000000
00000010
,
00000100
00000001
00000000
00000010
00000100
00001000
00000001
00000000
,
00000010
00000100
00000001
00000100
00001000
00000010
00000100
00000000
,
00001000
00010000
01000000
00100000
00010000
01000000
10000000
00000000
,
01000000
00100000
10000000
01000000
00100000
00010000
00000000
00010000
,
01000000
20000000
00000000
00000000
30000000
00000000
01000000
00000000
,
00010000
00000000
00100000
00000000
01000000
00100000
00000000
00001000
,
00000000
00010000
00000000
00100000
00000000
00000000
00010000
00000000
,
00001000
00000000
00000100
00000000
00001000
00010000
00000000
00000100
,
00011000
00000000
00000000
00001000
,
00010010
00010000
00101000
00000100
,
00001100
01000000
01010000
00001000
,
01100000
10000000
00110000
01000000
,
11000000
00000000
00000000
00000000
10000000
00010000
10000000
00000000
00010000
00000000
00010000
10000000
00010000
00000000
00000000
00010000
,
00000000
00000000
01000000
00000000
10000000
00000000
00000000
10000000
00000000
00000000
01000000
00000000
00010000
00000000
00000000
00100000
,
00000000
00000000
00001000
00000000
00010000
00000000
00000000
00000010
00000000
00000000
00001000
00000000
00000100
00000000
00000000
00000001
,
00000000
00000000
00000001
00000000
00000100
00000000
00000000
00001000
00000000
00000000
00001000
00000000
00000001
00000000
00000000
00000100
,
00000000
00000000
00001000
00000000
00000100
00000001
00000100
00000001
00000100
00000001
00000100
00000000
00000201
00000000
00000000
00000000
,
00000000
00001300
00000000
00000100
00000001
00000010
00000100
00000000
,
00000100
00000000
00001000
00000100
00010000
00000000
00001200
00000000
,
00000000
00000301
00000000
00000100
00001000
00000001
00000000
00000010
,
00000000
00000100
00000000
00001000
00000000
00000000
00012000
00000000
,
00000000
00003100
00000000
00001000
00010000
00001000
00000000
01000000
,
00010000
00100000
00000000
01000000
10000000
00100000
00000000
00100000
,
00000000
00100000
00000000
00100000
00000000
00100000
10000000
01000000
,
00010000
00001000
00000010
00000100
00010000
00001000
00000100
00000000
,
00001010
00000000
00000100
00000001
00000010
00000100
00000000
00000000
,
00000011
00000000
00000001
00000010
00001000
00010000
00000000
00000000
,
00001100
00000000
00010000
00001000
00100000
00010000
00000000
01000000
,
00100000
01000000
00000000
00010000
00100000
00000000
01000000
10000000
,
01000000
00100000
00000000
01000000
00010000
00001000
00000000
00010000
,
00001000
00000100
00000000
00000010
00000100
00000001
00000010
00000100
,
00001000
00000100
00010000
00001000
00100000
00020000
01000000
00000000
,
00000000
10000000
00100000
10030000
,
10100000
00000000
01000000
00010000
00100000
01000000
00000000
00000000
,
10010000
00000000
00000000
00000000
00100000
00000000
00000000
00010000
00000000
00000000
01000000
00000000
10000000
00000000
00000000
00000000
,
01100000
00000000
01000000
10000000
00100000
01000000
00000000
00010000
,
01000000
00100000
00000000
10000000
01000000
00100000
00010000
00000000
,
01010000
00000000
00100000
01000000
00001000
00010000
00001000
00000000
,
01001000
00000000
00010000
00000010
00001000
00000010
00000100
00000000
,
00001010
00000000
00000001
00000010
00000100
00020000
00000000
00031000
,
00100000
01000000
10000000
00100000
01000000
10000000
01000000
00000000
,
01000000
00000000
00000000
00010000
00100000
00000000
01000000
00000000
,
01000000
00000000
00000000
10000000
00100000
00000000
00010000
00000000
,
00001000
00000000
00000000
00000010
00001000
00000000
00010000
00000000
,
01000000
00000000
00000000
00010000
00001000
00000000
00000100
00000000
,
00000001
00000000
00000000
00000001
00001000
00000000
00000010
00000000
,
00000010
00000000
00000000
00001000
00000001
00000000
00000001
00000100
,
00001000
00010000
00100000
01000000
00010000
00100000
10000000
00000000
,
00000000
00000000
00100000
00001000
00100000
00001000
00100000
00000000
,
11000000
00000000
10000000
00100000
00010000
00001000
00000000
00000000
,
00110000
00000000
00001000
00010000
00000100
00000010
00000000
00000000
,
00000011
00000000
00000001
00000010
00001000
00010000
00000000
00001000
,
00000100
00000001
00000000
00000010
00001000
00010000
00001000
00000000
,
00011000
00000000
00001000
00100000
00010000
00100000
01000000
00000000
,
10100000
00000000
00100000
01000000
00010000
01000000
00001000
00000000
,
00110000
00000000
10000000
01000000
00100000
00002000
00000000
00013000
,
00000100
00000010
00000001
00000100
00001000
00000100
00000020
00000000
,
00000000
00000000
00000000
00000030
;

//---------------dance-single - Telperion----------------
#NOTES:
     dance-single:
     Telperion:
     Medium:
     7:
     0.364,0.369,0.216,0.164,0.004:
0000
0000
0000
0002
,
0000
0000
0000
0003
0000
0000
2000
0000
,
0000
0000
0000
3000
0000
0000
0002
0003
,
0000
0010
0000
2000
,
0000
0000
0001
0000
0001
0010
3001
0000
,
0001
0000
0000
0001
1000
0000
0010
0000
,
0010
0000
0000
1000
0001
0000
0010
0000
,
0010
0000
0000
0100
1000
0010
0000
0000
,
0010
0100
0000
0000
0100
0001
0000
0000
,
0001
0000
0000
0010
0001
0000
1000
0000
,
1000
0000
0000
0010
1000
0000
0001
0000
,
0001
0000
0000
0010
0001
0100
0000
0000
,
0100
0010
0000
0000
0010
1000
0100
0000
,
0100
0000
0010
0000
0000
0001
0000
0100
,
0000
0001
0000
0001
0000
0000
0010
0000
,
0010
0000
0000
0100
0000
0100
0000
0000
,
1001
0000
0000
0020
,
0030
0002
0003
0200
,
0300
2000
3000
0002
,
0003
0020
0030
2000
,
3000
0000
0000
0000
0100
0010
0000
0000
0010
0000
0010
0000
0100
0000
0000
0000
,
0100
1000
1000
0010
,
0001
0100
0100
0010
,
1000
0100
0001
0010
,
0001
0000
0100
0100
0100
0100
1001
0000
,
0000
0011
0000
0000
0001
0000
0100
0000
,
0000
1100
0000
0000
1000
0000
0010
0000
,
0000
0011
0000
0001
0000
0010
0000
0100
,
0000
1000
0000
0020
0000
0000
0130
0000
,
0000
1100
0000
0000
1000
0000
0010
0000
,
0000
0011
0000
0000
0001
0000
1000
0000
,
1000
0000
0001
0000
0001
0000
1000
0001
,
0010
0100
1000
0100
0010
0001
0100
0000
,
0110
0000
0000
0001
1000
0000
0100
0000
,
0110
0000
0000
1000
0001
0000
0100
0000
,
0101
0000
0000
0010
1000
0000
0100
0000
,
0110
0000
1000
0000
1001
0000
0010
0001
,
0010
0001
0000
1000
0100
1000
0000
0001
,
0100
0001
0000
0000
0010
0000
0200
0000
,
0001
0010
1300
0020
,
0100
0001
0100
1030
,
0011
0000
0000
0010
0001
0000
0100
0000
,
1010
0000
0000
0010
1000
0000
0100
0000
,
0011
0000
0000
0010
0001
0100
0000
0000
,
0100
0010
0000
0000
0010
1000
0010
0000
,
0100
0000
0001
0000
0010
0002
0000
0000
,
0003
0000
0100
0000
0010
2000
0000
0000
,
3000
0000
0100
0000
0010
0001
0000
0001
,
0100
0010
0000
0000
0010
0000
1000
0000
,
0101
0000
0000
0001
0010
0000
0100
0000
,
1100
0000
0000
1000
0010
0000
0100
0000
,
0011
0000
0000
0001
0010
0000
0100
0000
,
0100
0000
0010
0100
0010
0000
0001
0000
,
1010
0000
0000
1000
0010
0000
1000
0000
,
0011
0000
0000
0001
0010
0000
0200
0000
,
0001
0010
1300
0020
,
0100
0001
0130
1010
,
0001
0000
0000
0010
0001
0000
1000
0000
,
0011
0000
0000
0100
1000
0000
0001
0000
,
1010
0000
0000
0100
0001
0010
0000
0000
,
0010
0100
0000
0000
0100
1000
0100
0000
,
0100
0000
0000
1000
0001
0000
0100
0000
,
0110
0000
0000
0001
1000
0000
0100
0000
,
0110
0000
0000
1000
0001
0100
0000
0010
,
0100
0001
0100
0001
0100
0001
0020
0000
,
0000
0000
0000
0030
;

//---------------dance-double - Telperion----------------
#NOTES:
     dance-double:
     Telperion:
     Medium:
     6:
     0.338,0.312,0.216,0.035,0.004:
00000000
00000000
00000000
10000000
,
00000000
00000000
00000000
00010000
,
00000000
00000000
00000000
00001000
,
00000000
00000100
00000000
00000020
,
00000000
00000002
00000033
00000011
,
00000001
00000000
00000000
00000001
00000100
00000000
00001000
00000000
,
00010000
00000000
00000000
00001000
00010000
00000000
01000000
00000000
,
10000000
00000000
00000000
00100000
10000000
01000000
00000000
00000000
,
00000000
01100000
00000000
00000000
00000000
00110000
00000000
00000000
,
00010000
00000000
01000000
00000000
00000000
00110000
00000000
00000000
,
00001000
00000000
00100000
00000000
00000000
00011000
00000000
00000000
,
00000010
00000000
00010000
00000000
00000000
00001000
00000000
00010000
,
00000100
00010000
00001000
00000000
00001000
00000000
00010000
00000000
,
00001000
00000000
00100000
00000000
00000000
01000000
00000000
10000000
,
00000000
00100000
00000000
00010000
00000000
00000000
00001000
00000000
,
00010000
00000000
00000000
00000100
00000000
00000010
00000000
00000000
,
00000101
00000000
00000000
00000001
,
00000001
00000010
00000010
00001000
,
00010000
01000000
01000000
10000000
,
10000000
00100000
00100000
00010000
,
00001000
00000000
00000000
00000000
00000100
00000010
00000000
00000000
00000100
00000000
00000100
00000000
00000100
00000000
00000000
00000000
,
00000001
00000010
00001000
00010000
,
01000000
10000000
00100000
01000000
,
00100000
00010000
00001000
00000100
,
00000001
00000000
00000010
00000001
00000010
00000001
00000011
00000000
,
00000000
00000100
00000000
00000000
00000010
00000000
00000100
00000000
,
00001000
00010000
00000100
00000010
,
00000000
00000010
00000000
00000100
00000000
00010000
00000000
00001000
,
00000000
00000100
00000000
00000020
00000000
00000000
00000130
00000000
,
00000000
00000100
00000000
00000000
00000010
00000000
00000100
00000000
,
00000000
00000100
00000000
00000000
00001000
00000000
00010000
00000000
,
01000000
00000000
10000000
00000000
00100000
00000000
01000000
00100000
,
01000000
00010000
01000000
00100000
01000000
00010000
01000000
00000000
,
01000000
00000000
00000000
00100000
10000000
00000000
01000000
00000000
,
01000000
00000000
00000000
00100000
00001000
00000000
00010000
00000000
,
00010000
00000000
00000000
00000010
00010000
00000000
00000100
00000000
,
00000010
00000000
00000000
00000001
00000100
00000000
00000010
00000000
,
00000000
00001010
00000000
00000000
00001000
00000000
00000100
00000000
,
00000000
00001100
00000000
00000000
00000100
00000000
00000010
00000000
,
00000100
00010000
00001000
00010000
,
00000000
00100000
00010000
00001000
,
00011000
00000000
00000000
00001000
00100000
00000000
01000000
00000000
,
11000000
00000000
00000000
10000000
00100000
00000000
01000000
00000000
,
01010000
00000000
00000000
00010000
00100000
00000000
01000000
00000000
,
00010000
00001000
00000100
00000010
,
00000100
00000000
00001000
00000000
00000100
00000001
00000000
00000000
,
00000010
00000000
00001000
00000000
00000010
00000001
00000000
00000000
,
00000100
00000000
00001000
00000000
00010000
00000100
00000000
00010000
,
00001000
01000000
00000000
00001000
00010000
00000100
00010000
00000000
,
00011000
00000000
00000000
00001000
00100000
00000000
01000000
00000000
,
11000000
00000000
00000000
10000000
01000000
00000000
00010000
00000000
,
00011000
00000000
00000000
00010000
00001000
00000000
00000100
00000000
,
00000101
00000001
00000010
00000100
,
00001100
00000000
00000000
00001000
00000001
00000000
00000100
00000000
,
00001001
00000000
00000000
00001000
00000001
00000000
00000010
00000000
,
00000100
00010000
00001000
00010000
,
00000000
00101000
00011000
00010010
,
00001000
00000000
00000000
00001000
00000100
00000000
00000010
00000000
,
00000011
00000000
00000000
00000001
00000100
00000000
00001000
00000000
,
00011000
00000000
00000000
00010000
00001000
00100000
00000000
00000000
,
00000000
01100000
00000000
00000000
00000000
11000000
00000000
00000000
,
01000000
00000000
00010000
00000000
01000000
10000000
00000000
00000000
,
00100000
00000000
00010000
00000000
00100000
10000000
00000000
00000000
,
01000000
00000000
00100000
00000000
00001000
00010000
00000000
00000100
,
00010000
00000100
00010000
00000100
00010000
00000100
00002000
00000000
,
00000000
00000000
00000000
00003000
;

//---------------dance-single - Telperion----------------
#NOTES:
     dance-single:
     Telperion:
     Easy:
     4:
     0.238,0.256,0.138,0.026,0.000:
0000
0000
0000
0001
,
0000
0000
0000
1000
,
0000
0000
0000
0100
,
0000
0000
0000
0010
,
0000
0100
0010
0110
,
0001
0000
0001
0101
,
0010
0000
1000
1100
,
0010
0000
0001
0100
,
0010
1000
0010
0100
,
0001
0000
0010
0110
,
1000
0000
0010
0110
,
0001
0000
1000
0001
,
0010
0100
1000
0001
,
0000
0100
0000
0001
,
0000
0100
0000
1000
,
0000
0100
0000
1000
,
1000
0000
0000
0001
,
0000
0001
0000
1000
,
0000
1000
0000
0100
,
0000
0100
0000
0010
,
0000
0000
0001
1000
0001
1000
0001
0000
,
0000
0001
0000
1000
,
0000
1000
0000
0100
,
0000
0100
0000
0010
,
0000
0000
0001
1000
0001
1000
0010
0000
,
0000
0100
0000
0000
0000
0000
0100
0000
,
0000
0001
0000
0010
,
0000
0100
0000
0000
0000
0000
0100
0000
,
0000
1000
0000
0010
,
0000
0010
0000
0000
0000
0000
0100
0000
,
0000
0100
0000
0000
0000
0000
0002
0000
,
0000
0000
0000
1000
,
0000
1000
1000
1003
,
0000
0000
0100
1000
,
1000
0000
0100
0001
,
0001
0000
1000
0001
,
0010
0000
0001
1000
,
0100
0000
0100
0000
,
0010
0000
0010
0001
,
0010
0100
1000
0010
,
0000
0100
0100
0100
,
0000
0000
0100
0010
,
0010
0000
0100
0010
,
0010
0000
1000
0001
,
0100
0000
0001
1000
,
0000
0000
1000
0000
0000
0001
0000
0000
,
0000
0000
0001
0000
0000
2000
0000
0000
,
0000
0000
0000
3001
,
0100
0010
1000
1100
,
0010
0000
0001
0101
,
0010
0000
1000
1001
,
0010
0000
0001
1000
,
0010
1000
0100
0110
,
0001
0000
0100
0110
,
1000
0000
1100
1000
,
0001
0100
0010
1000
,
0000
0010
0010
0110
,
1000
0000
1000
1100
,
0010
0000
0001
0101
,
0010
0000
1000
0100
,
0010
0001
0010
0100
,
1000
0000
0010
0110
,
0001
0000
0010
0110
,
1000
0000
0001
1000
,
0010
0100
0001
0020
,
0000
0000
0000
0030
;

//---------------dance-double - Telperion----------------
#NOTES:
     dance-double:
     Telperion:
     Easy:
     2:
     0.123,0.142,0.009,0.017,0.000:
00000000
00000000
00000000
00000001
,
00000000
00000000
00000000
00001000
,
00000000
00000000
00000000
00000001
,
00000000
00000000
00000000
00000200
,
00000000
00000000
00000300
00000100
,
00000000
00000000
00000000
00000010
,
00000000
00000000
00000000
00001000
,
00000000
00000000
00000000
00000100
,
00000000
00000100
00000000
00000100
,
00000000
00000000
00000000
00000010
,
00000000
00000000
00000000
00000100
,
00000000
00000000
00000000
00010000
,
00000000
00001000
00000000
00010000
,
00000000
00000000
00000000
00010000
,
00000000
00000000
00000000
01000000
,
00000000
00000000
00000000
10000000
,
10000000
00000000
00000000
00100000
,
00000000
01000000
00000000
10000000
,
00000000
01000000
00000000
00100000
,
00000000
01000000
00000000
00001000
,
00000000
00010000
00000100
00000010
,
00000000
00000100
00000000
00000010
,
00000000
00000001
00000000
00000010
,
00000000
00000100
00000000
00010000
,
00000000
00001000
00010000
00011000
,
00000000
00000000
00000000
00001000
,
00000000
00000000
00000000
01000000
,
00000000
01000000
00000000
00100000
,
00000000
00100000
00000000
10000000
,
00000000
00000000
00000000
00100000
,
00000000
00000000
00000000
00010000
,
00000000
00001000
00000000
00000010
,
00000000
00000001
00000000
00000100
,
00000000
00000000
00000000
00000100
,
00000000
00000010
00000000
00001000
,
00000000
00000000
00000000
00000100
,
00000000
00000000
00000000
00010000
,
00000000
00010000
00000000
00010000
,
00000000
00000000
00000000
00001000
,
00000000
00001000
00000000
01000000
,
00000000
00000000
00000000
00100000
,
00000000
00000000
00000000
10000000
,
00000000
00000000
00000000
01000000
,
00000000
00000000
00000000
00010000
,
00000000
00000000
00000000
00001000
,
00000000
00001000
00000000
00001000
,
00000000
00000000
00000000
00010000
,
00000000
00000000
00000000
00001000
,
00000000
00000100
00000000
00000001
,
00000000
00000000
00000000
00000001
,
00000000
00000000
00000000
00001000
,
00000000
00000000
00000000
00001000
,
00000000
00000000
00000000
00010000
,
00000000
00000000
00000000
00010000
,
00000000
00000000
00000000
10000000
,
00000000
00000000
00000000
10000000
,
00000000
00100000
00100000
00100000
,
00000000
01000000
00000000
00100000
,
00000000
01000000
00000000
00010000
,
00000000
01000000
00000000
00001000
,
00000000
00010000
00000000
00000100
,
00000000
00001000
00000000
00000100
,
00000000
00000010
00000000
00000001
,
00000000
00000010
00000000
00000100
,
00000000
00010000
00000000
00002000
,
00000000
00000000
00000000
00003000
;
