#TITLE:Maria;
#SUBTITLE:;
#ARTIST:BanYa;
#TITLETRANSLIT:;
#SUBTITLETRANSLIT:;
#ARTISTTRANSLIT:;
#CREDIT:;
#BANNER:Maria-banner.png;
#BACKGROUND:Maria-bg.png;
#LYRICSPATH:;
#CDTITLE:;
#MUSIC:Maria.ogg;
#OFFSET:0.002;
#SAMPLESTART:14.109;
#SAMPLELENGTH:18.000;
#SELECTABLE:YES;
#BPMS:0.000=136.000;
#STOPS:;
#BGCHANGES:-10000.000=songbackground=1.000=0=0=1,
0.000=Maria.avi=1.000=0=0=1,
99999=-nosongbg-=1.000=0=0=0 // don't automatically add -songbackground-
;

//---------------dance-single - ----------------
#NOTES:
     dance-single:
     :
     Hard:
     8:
     0.458,0.466,0.189,0.387,0.151:
0000
0000
0000
0000
,
0000
0000
0000
0000
,
1001
0000
0100
0000
1001
0000
1000
0100
,
1100
0000
0010
0000
0011
0000
0001
0100
,
0010
1000
0001
0010
0100
0010
0001
0100
,
0010
1000
0001
0010
,
0001
0010
0100
0010
0001
0100
0010
1000
,
0100
0000
0000
0000
0010
0000
0000
0000
0001
0000
0000
0001
0100
0000
0010
0000
,
1002
1000
1000
1000
,
0100
0100
0203
0320
,
2030
0100
0100
0100
,
0010
0000
0000
0000
0010
0000
0000
0000
3020
0000
0000
0000
0000
0000
0130
0010
,
0200
0001
0010
1300
,
0200
1000
0010
0301
,
0120
0000
0000
0000
0000
0000
0130
0100
,
0010
0000
0000
1000
0001
0000
0000
0010
0100
0000
0000
0001
0010
0000
0000
0100
,
0002
0000
1000
0000
1000
0000
0103
0010
,
1000
0000
0000
0000
0001
0000
0000
0000
0010
0000
0000
1000
0100
0000
1000
0000
,
1020
0000
0100
0000
0001
0000
0130
0010
,
1000
0000
0000
0001
0010
0000
0000
0010
0100
0000
0000
0100
1000
0000
0000
1000
,
0002
0000
0100
0000
0100
0000
0103
0010
,
2000
0000
0100
0000
0100
0000
3100
0010
,
0011
0001
1100
0101
,
0001
0000
0000
0000
0010
0000
0000
0000
0100
0000
0000
0000
0010
0000
0000
0000
0000
0000
0001
0000
0000
1000
0000
0000
,
0200
1000
0001
1000
,
0302
0000
0013
0000
2000
0000
3100
1000
,
1020
0100
1000
0230
,
0310
0000
1000
0000
0001
0000
1000
0000
0001
0000
1000
0000
,
0002
0000
0010
0000
0010
0000
0013
0001
,
0200
0000
0300
0001
0002
0000
0013
0001
,
0200
0000
0310
0100
0020
0000
1030
0001
,
1000
0100
0010
0100
1000
0001
0100
1000
,
0200
0000
0000
0000
1000
0000
0000
0000
0001
0000
0000
0000
1300
0000
0000
0100
,
0010
0000
0000
0010
1000
0000
0000
0001
0100
0000
0000
0010
1000
0000
0000
1000
,
0001
0000
0000
0010
0100
0000
0000
1000
0001
0000
0000
0000
0010
0000
0100
0000
,
1000
1001
0010
0102
,
0023
0000
0001
0000
1000
0000
0031
0100
,
0020
0000
0000
1030
0100
0000
0000
0010
0100
0000
0000
0001
1000
0000
0000
0100
,
0010
0000
0000
1000
0001
0000
0000
0100
0010
0000
0000
0000
1000
0000
0001
0000
,
0010
1100
0010
0101
,
1200
0000
1000
0000
0001
0000
1300
0010
,
0200
0000
1000
0000
0001
0000
1300
0100
,
0020
0000
1030
0001
0020
0000
0130
1000
,
0001
1001
0001
0101
,
1020
0000
0100
0000
1000
0000
0130
0100
,
0102
0000
0100
0000
0010
0000
0103
0010
,
0200
0000
0310
1000
0002
0000
1003
0100
,
0002
0000
0000
0000
,
0103
1000
0010
0100
0001
1000
0100
0010
,
0001
0001
1000
1000
,
0010
1000
0010
0100
0001
0010
0100
0010
,
0001
0000
0000
0000
0100
0000
0000
0000
1000
0000
0000
1000
0001
0000
0100
0000
,
0020
0000
0000
0000
,
0000
0000
0230
0302
,
2000
0000
0000
0000
,
0000
0000
0000
0000
0003
0000
0000
0000
3200
0000
0000
0000
0000
0300
0010
0001
,
0020
0000
0000
0000
,
0000
0000
0000
0000
,
0030
0000
0000
0000
;

//---------------dance-single - ----------------
#NOTES:
     dance-single:
     :
     Medium:
     5:
     0.335,0.411,0.104,0.671,0.000:
0000
0000
0000
0000
,
0000
0000
0000
0000
,
1001
0000
0001
0000
0100
0000
0010
0100
,
0001
0000
1000
0000
0010
0000
0010
1000
,
0100
1000
0001
0200
0000
0301
0000
0000
,
0000
0000
0000
0000
,
0010
1000
0001
0020
0000
0130
0000
0000
,
0000
0000
0000
0000
,
0100
0000
1000
0000
0001
0000
0010
0001
,
0010
0000
0100
0000
1000
0000
0010
0100
,
0001
0000
1000
0000
0010
0000
0100
0010
,
1000
0001
0200
0000
,
0302
0000
0100
0000
0100
0000
0103
0001
,
0200
0000
0001
0000
0001
0300
0001
0100
,
0020
0000
1000
0000
1000
0000
1030
0001
,
0020
0032
0203
0320
,
2000
0000
0000
3030
,
0001
0000
1000
0000
0010
0000
0100
0001
,
0020
0000
0000
0000
0000
0000
0031
0010
,
0002
0203
0320
2030
,
3200
0000
0000
0000
0000
0000
0000
0010
,
0020
0000
0330
0020
,
0200
0000
0330
0200
,
2300
3020
0032
0023
,
2000
0000
0000
0000
3030
0000
0010
1000
,
0001
0000
0010
0000
0200
0000
0010
0010
,
0320
0000
0000
0031
,
0020
0000
0032
0000
0203
0000
0310
1000
,
0002
0000
1000
0000
1000
0000
1003
0001
,
0200
0000
0001
0000
0001
0000
0301
0100
,
0020
0000
0200
0330
,
0110
1001
0110
1001
,
0202
0000
0303
0002
,
0203
2300
3200
0302
,
0203
2300
3200
0000
,
0300
0000
0000
0100
,
2002
0000
3003
0002
,
0023
2030
3020
0032
,
0023
2030
3020
0000
,
0030
0000
0000
0010
,
2200
0000
3300
0010
,
0202
0000
0303
0010
,
2002
0000
0000
3003
0220
0000
0000
0000
,
0000
0000
0000
0330
0010
0000
1000
0000
,
0002
0000
0000
0020
0000
0000
0033
0000
,
0001
0100
0010
1000
0100
0010
0100
1000
,
0020
0000
0000
0000
,
0030
0000
0000
0000
,
0001
0100
1000
0200
0000
0301
0000
0000
,
0000
0000
0000
0000
,
0001
0100
0010
0200
0000
0301
0000
0000
,
0000
0000
0000
0000
,
0020
0000
0000
0000
,
0000
0000
1000
0001
,
2000
0000
0000
0000
,
3000
0000
1000
0000
,
0200
0000
0000
0000
,
0000
0000
0000
0000
,
0330
0000
0000
0000
;

//---------------dance-single - ----------------
#NOTES:
     dance-single:
     :
     Easy:
     3:
     0.240,0.384,0.019,0.709,0.000:
0000
0000
0000
0000
,
0000
0000
0000
0000
,
2002
0000
0000
0000
,
0000
0000
0000
3003
,
0001
0200
0020
0330
,
0000
0000
0000
0000
,
1000
0020
0200
0000
,
0330
0000
0000
0000
,
0002
0000
0000
0000
,
0000
0000
1003
0001
,
0200
0000
0000
0000
,
0000
0000
0310
0000
,
0020
0000
0000
0000
,
0000
0000
0030
0000
,
2000
0000
3000
0002
,
0203
0320
2030
3200
,
0020
0000
0000
0000
,
0330
0000
0000
0010
,
0022
0000
0000
0000
0033
0000
0001
0100
,
0002
0203
0320
2030
,
0200
0000
0000
0000
,
3300
0000
0000
0010
,
0200
0000
0000
0010
,
0320
2030
3002
0023
,
0200
0000
0000
0000
,
0330
0000
0020
0030
,
0002
0000
0000
0100
,
0203
0320
2030
3020
,
0200
0000
0000
0000
,
0330
0000
0020
2030
,
0200
0000
0000
0000
,
3300
0000
0000
0020
,
0230
0000
0000
0320
,
2030
3020
2030
3020
,
2030
3020
2000
0000
,
3030
0000
0000
0010
,
0002
0000
0000
0203
,
0302
0203
0302
0203
,
0302
0000
0200
0000
,
0303
0000
0000
0002
,
2000
0000
3003
0002
,
0200
0000
0000
0303
0002
0000
0203
0000
,
0320
0000
2000
0000
,
0000
3030
0020
2030
,
0200
0000
0000
3300
,
2000
3002
0203
0302
,
0020
0000
0000
0000
,
0033
0000
0000
0000
,
0001
1000
0100
0100
,
1000
0010
0100
0001
,
0100
0010
1000
0100
,
0010
0100
1000
0010
,
0200
0000
0000
0000
,
0000
0000
0000
0000
,
0000
0000
0000
0000
,
0000
0000
0000
0000
,
0002
0000
0000
0000
,
0000
0000
0000
0000
,
0303
0000
0000
0000
;

//---------------dance-double - ----------------
#NOTES:
     dance-double:
     :
     Hard:
     7:
     0.383,0.439,0.217,0.340,0.024:
00000000
00000000
00000000
00000000
,
00000000
00000000
00000000
00000000
,
10000000
00000000
00110000
00000000
01010000
00000000
01000000
00010000
,
00100000
00000000
00101000
00000000
00010000
00000000
00010000
00000100
,
00001000
00000010
00000001
00000010
00001000
00000100
00000010
00000100
,
00001000
00001000
00001000
00001000
,
00001000
00000010
00010000
00001000
00100000
00010000
01000000
00100000
,
10000000
00000000
00000000
00000000
00010000
00000000
00000000
00000000
00100000
00000000
00000000
01000000
10000000
00000000
00100000
00000000
,
02000000
10000000
00010000
10000000
,
00010000
10000000
03020000
00230000
,
00302000
00010000
00100000
00010000
,
00100000
00000000
00000000
00000000
00010000
00000000
00003000
00000000
00020000
00000000
00000000
00000000
00000000
00000000
00030100
00010000
,
00002000
00010000
00010000
00013000
,
00020000
00000100
00000100
00030100
,
00002020
00000000
00000000
00000000
00000000
00003030
00001000
00000010
,
00000110
00001001
00000011
00001100
,
00002020
00000000
00000000
00000000
,
00000000
00000000
00003030
00000100
,
00001002
00000000
00000010
00000000
00000013
00000000
00000010
00000001
,
00000100
00010000
10000000
00100000
,
02000000
00000000
00000000
00000000
00000000
00000000
00000000
00001000
,
03001000
00000000
00000000
00100000
,
22000000
00000000
00000000
00000000
00000000
33000000
10000000
00000000
,
10000000
00010000
00001000
00000001
,
00000202
00000000
00000000
00000303
,
00000000
00000000
00000200
00000000
,
00000320
00001000
00001030
00000010
,
00000010
00001000
00000100
00010000
00001000
00100000
10000000
00100000
,
00010000
00000000
00100000
00000000
00100000
00000000
00100000
01000000
,
20000000
00000000
00100000
00000000
01000000
00000000
30010000
01000000
,
00010000
00000000
00010000
00100000
00001000
00000000
00001000
00010000
,
00000100
00000000
00001000
00000000
00000010
00000000
00000100
00000000
00000001
00000000
00000000
00000001
00000010
00000000
00000100
00000000
,
00002200
00000000
00003300
00001200
,
00010000
00001000
00010000
00001000
,
00010000
00001000
00020000
00030300
,
00000000
00000000
00000000
00100000
,
02020000
00000000
00000000
00000000
00000000
03030000
01010000
00000000
,
00201000
00010000
00001000
00010000
,
00001000
00010000
00002000
00303000
,
00000000
00000000
00000000
00002000
,
00200000
00000000
00000000
00003000
01000000
00000000
01000000
00000000
,
02000000
00000000
03000000
00000000
01300000
00100000
01000000
10000000
,
01000000
00100000
00010000
00000100
00020000
00000000
00000000
00000000
,
00000000
00030000
00110000
01010000
,
01000000
00010000
00100000
00001000
00010000
00000000
00110000
00000000
,
00100000
00001000
00010000
00000010
00000100
00000001
00001000
00000100
,
00000020
00000000
00000000
00000000
,
00000030
00000000
00000000
00000000
,
00000001
00000100
00001000
00000100
00000010
00010000
00001000
00100000
,
01000000
01000000
01000000
01000000
,
01000000
10000000
00100000
01000000
00001000
00010000
00000100
00000010
,
00000001
00000000
00000000
00000000
00000001
00000000
00000000
00000000
00000001
00000000
00000000
00000010
00000001
00000000
00000100
00000000
,
00000010
00000100
00000000
00000010
00001000
00000000
00001100
00000000
,
00000100
00010000
00000000
00010000
00001000
00000000
00101000
00000000
,
00100000
01000000
00000000
01000000
10000000
00000000
00110000
00000000
,
00010000
00000000
01000000
00000000
00000000
00000000
01000000
00000000
00002000
00000000
00000000
00000000
00003000
00000000
00010000
00002000
,
00020000
00000000
00000000
00000000
,
00000000
00000000
00000000
00000000
,
00033000
00000000
00000000
00000000
;

//---------------dance-double - ----------------
#NOTES:
     dance-double:
     :
     Medium:
     5:
     0.346,0.439,0.189,0.397,0.005:
00000000
00000000
00000000
00000000
,
00000000
00000000
00000000
00000000
,
10100000
00100000
01100000
01000000
,
10010000
00100000
00101000
00010000
,
00000100
00001000
00000001
00000020
00000000
00000130
00000000
00000000
,
00000000
00000000
00000000
00000000
,
00000100
00010000
00001000
00200000
00000000
01300000
00000000
00000000
,
00100000
00100000
00100000
01000000
,
20000000
00010000
00000000
00010000
,
00000000
30010000
02000000
03002000
,
00023000
00000100
00000000
00000100
,
00000000
00000000
00000000
00000000
00030100
00000000
00000000
00000000
00002000
00000000
00000000
00000000
00000000
00000000
00003001
00001000
,
00000200
00001000
00000000
00001000
,
00000000
00001000
00000000
00001300
,
00001002
00000000
00000103
00000000
00002001
00000000
00003100
00010000
,
00002000
00103000
00200000
00320000
,
02000000
00000000
00000000
00000000
,
03030000
00000000
00000000
00100000
,
10020000
00000000
10000000
00000000
10000000
00000000
10030000
00010000
,
00100000
00101000
00100000
00011000
,
00001200
00000000
00001000
00000000
00001000
00000000
00001300
00000010
,
00000200
00000000
00000001
00000000
00000010
00000000
00000301
00000010
,
00000200
00001000
00001300
00000100
,
00000100
00010000
00001000
00000000
00010000
00001000
00100000
00000000
,
02000000
10000000
10000000
13000000
,
20000000
00100000
00100000
00100000
,
30200000
01300000
02000000
03010000
,
00010000
00100000
00001000
00000000
00010000
00000100
00001000
00000010
,
00000200
00001000
00000001
00001000
,
00000301
00000000
00000001
00000010
00000100
00000000
00000100
00001000
,
00000010
00000000
00000010
00010000
00001000
00000000
00001000
00010000
,
00110000
00101000
00011000
00001100
,
00002002
00000000
00003003
00000001
,
00001000
00010000
10000000
00010000
,
00001000
00000001
00002002
00000000
,
00003003
00000000
00000000
00000010
,
00000202
00000000
00000303
00000001
,
00000001
00001000
00010000
01000000
,
10000000
01000000
00200000
00000000
,
00300000
00000000
00000000
00000000
00000000
00000000
01000000
00001000
,
00020000
00000000
00001000
00000000
00031000
00000000
00010000
00000100
,
00002000
00000000
00000010
00000000
00003010
00000000
00000010
00001000
,
00000200
00000000
00001300
00000010
00000100
00000000
00000001
00001000
,
00000100
00001100
00000001
00000011
,
00000101
00000000
00000001
00000100
00000000
00000010
00001000
00000000
,
00000010
00001000
00000100
00010000
00001000
00100000
10000000
00100000
,
00020000
00000000
00000000
00000000
,
00030000
00000000
00000000
00000000
,
10000000
01000000
00010000
02000000
00000000
03100000
00000000
00000000
,
00000000
00000000
00000000
00000000
,
00100000
00001000
00010000
00000020
00000000
00000130
00000000
00000000
,
00000100
00000100
00000100
00000100
,
00000020
00000000
00000000
00000000
,
00000000
00000000
00020030
00032000
,
02000000
00000000
00000000
00000000
,
03000000
00000000
00203000
00000000
,
02000000
00000000
00000000
00000000
,
00000000
00000000
00000000
00000000
,
03300000
00000000
00000000
00000000
;

//---------------dance-double - ----------------
#NOTES:
     dance-double:
     :
     Easy:
     3:
     0.208,0.274,0.047,0.293,0.000:
00000000
00000000
00000000
00000000
,
00000000
00000000
00000000
00000000
,
00100000
00000000
00100000
00000000
,
00001000
00000000
00001000
00000000
,
00010000
00000100
00001000
00000010
,
00000000
00000000
00000000
00000000
,
00000010
00010000
00001000
00100000
,
00000000
00000000
00000000
00000000
,
02000000
00100000
00000000
00100000
,
00000000
03100000
00001000
00001000
,
00002000
00010000
00000000
00010000
,
00000000
00013000
00002000
00013000
,
00000200
00001000
00000000
00001000
,
00000000
00001300
00000000
00001000
,
00001020
00001000
00000000
00001030
,
00000010
00010000
00001000
00100000
,
00002000
00000000
00000000
00000000
,
00003000
00000000
00000000
00100000
,
00202000
00000000
00000000
00303000
,
00100000
00001000
00010000
00000100
,
00020000
00000000
00000000
00000000
,
00031000
00000000
00000000
00001000
,
00020000
00000000
00000000
01030000
,
01000000
00100000
00010000
00100000
,
00002000
00000000
00000000
00000000
,
00003000
00000000
00020000
00000000
,
00002000
00000000
00033000
00011000
,
00010000
00000100
00001000
00000010
,
00000200
00000000
00000000
00000000
,
00000300
00000000
00000010
00001000
,
00000200
00000000
00000000
00000000
,
00000300
00000000
00000000
00000100
,
00002020
00000000
00003030
00000010
,
00001000
00000100
00000010
00000100
,
00001000
00000010
00010000
00000000
,
00000000
00000000
00000000
00010000
,
02020000
00000000
03030000
01000000
,
00010000
00100000
01000000
00100000
,
00010000
01000000
00001000
00000000
,
00000000
00000000
00000000
00200000
,
00302000
00000000
00010000
00010000
,
00020000
00003000
00031000
00100000
,
02000000
00000000
00200000
00000000
,
03300000
00000000
00100000
00001000
,
00020000
00000000
00002000
00033000
,
00010000
00000100
00001000
00000010
,
00000200
00000000
00000000
00000000
,
00000300
00000000
00000000
00000000
,
00000010
00001000
00000100
00001000
,
00000010
00000000
00000000
00000000
,
00000100
00010000
00001000
00010000
,
00001000
00000000
00000000
00000000
,
02000000
00000000
00000000
00000000
,
00000000
00000000
03010000
00100000
,
00002000
00000000
00000000
00000000
,
00003000
00000000
00020000
00000000
,
00000200
00000000
00000000
00000000
,
00000000
00000000
00000000
00000000
,
00030300
00000000
00000000
00000000
;

//---------------dance-single - ----------------
#NOTES:
     dance-single:
     :
     Beginner:
     1:
     0.086,0.159,0.066,0.000,0.000:
0000
0000
0000
0000
,
0000
0000
0000
0000
,
0100
0000
0000
0000
,
0100
0000
0000
0000
,
0010
0000
0000
0000
,
0000
0000
0000
0000
,
0010
0000
0000
0000
,
0000
0000
0000
0000
,
0001
0000
0000
0000
,
0000
0000
1000
1000
,
1000
0000
0000
0000
,
0000
0000
0010
0000
,
0010
0000
0000
0000
,
0000
0000
0000
0000
,
0100
0000
0000
0000
,
0001
0000
1000
0000
,
0010
0000
0000
0000
,
0000
0000
0000
0100
,
0100
0000
0000
0000
,
0010
0000
0010
0000
,
0010
0000
0000
0000
,
0000
0000
0000
0100
,
0100
0000
0000
0000
,
0001
0000
0001
0000
,
0001
0000
0000
0000
,
0000
0000
0010
0000
,
1000
0000
0000
0000
,
1000
0000
1000
0000
,
1000
0000
0000
0000
,
0000
0000
0010
0000
,
0100
0000
0000
0000
,
0000
0000
0000
0001
,
1001
0000
0000
0000
,
1000
0000
0001
0000
,
1000
0000
0001
0000
,
0000
0000
0000
0000
,
0110
0000
0000
0000
,
0010
0000
0100
0000
,
0010
0000
0100
0000
,
0000
0000
0000
0000
,
1001
0000
0000
0000
,
0110
0000
0000
0000
,
1001
0000
0010
0000
,
0000
0000
0000
0000
,
0100
0000
0000
0000
,
0010
0000
0000
0000
,
1001
0000
0000
0000
,
0000
0000
0000
0000
,
0010
0000
0000
0000
,
0000
0000
0000
0000
,
0010
0000
0000
0000
,
0000
0000
0000
0000
,
0001
0000
0000
0000
,
0000
0000
1000
1000
,
1000
0000
0000
0000
,
0000
0000
0001
0000
,
1001
0000
0000
0000
;
