#TITLE:Love Is A Danger Zone 2;
#SUBTITLE:;
#ARTIST:Banya;
#TITLETRANSLIT:;
#SUBTITLETRANSLIT:;
#ARTISTTRANSLIT:;
#GENRE:;
#CREDIT:;
#MENUCOLOR:;
#METERTYPE:DDR;
#BANNER:LiaDZ2-logo.png;
#BACKGROUND:LiaDZ2-bg.png;
#LYRICSPATH:;
#CDTITLE:D15T0RT3D.png;
#MUSIC:Love is a danger zone 2.mp3;
#OFFSET:-1.010;
#SAMPLESTART:6.800;
#SAMPLELENGTH:14.860;
#SELECTABLE:YES;
#LISTSORT:;
#BPMS:0.000=162.000;
#STOPS:;
#BGCHANGES:;
#ATTACKS:;

//---------------dance-single - ----------------
#NOTES:
     dance-single:
     :
     Hard:
     7:
     0.506,0.551,0.038,0.325,0.010:
2000
0000
3000
1000
,
0020
0000
0030
0010
,
0200
0000
0300
0001
,
0002
0000
0103
0001
,
0020
0000
0030
0010
,
0200
0000
0300
0100
,
2000
0000
0000
3001
,
1000
0001
0100
0001
1000
0000
1001
0000
,
1000
0100
1000
0100
1000
0010
1000
0000
,
0001
0100
0001
0000
1000
0100
1000
0000
,
0010
0100
0001
0000
0000
0000
0000
0000
,
1002
0000
0100
0103
,
0001
0100
0001
0100
0001
0010
0001
0000
,
1000
0100
1000
0000
0001
0100
0001
0000
,
1000
0010
0100
0000
0000
0000
0000
0000
,
0002
2003
3002
1003
,
2002
0000
0000
0000
,
0000
0000
0000
3003
,
0001
0100
0001
0100
0010
0100
0010
0000
,
1000
0100
1000
0100
0010
0100
0010
0000
,
0001
0100
0001
0100
0001
1000
0001
0000
,
1000
0100
1000
0100
1000
0001
1001
0000
,
1000
0001
1000
0001
1000
0100
0001
0000
,
0100
1000
0100
1000
0001
1000
0001
0000
,
0001
0100
0001
0100
0001
0100
1000
0000
,
0100
0001
0100
0001
0020
0000
1030
0000
,
0010
0001
0010
0100
0000
0100
1000
0001
,
0000
0001
0100
0010
0100
0010
1000
0001
,
0000
0001
1000
0100
0000
0100
1000
0001
,
0000
0000
0001
0000
0010
0000
0100
0000
1000
0001
1000
0000
0001
0100
0001
0000
,
1000
0100
0010
0100
0000
0100
1000
0001
,
0000
0001
0010
0100
0010
0100
0010
0001
,
0000
0001
0100
0010
0000
0010
1000
0001
,
0000
0001
0100
0010
0100
0001
1000
0100
,
0010
0002
0000
0000
0000
0000
0003
0000
,
0001
0200
0000
0000
0000
0000
0300
0000
,
0010
2000
0000
0000
0000
0000
3000
0000
,
0001
0020
0000
0000
0000
0000
0030
0000
,
0200
0000
0000
0000
,
0000
0000
0000
0300
,
2000
0000
3002
0000
,
2003
3100
0002
0103
,
1000
0010
1000
0010
0100
0010
0100
0001
,
0100
0001
1000
0001
1000
0001
0010
0100
,
0010
0000
0010
0100
1000
0001
1000
0001
,
1000
0100
1000
0100
1000
0001
0100
0001
,
0200
0000
0000
0000
1300
0100
0001
0100
,
2000
0000
0000
3000
,
1000
0001
0010
1000
0010
0001
0100
0010
,
1000
0010
0001
0010
1000
0100
0010
0001
,
0100
0001
0100
0001
1000
0001
1000
0000
,
0001
0100
0001
0000
1000
0100
1000
0000
,
0001
0010
1000
0000
0010
0000
0001
0000
,
0100
0010
0100
0001
2000
0000
3001
0000
,
0100
1000
0100
1000
0001
1000
0001
0000
,
1000
0100
1000
0000
0001
0100
0001
0000
,
1000
0010
0001
0000
0010
0000
1000
0000
,
0002
1003
2000
3001
,
1000
0001
0100
0100
0001
1000
0100
0100
,
1000
0001
0100
0100
0001
0010
0100
0000
,
1000
0010
0100
0000
0000
0000
0000
0000
,
0002
1003
2000
3001
,
0001
1000
0100
0100
1000
0001
0100
0100
,
0001
1000
0100
0100
1000
0010
0100
0000
,
0001
0010
0100
0000
0000
0000
0000
0000
,
0020
0130
0200
0310
,
0020
0200
0000
0000
0000
0000
0000
0000
,
0000
0000
0000
0330
;

//---------------dance-single - ----------------
#NOTES:
     dance-single:
     :
     Challenge:
     9:
     0.622,0.810,0.230,0.153,0.167:
1000
0100
0000
0100
0000
0100
1000
0001
,
0100
0001
0000
0001
0000
0001
0010
0100
,
0010
0100
0000
0100
0000
0100
1000
0001
,
1000
0100
0000
0100
1000
0000
0001
0000
,
0100
0001
0000
0001
0000
0001
0100
0010
,
0100
0010
0000
0010
0000
0010
1000
0001
,
1000
0100
0000
0100
0000
0100
1000
0001
,
0100
0001
0000
0001
2000
0000
3001
0000
,
0101
0001
0010
0100
1000
0001
0100
0000
,
0001
0010
1000
0000
1000
0100
0001
0000
,
0001
0010
0100
0000
1000
0000
1000
0000
,
1000
0010
0001
0010
2000
0000
3001
0000
,
1100
0100
0010
0001
0100
0010
1000
0000
,
0001
0100
1000
0000
1000
0010
0001
0000
,
0001
0100
0010
0000
1000
0000
0001
0000
,
1100
0101
1100
0101
,
2002
0000
0000
0000
,
0000
0000
0000
3003
,
0100
0001
0010
0100
1000
0100
0001
0000
,
0100
1000
0010
0100
0001
0010
1000
0000
,
0010
0001
0100
0010
1000
0001
0100
0000
,
1000
0100
0001
0010
0100
1000
1001
0000
,
0100
1000
0010
0100
0010
0100
1000
0000
,
0100
0001
0010
0100
1000
0010
0001
0000
,
0010
1000
0100
0010
0100
0010
0100
0000
,
0001
0100
1000
0001
0100
0010
1001
0000
,
0010
0000
0100
0001
0100
0000
0010
0000
1000
0000
0010
1000
0010
0000
0100
0000
,
0001
0000
0010
0001
0010
0000
0100
0000
0010
0000
0100
0000
1000
0000
0100
0000
,
0010
0000
0001
0010
0001
0000
0010
0000
0100
0000
1000
0100
1000
0000
0010
0000
,
1000
0000
0010
1000
0010
0000
0100
0000
0001
1000
0001
0000
1000
0001
1000
0000
,
0001
0000
0100
0001
0100
0000
0010
0000
1000
0000
0100
1000
0100
0000
0010
0000
,
0001
0000
0100
0001
0100
0000
0001
0000
0010
0000
0100
0000
0010
0000
0100
0000
,
1000
0000
0001
0100
0001
0000
0100
0000
0010
0000
1000
0010
1000
0000
0010
0000
,
0100
0000
0001
1000
0001
0000
1000
0000
0100
0010
0100
0000
0010
0100
0010
0000
,
0001
1000
0002
0000
0000
0000
0000
0000
0000
0000
0000
0000
0003
0000
0000
0000
,
1000
0100
2000
0000
0000
0000
0000
0000
0000
0000
0000
0000
3000
0000
0000
0000
,
0010
0100
0020
0000
0000
0000
0000
0000
0000
0000
0000
0000
0030
0000
0000
0000
,
0100
0001
0200
0000
0000
0000
0000
0000
0000
0000
0000
0000
0300
0000
0000
0000
,
0002
0000
0000
0000
,
0000
0000
0000
0003
,
2000
0000
3002
0000
,
2003
0000
3001
0000
1000
0100
0001
0100
,
0010
0100
1000
0100
0001
0100
1000
0001
,
0100
1000
0100
0001
1000
0010
1000
0001
,
0100
0000
0001
0100
0001
0000
0010
0000
1000
0000
0010
0000
0001
0000
1000
0000
,
0010
0001
0010
1000
0001
1000
0100
1000
,
0002
0000
0000
0000
0103
0001
0010
0001
,
0200
0000
0000
0300
,
0010
1000
0010
0000
0100
0001
0100
0000
0001
0010
0001
0000
1000
0100
1000
0000
,
0001
0010
0100
0000
1000
0010
0100
0000
0001
0100
0010
0000
1000
0100
0010
0000
,
0001
0100
0010
1000
0100
1000
0001
0000
,
1000
0100
0001
0000
0001
0010
1000
0000
,
1000
0001
0100
0000
0001
0000
0001
0000
,
1001
1000
0001
0100
1001
0000
1001
0000
,
1000
0010
0100
0001
0010
0001
1000
0000
,
0001
0100
1000
0000
1000
0010
0001
0000
,
0001
0100
0010
0000
1000
0000
0100
0000
,
0110
1001
0110
1001
,
1000
0000
0001
0000
0100
0010
0100
0000
0001
0000
1000
0000
0100
0010
0100
0000
,
1000
0000
0001
0000
0100
0010
0100
0000
0001
0000
1000
0000
0100
0000
0000
0000
,
0010
0001
0100
0000
0010
0000
0010
0000
,
1001
0110
1001
0110
,
0001
0000
1000
0000
0010
0100
0010
0000
1000
0000
0001
0000
0010
0100
0010
0000
,
0001
0000
1000
0000
0010
0100
0010
0000
1000
0000
0001
0000
0100
0000
0000
0000
,
0010
1000
0100
0000
0010
0000
0001
0000
,
0110
1001
0110
1001
,
2000
0002
0000
0000
0000
0000
0000
0000
,
0000
0000
0000
3003
;

//---------------dance-single - ----------------
#NOTES:
     dance-single:
     :
     Medium:
     6:
     0.435,0.551,0.258,0.363,0.000:
2000
0000
0000
3000
,
0020
0000
0000
0030
,
0200
0000
0000
0300
,
0002
0003
1000
0001
,
0020
0000
0000
0030
,
0200
0000
0000
0300
,
2000
0000
0000
3000
,
0002
0003
0100
0010
,
1000
0000
0001
0000
1000
0001
1000
0000
,
0020
0130
0020
0130
,
0001
1000
0001
0000
0000
0000
0000
0000
,
1000
0000
0110
1001
,
0001
0000
1000
0000
0001
0100
0001
0000
,
0200
0310
0200
0310
,
1000
0001
1000
0000
0000
0000
0000
0000
,
0002
1003
2000
3001
,
2002
0000
0000
0000
,
0000
0000
0000
3003
,
1000
0000
0001
0000
1000
0100
1000
0000
,
0001
0000
1000
0000
0001
0100
0001
0000
,
1000
0000
0001
0000
1000
0010
1000
0000
,
0001
0000
1000
0000
0001
0010
0010
0000
,
0001
0000
0100
0000
0010
1000
0010
0000
,
1000
0000
0100
0000
0010
0001
0010
0000
,
0001
0000
0100
0000
0010
1000
0010
0000
,
1000
0000
0100
0000
0010
0100
0100
0000
,
1000
0001
0000
0001
0100
0000
0010
0000
,
1000
0100
0000
0100
1000
0000
0010
0000
,
0100
0001
0000
0001
0100
0000
0001
0000
,
1000
0100
0000
0100
1000
0000
1001
0000
,
1000
0100
0000
0100
0010
0000
0001
0000
,
0001
0100
0000
0100
0001
0000
0010
0000
,
0100
1000
0000
1000
0001
0000
1000
0000
,
0010
0100
0000
0100
0010
0000
1000
0000
,
2002
0000
0000
3003
,
2002
0000
0000
3003
,
2002
0000
0000
3003
,
2002
0000
0000
3003
,
0220
0000
0000
0000
,
0000
0000
0000
0330
,
0020
0000
0230
0000
,
0320
0130
0010
1000
,
0001
0100
0001
0000
1000
0100
1000
0000
,
0001
0010
0100
1000
0001
0000
1001
0000
,
1000
0100
1000
0000
0001
0100
0001
0000
,
1000
0010
0100
0001
1000
0000
1001
0000
,
2000
0000
0000
0000
3001
1000
0100
1000
,
0002
0000
0010
0013
,
0100
1000
0100
0010
0001
0010
0100
1000
,
0010
0100
0001
0100
0010
1000
0010
0100
,
0001
0000
1001
0000
1000
0001
0100
0000
,
0002
1003
2000
3001
,
0001
1000
0100
0000
0000
0000
0000
0000
,
0020
0000
0130
0110
,
0010
0000
1001
0000
0100
1000
0001
0000
,
2000
3001
0002
1003
,
1000
0001
0100
0000
0000
0000
0000
0000
,
0101
0101
1001
1001
,
0001
0100
0001
0000
0100
1000
0100
0000
,
1000
0010
1000
0000
0010
0001
0010
0000
,
0001
1000
0100
0000
0000
0000
0000
0000
,
1100
1100
1001
1001
,
1000
0100
1000
0000
0100
0001
0100
0000
,
0001
0010
0001
0000
0010
1000
0010
0000
,
1000
0001
0100
0000
0000
0000
0000
0000
,
0101
1010
1100
0011
,
2002
0000
0000
0000
,
0000
0000
0000
3003
;

//---------------dance-single - ----------------
#NOTES:
     dance-single:
     :
     Easy:
     4:
     0.340,0.551,0.191,0.411,0.000: // measure 1
2000
0000
0000
3000
,  // measure 2
0002
0000
0000
0003
,  // measure 3
0200
0000
0000
0300
,  // measure 4
0020
0000
0130
0010
,  // measure 5
2000
0000
0000
3000
,  // measure 6
0200
0000
0000
0300
,  // measure 7
2000
0000
0000
3000
,  // measure 8
0002
0000
0103
0010
,  // measure 9
1000
0010
0100
0001
,  // measure 10
1000
1000
0001
0001
,  // measure 11
1000
1001
0000
0000
,  // measure 12
2000
0000
0001
3001
,  // measure 13
0010
1000
0010
0100
,  // measure 14
0001
0001
1000
1000
,  // measure 15
0001
1001
0000
0000
,  // measure 16
2000
3001
2000
3001
,  // measure 17
0200
0000
0000
0000
,  // measure 18
0000
0000
0000
0300
,  // measure 19
0001
1000
0100
0010
,  // measure 20
0010
0100
1000
0001
,  // measure 21
0100
0001
0010
0100
,  // measure 22
0100
0010
0001
1001
,  // measure 23
0100
1000
0001
0010
,  // measure 24
0010
0001
0100
0001
,  // measure 25
0010
0001
1000
0001
,  // measure 26
0001
0100
0010
0110
,  // measure 27
0020
0030
0200
0300
,  // measure 28
0002
0003
1000
0100
,  // measure 29
2000
3000
0200
0300
,  // measure 30
0020
0030
0100
0110
,  // measure 31
0200
0300
2000
3000
,  // measure 32
0002
0003
0100
0010
,  // measure 33
0200
0300
0002
0003
,  // measure 34
2000
3000
0100
0110
,  // measure 35
0020
0000
0000
0030
,  // measure 36
0002
0000
0000
0003
,  // measure 37
0200
0000
0000
0300
,  // measure 38
0020
0000
0000
0030
,  // measure 39
2000
0000
0000
0000
,  // measure 40
0000
0000
0000
3000
,  // measure 41
0002
0000
2003
0000
,  // measure 42
3001
1000
0001
1000
,  // measure 43
0001
0100
0001
0100
,  // measure 44
0010
0100
0010
1000
,  // measure 45
1001
0001
1000
0001
,  // measure 46
1000
0100
1000
0100
,  // measure 47
0020
0000
0100
0100
,  // measure 48
0200
0000
0000
0330
,  // measure 49
0010
0100
1000
0010
,  // measure 50
0100
0001
0010
0100
,  // measure 51
1000
1000
0001
0001
,  // measure 52
1000
0100
0001
0100
,  // measure 53
1000
1000
0000
0000
,  // measure 54
0001
0000
1001
1001
,  // measure 55
0001
0001
1000
1000
,  // measure 56
0001
0100
1000
0100
,  // measure 57
0001
0001
0000
0000
,  // measure 58
1000
0000
1001
1001
,  // measure 59
2001
3100
1002
0103
,  // measure 60
2001
3100
1002
0103
,  // measure 61
0010
0010
0000
0000
,  // measure 62
0100
0010
0100
0010
,  // measure 63
1002
0103
2001
3100
,  // measure 64
1002
0103
2001
3100
,  // measure 65
0010
0010
0000
0000
,  // measure 66
0100
0010
0100
0010
,  // measure 67
0220
0000
0000
0000
,  // measure 68
0000
0000
0000
0330
;
