#TITLE:FOREVER LOVE;
#SUBTITLE:;
#ARTIST:FIN.K.L;
#TITLETRANSLIT:;
#SUBTITLETRANSLIT:;
#ARTISTTRANSLIT:;
#GENRE:;
#CREDIT:;
#BANNER:103 - Forever Love - Fin.K.L-banner.png;
#BACKGROUND:103 - Forever Love - Fin.K.L-bg.png;
#LYRICSPATH:;
#CDTITLE:cdtitle.png;
#MUSIC:103 - Forever Love - Fin.K.L.ogg;
#OFFSET:-0.070000;
#SAMPLESTART:55.308998;
#SAMPLELENGTH:18.250000;
#SELECTABLE:YES;
#BPMS:0.000000=138.039994;
#STOPS:;
#DELAYS:;
#TIMESIGNATURES:0.000000=4=4
;
#BGCHANGES:;
#KEYSOUNDS:;
#ATTACKS:;

//---------------dance-double - Kyzentun----------------
#NOTES:
     dance-double:
     Kyzentun:
     Challenge:
     9:
     0.431,0.613,0.010,0.352,0.371,279.000,1.000,37.000,57.000,110.000,0.000,0.000,0.431,0.613,0.010,0.352,0.371,279.000,1.000,37.000,57.000,110.000,0.000,0.000:
00000000
00000000
00000000
00000000
,
00000000
00000000
00000000
00000000
,
00000000
00000000
00000000
00000000
,
00000000
00000000
00000000
00000000
,
00000000
00000000
00000000
00000000
,
00000000
00000000
00000000
00000000
,
00000000
00000000
00000000
00000000
,
00022000
00000010
00100000
00000010
,
00133000
00000000
00000000
00000000
00000000
00000000
00010000
00001000
00010000
00000000
00000000
00000100
00000000
00000000
00000010
00000000
,
00000020
M0000000
00000000
M0000001
00000002
M0000000
00001000
00000000
,
00001000
00000000
00001000
00000000
00001000
00000000
00000033
00001000
,
00002000
00000000
00000000
00000010
00000020
00000000
00010000
00000000
,
00000001
00000000
00000000
00000000
00003030
00000000
00010000
00001000
00010000
00000000
00000000
00001000
00000000
00000000
01000000
00000000
,
02000000
00000000
0000000M
00000000
00000000
00000000
0000100M
00000000
00002000
00000000
0000000M
00000000
00100000
00000000
10000000
00010000
,
10000000
00000000
00100000
10000000
00010000
00100000
00010000
10000000
00100000
10000000
00010000
00100000
00010000
10000000
00100000
10000000
,
03013000
00000000
00000000
00000000
00000000
00000000
01000000
00000000
00010000
00000000
00000000
10000000
00000000
00000000
01000000
00000000
,
00100000
00000000
00100000
00000000
00010000
00000010
00000000
00000010
,
00000100
00000000
00000100
00000000
00000100
00000010
00000001
00000100
,
00002000
00000000
00013000
00100000
00000000
10000000
00000000
00100000
,
10000000
00000000
00000000
00000000
10000000
00000000
00000000
00000000
10000000
00000000
00000000
01000000
00000000
00000000
00010000
00000000
,
00001000
00000010
00000001
00001000
00000001
00000000
00000001
00000010
,
00000001
00000000
00000001
00000000
00000001
00000010
00001000
00010000
,
00002000
00000000
00000000
00000000
02000000
00000000
00000000
00000000
2000000M
00000000
00000000
0000000M
0020000M
00000000
0000000M
00003000
,
3330100M
0000000M
00000000
00000000
00000000
00000000
01000000
00000000
01000000
00000000
00000000
00010000
00000000
00000000
00100000
00000000
,
00100000
00000000
00000000
00000000
00100000
00000000
00000000
00000000
00100000
00000000
00000000
01000000
00000000
00000000
00010000
00000000
,
00001000
00000000
00001000
00000000
00001000
00010000
00001000
00000100
,
00000001
00000000
00000010
00001000
00000000
00010000
00000000
00100000
,
01000000
00000000
00000000
00000000
01000000
00000000
00000000
00000000
01000000
00000000
00000000
10000000
00000000
00000000
01000000
00000000
,
00100000
00010000
00001000
00000010
00000001
00000000
00000001
00000010
,
M0000200
00000000
00020000
00000000
00001000
00002000
00000000
00200000
,
00000000
00000000
00000000
00000000
M0000000
00000000
00000000
00000000
M0000000
M0000000
00303000
M0000000
M0000010
00000000
M0000001
00001000
,
M0000001
00000000
00000010
00000001
00001000
00000010
00001000
00000001
00000010
00000001
00001000
00000010
00001000
00000001
00000010
00000001
,
00002000
00000000
00000000
00000000
,
00003000
00000000
00000000
00000000
00000000
00000000
00000010
00000000
00000010
00000000
00030300
00000100
00000000
00000000
02000000
00000000
,
00020000
00000000
00000000
00100000
00200000
00000000
00000000
00000000
,
00000000
00000000
00000000
00000000
03330000
00000000
00000000
02000000
,
00200000
00000000
00000000
20000000
00002000
00000000
00000000
00000000
,
00000000
00000000
00000000
00000000
33303000
00000000
00000000
00000000
01000000
00000000
00000000
00010000
00000000
00000000
01000000
00000000
,
00001000
00000000
00000000
00000000
02000000
00000000
00000200
00000000
00000000
00000000
00000000
00000000
00100000
00000000
00001000
00010000
,
00001000
00000000
00100000
00001000
00100000
00000010
00010000
00000010
00100000
00001000
00100000
00000010
00010000
00000010
00100000
00001000
,
00200000
00000000
00000000
00000000
,
03300300
00000000
00000000
00000000
00000000
00000000
01000000
00000000
00001000
00000000
00000000
00010000
00000000
00000000
00000200
00000000
,
00000020
00000000
00000000
00000000
00000000
00000001
00000000
00000002
,
00000000
00000000
00000000
00000000
00000000
00001000
00001000
00001000
,
00001333
00000000
00000100
00000010
00000100
00000000
00000100
00000010
,
00001000
00000000
00010000
00100000
00000000
10000000
00000000
00010000
,
00100000
00000000
00000000
00001000
00000000
00000000
00100000
00000000
00000000
00001000
00000000
00000000
00100000
00000000
00000000
00001000
00000000
00000000
00100000
00000000
00000000
00001000
00000000
00000000
00100000
00000000
00000000
00001000
00000000
00000000
00100000
00000000
00000000
00001000
00000000
00000000
00100000
00000000
00001000
00000000
00100000
00000000
00001000
00000000
00100000
00000000
00001000
00000000
,
00100000
00000000
00000000
00001000
00010000
00000000
00000100
00000000
,
00000010
00000010
00000010
00000010
,
00000010
00000000
00000000
00000000
00000010
00000000
00000001
00001000
00000001
00000000
00000100
00000000
00000000
00000000
00001000
00000000
,
00002000
00000000
00000000
00010000
00020000
00000000
00000010
00000000
,
00100000
00000000
00000010
00000000
00100000
00000000
00033000
00001000
,
00002000
00000000
00000000
01000000
02000000
00000000
00100000
00000000
,
00010000
00000000
00000000
00000000
03003000
00000000
01000000
00001000
01000000
00000000
00000100
00000000
00000000
00000000
00010000
00000000
,
00020000
00000000
00000000
00000000
00000000
00000000
00000000
00000000
0M000000
00000M00
0M000000
00000M00
0M001000
00000M00
0M000000
00000M00
0M002000
00000M00
0M000000
00000M00
0M000000
00000M00
0M000000
00000M00
0M000010
00000M00
0M000000
00000M00
0M100000
00000M00
0M000001
00000M00
,
0M100000
00000M00
0M000010
10000M00
0M000010
00100M00
0M000001
00100M00
0M000010
10000000
00000M10
00100000
0M000001
00100000
00000M10
10000000
,
0M033010
00000000
00000000
00000000
;

//---------------dance-double - Kyzentun----------------
#NOTES:
     dance-double:
     Kyzentun:
     Hard:
     9:
     0.450,0.613,0.010,0.314,0.271,297.000,1.000,33.000,0.000,0.000,0.000,0.000,0.450,0.613,0.010,0.314,0.271,297.000,1.000,33.000,0.000,0.000,0.000,0.000:
00000000
00000000
00000000
00000000
,
00000000
00000000
00000000
00000000
,
00000000
00000000
00000000
00000000
,
00000000
00000000
00000000
00000000
,
00000000
00000000
00000000
00000000
,
00000000
00000000
00000000
00000000
,
00000000
00000000
00000000
00000000
,
00022000
00000000
00000000
00000000
,
00033000
00000000
00000000
00000000
00000000
00000000
00010000
00001000
00010000
00000000
00000000
00000100
00000000
00000000
00000010
00000000
,
00000020
00000000
00000000
00000031
00000002
00000000
00001000
00000000
,
00010000
00000000
00000010
00000000
00001000
00000000
00000003
00001000
,
00002000
00000000
00000000
00003010
00000020
00000000
00100000
00000000
,
00010000
00000000
00000000
00000000
00000030
00000000
00010000
00001000
00010000
00000000
00000000
00001000
00000000
00000000
01000000
00000000
,
02000000
00000000
00000000
00000000
00000000
00000000
03001000
00000000
00002000
00000000
01003000
00010000
01000000
00000000
00100000
10000000
,
00100000
00000000
10000000
00100000
10000000
00010000
00100000
00010000
10000000
00100000
10000000
00010000
00100000
00010000
10000000
00100000
,
10000000
00000000
00000000
00000000
00000000
00000000
00010000
00000000
00100000
00000000
00000000
01000000
00000000
00000000
00010000
00000000
,
00001000
00000000
00001000
00000000
00010000
00000010
00000000
00000010
,
00000100
00000000
00000100
00000000
00000100
00001000
00010000
00100000
,
02000000
00000000
03010000
00100000
00000000
01000000
00000000
10000000
,
00010000
00000000
00000000
00000000
00010000
00000000
00000000
00000000
01000000
00000000
00000000
00100000
00000000
00000000
00010000
00000000
,
00001000
00000010
00000001
00001000
00000100
00000000
00000100
00000010
,
00000001
00000000
00000100
00000000
00000001
00000010
00001000
00010000
,
00002000
00000000
00103000
00200000
02000000
00300000
23000000
00010000
,
30010000
00000000
00000000
00000000
00000000
00000000
01000000
00000000
01000000
00000000
00000000
00010000
00000000
00000000
00100000
00000000
,
00100000
00000000
00000000
00000000
00100000
00000000
00000000
00000000
00100000
00000000
00000000
01000000
00000000
00000000
00010000
00000000
,
00001000
00000000
00000010
00000000
00001000
00010000
00001000
00000100
,
00000001
00000000
00000010
00001000
00000000
00010000
00000000
00100000
,
01000000
00000000
00000000
00000000
00010000
00000000
00000000
00000000
01000000
00000000
00000000
10000000
00000000
00000000
01000000
00000000
,
00100000
00010000
00001000
00000010
00000001
00000000
00000001
00000010
,
00000200
00000000
00020300
00000000
00031000
00002000
00000000
00000020
,
00000000
00000000
00000000
00000000
00000000
00000000
00000000
00000000
00000000
00000000
00003030
00000000
00000010
00000000
00000001
00001000
,
00000001
00000000
00000010
00000001
00001000
00000010
00001000
00000001
00000010
00000001
00001000
00000010
00001000
00000001
00000010
00000001
,
00002000
00000010
00000001
00000100
,
00003010
00000000
00000000
00000000
00000000
00000000
00000010
00000000
00000010
00000000
00000000
00000100
00000000
00000000
00001000
00000000
,
00020000
00000000
00000000
01030000
00200000
00000000
00010000
00000000
,
10000000
00000000
01000000
00000000
00301000
00000000
00000000
00001000
,
00020000
00000000
00000000
00030100
00000020
00000000
00000001
00000000
,
00000100
00000000
00000000
00000000
00001030
00000000
00000000
00000000
00000010
00000000
00000000
00001000
00000000
00000000
00100000
00000000
,
00001000
00000000
00000000
00000000
00010000
00000000
00000020
00000000
00000000
00000000
00000000
00000000
00100030
00000000
00001000
00010000
,
00001000
00000000
00100000
00001000
00100000
00000010
00010000
00000010
00100000
00001000
00100000
00000010
00010000
00000010
00100000
00001000
,
00200000
00010000
01000000
10000000
,
01300000
00000000
00000000
00000000
00000000
00000000
00100000
00000000
00001000
00000000
00000000
00010000
00000000
00000000
00000100
00000000
,
00000020
00000000
00000001
00000000
00000000
00000001
00000000
00000032
,
00001000
00000000
00000100
00000000
00000000
00001000
00001000
00001003
,
00000001
00000000
00000001
00000100
00000010
00000000
00000010
00000100
,
00001000
00000000
00010000
00100000
00000000
10000000
00000000
00010000
,
00100000
00000000
00000000
00001000
00000000
00000000
00100000
00000000
00000000
00001000
00000000
00000000
00100000
00000000
00000000
00001000
00000000
00000000
00100000
00000000
00000000
00001000
00000000
00000000
00100000
00000000
00000000
00001000
00000000
00000000
00100000
00000000
00000000
00001000
00000000
00000000
00100000
00000000
00001000
00000000
00100000
00000000
00001000
00000000
00100000
00000000
00001000
00000000
,
00100000
00000000
00000000
00001000
00010000
00000000
00000100
00000000
,
00000020
00000100
00001000
00000001
,
00000100
00000000
00000000
00000000
00000031
00000000
00000010
00000100
00000010
00000000
00000100
00000000
00000000
00000000
00010000
00000000
,
00020000
00000000
00000000
00031000
00002000
00000000
00100000
00000000
,
01000000
00000000
00010000
00000000
00103000
00000000
00000000
00001000
,
00002000
00000000
00000000
01003000
02000000
00000000
00100000
00000000
,
00010000
00000000
00000000
00000000
03000000
00000000
01000000
00001000
01000000
00000000
00000100
00000000
00000000
00000000
00010000
00000000
,
00020000
00000000
00000000
00000000
00000000
00000000
00030100
00000000
00000200
00000000
00000000
00000000
01000300
00000000
00000100
00010000
,
00000100
00000000
01000000
00001000
01000000
00000100
00010000
00000100
01000000
00001000
01000000
00000100
00010000
00000100
01000000
00001000
,
01000000
00000000
00000000
00000000
;

//---------------dance-double - Kyzentun----------------
#NOTES:
     dance-double:
     Kyzentun:
     Medium:
     7:
     0.352,0.426,0.010,0.362,0.067,220.000,1.000,38.000,0.000,58.000,0.000,0.000,0.352,0.426,0.010,0.362,0.067,220.000,1.000,38.000,0.000,58.000,0.000,0.000:
00000000
00000000
00000000
00000000
,
00000000
00000000
00000000
00000000
,
00000000
00000000
00000000
00000000
,
00000000
00000000
00000000
00000000
,
00000000
00000000
00000000
00000000
,
00000000
00000000
00000000
00000000
,
00000000
00000000
00000000
00000000
,
00022000
00000010
00100000
00000010
,
00133000
00000000
00000000
00000000
00000000
00000000
00001000
00010000
00001000
00000000
00000000
00100000
00000000
00000000
01000000
00000000
,
02000000
00000000
00000000
10000000
20000000
00000000
00010000
00000000
,
00010000
00000000
00010000
00000000
00010000
00000000
33000000
00010000
,
00020000
00000000
00000000
01000000
02000000
00000000
00100000
00000000
,
10000000
00000000
00000000
00000000
03030000
00000000
00010000
01000000
00010000
00000000
00000000
01000000
00000000
00000000
00001000
00000000
,
00002000
00000000
00000000
00010000
00020000
00000000
00000010
00000000
,
00100000
00000000
00000010
00000000
00100000
00000010
00100000
00000010
,
00133000
00000000
00000000
00000000
00000000
00000000
00001000
00000000
00010000
00000000
00000000
00000100
00000000
00000000
00000010
00000000
,
00000100
00000000
00000100
00000000
00000010
00001000
00000000
00001000
,
00010000
00000000
00010000
00000000
00010000
00001000
00100000
01000000
,
20000000
00000000
30010000
01000000
00000000
00100000
00000000
00010000
,
00001000
00000000
00000000
00000000
00001000
00000000
00000000
00000000
00010000
00000000
00000000
00000010
00000000
00000000
00000100
00000000
,
00000001
00000100
00001000
00010000
00001000
00000000
00001000
01000000
,
00001000
00000000
00001000
00000000
00001000
00100000
00001000
00010000
,
00000200
00002300
00000002
00000020
,
00003033
00000000
00000000
00000000
00000000
00000000
00001000
00000000
00001000
00000000
00000000
00000001
00000000
00000000
00000100
00000000
,
00000100
00000000
00000000
00000000
00000100
00000000
00000000
00000000
00000100
00000000
00000000
00000010
00000000
00000000
00001000
00000000
,
00000100
00000000
00000100
00000000
00000100
00010000
00000100
00010000
,
00001000
00000000
00100000
00010000
00000000
10000000
00000000
00100000
,
01000000
00000000
00000000
00000000
01000000
00000000
00000000
00000000
00100000
00000000
00000000
00010000
00000000
00000000
00001000
00000000
,
00010000
00001000
00000010
00000100
00001000
00000000
00001000
00000100
,
00020000
00000000
00000200
00000000
00000010
00000020
00000000
00000002
,
00000000
00000000
00000000
00000000
00000000
00000033
00000010
00000000
,
00000001
00000000
00000010
00000000
00000001
00000010
00000001
00000010
,
00000002
00000000
00000000
00000000
,
00030303
00000000
00000000
00000000
00000000
00000000
00010000
00000000
00000100
00000000
00000000
00001000
00000000
00000000
00000002
00000000
,
00000200
00000000
00000000
00000010
00000020
00000000
00000000
00000000
,
00000000
00000000
00000000
00000000
00000333
00000000
00000000
00000002
,
00002000
00000000
00000000
00000020
00020000
00000000
00000000
00000000
,
00000000
00000000
00000000
00000000
00033033
00000000
00000000
00000000
00000001
00000000
00000000
00000010
00000000
00000000
00001000
00000000
,
00010000
00000000
00002000
02000000
00000000
00000000
00100000
00000000
,
10000000
00000000
00100000
00000000
10000000
00100000
10000000
00100000
,
20000000
00000000
00000000
00000000
,
33003000
00000000
00000000
00000000
00000000
00000000
00001000
00000000
01000000
00000000
00000000
00010000
00000000
00000000
20000000
00000000
,
02000000
00000000
00000000
00000000
00000000
00010000
00000000
00020000
,
00000000
00000000
00000000
00000000
,
33030000
00000000
10000000
01000000
10000000
00000000
10000000
01000000
,
00010000
00000000
00001000
00000100
00000000
00000001
00000000
00001000
,
00000100
00001000
00000100
00010000
00001000
00010000
00001000
00000100
,
00000001
00000000
00000000
00000010
00001000
00000000
00010000
00000000
,
00200000
01000000
01000000
01000000
,
01000000
00000000
00000000
00000000
01300000
00000000
00100000
10000000
00100000
00000000
10000000
00000000
00000000
00000000
01000000
00000000
,
02000000
00000000
00000000
00100000
00200000
00000000
00010000
00000000
,
00010000
00000000
00010000
00000000
00010000
00000000
03300000
00100000
,
00200000
00000000
00000000
00001000
00002000
00000000
00010000
00000000
,
00010000
00000000
00000000
00000000
00303000
00000000
00001000
00010000
00001000
00000000
00010000
00000000
00000000
00000000
00001000
00000000
,
00002000
00000000
00000000
00010000
00020000
00000000
00000010
00000000
,
00100000
00000000
00000010
00000000
00100000
00000010
00100000
00000010
,
00133000
00000000
00000000
00000000
;

//---------------dance-double - Kyzentun----------------
#NOTES:
     dance-double:
     Kyzentun:
     Easy:
     5:
     0.246,0.266,0.019,0.352,0.000,142.000,2.000,37.000,0.000,32.000,0.000,0.000,0.246,0.266,0.019,0.352,0.000,142.000,2.000,37.000,0.000,32.000,0.000,0.000:
00000000
00000000
00000000
00000000
,
00000000
00000000
00000000
00000000
,
00000000
00000000
00000000
00000000
,
00000000
00000000
00000000
00000000
,
00000000
00000000
00000000
00000000
,
00000000
00000000
00000000
00000000
,
00000000
00000000
00000000
00000000
,
00022000
00000000
00100000
00000000
,
00133000
00000000
00000000
00001000
00010000
00001000
00000000
00000000
,
02000000
00000000
00200000
00000000
,
10000000
00000000
10000000
03300000
,
20000000
00000000
02000000
00000000
,
00010000
00000000
33000000
10000000
01000000
00100000
00000000
00000000
,
00002000
00000000
00020000
00000000
,
00100000
00000000
00000010
00100000
,
00033010
00000000
00010000
00001000
,
00000100
00000100
00000010
00001000
,
00000100
00010000
00010000
00001000
,
00200000
01300000
10000000
01000000
,
00010000
00010000
00001000
00000100
,
00000001
00000100
00001000
00001000
,
00000100
00000010
00010000
00001000
,
00200000
00320000
20030000
30020000
,
00030000
00000000
01000000
00001000
,
00010000
00000010
00000100
00001000
,
00000100
00000100
00000001
00000010
,
00001000
00010000
00001000
00100000
,
01000000
01000000
00010000
00001000
,
00010000
00000010
00000100
00001000
,
00000200
00000002
00000000
00000020
,
00002000
00000000
00003030
00000010
,
00000000
00001000
00000010
00001000
,
00000020
00000000
00000000
00000000
,
00000333
00000000
00000100
00002000
,
00020000
00000000
00000020
00000000
,
00000000
00000000
00033030
00002000
,
02000000
00000000
00200000
00000000
,
00000000
03303000
00001000
00010000
,
00100000
02000000
00020000
00000000
,
00100000
10000000
00100000
10000000
,
00200000
00000000
00000000
00000000
,
03330000
01000000
00010000
00200000
,
02000000
00000000
00000000
00000000
00000000
00010000
00000000
00020000
,
00000000
00000000
00000000
00000000
,
03330000
00100000
00001000
00010000
,
00010000
00000100
00000010
00000001
,
00001000
00000100
00010000
01000000
,
10000000
00000000
00010000
10000000
,
00200000
00000000
01000000
00000000
,
01000000
00000000
00300000
00100000
10000000
00100000
00000000
00000000
,
02000000
00000000
00002000
00000000
,
00010000
00000000
00010000
03003000
,
00020000
00000000
00002000
00000000
,
00100000
00000000
00033000
00010000
00000100
00010000
00000000
00000000
,
00002000
00000000
00020000
00000000
,
00000010
00000000
00100000
00000010
,
00133010
00000000
00000000
00000000
;

//---------------dance-single - Kyzentun----------------
#NOTES:
     dance-single:
     Kyzentun:
     Challenge:
     9:
     0.429,0.613,0.010,0.352,0.266,278.000,1.000,37.000,6.000,110.000,0.000,0.000,0.429,0.613,0.010,0.352,0.266,278.000,1.000,37.000,6.000,110.000,0.000,0.000:
0000
0000
0000
0000
,
0000
0000
0000
0000
,
0000
0000
0000
0000
,
0000
0000
0000
0000
,
0000
0000
0000
0000
,
0000
0000
0000
0000
,
0000
0000
0000
0000
,
2002
0010
0010
0010
,
3013
0000
0000
0000
0000
0000
0001
1000
0001
0000
0000
0100
0000
0000
0010
0000
,
0020
000M
0000
000M
2000
000M
0001
0000
,
0001
0000
0001
0000
0001
0000
3030
0001
,
0002
0000
0000
0010
0020
0000
1000
0000
,
1000
0000
0000
0000
0033
0000
0001
1000
0001
0000
0000
0100
0000
0000
0001
0000
,
0002
0000
M000
0000
0000
0000
M100
0000
0200
0000
M000
0000
0010
0000
1000
0010
,
1000
0000
0010
1000
0010
1000
0010
1000
0010
1000
0010
1000
0010
1000
0010
1000
,
0313
0000
0000
0000
0000
0000
0001
0000
0010
0000
0000
0100
0000
0000
1000
0000
,
0010
0000
0010
0000
0100
0001
0000
0001
,
1000
0000
1000
0000
1000
0100
0001
0100
,
0020
0000
0031
0010
0000
1000
0000
0010
,
0001
0000
0000
0000
0001
0000
0000
0000
0001
0000
0000
0100
0000
0000
0010
0000
,
1000
0001
0010
0100
0010
0000
0010
1000
,
0010
0000
0010
0000
0010
0001
0100
1000
,
0200
0000
0000
0000
0002
0000
0000
0000
2000
0000
0000
0000
0020
0000
0000
0300
,
3133
0000
0000
0000
0000
0000
0100
0000
0100
0000
0000
0001
0000
0000
0010
0000
,
0010
0000
0000
0000
0010
0000
0000
0000
0010
0000
0000
0100
0000
0000
0001
0000
,
0100
0000
0100
0000
0100
1000
0100
0010
,
0001
0000
1000
0010
0000
0001
0000
0010
,
0100
0000
0000
0000
0100
0000
0000
0000
0100
0000
0000
1000
0000
0000
0100
0000
,
0010
0001
0010
0100
0001
0000
0001
1000
,
0200
0000
2000
0000
0001
0002
0000
0020
,
0000
0000
0000
0000
0000
0000
0000
0000
0000
0000
0033
0000
0001
0000
0010
0001
,
0010
0000
0001
0010
0001
0010
0001
0010
0001
0010
0001
0010
0001
0010
0001
0010
,
0002
0000
0000
0000
,
0003
0000
0000
0000
0000
0000
0010
0000
3310
0000
0000
0100
0000
0000
2000
0000
,
0002
0000
0000
0010
0020
0000
0000
0000
,
0000
0000
0000
0003
0030
3000
0000
0020
,
0200
0000
0000
2000
0002
0000
0000
0000
,
0000
0000
0000
0000
3333
0000
0000
0000
0010
0000
0000
1000
0000
0000
0001
0000
,
0100
0000
0000
0000
0002
0000
0200
0000
0000
0000
0000
0000
0010
0000
1000
0010
,
1000
0000
0010
1000
0010
1000
0010
1000
0010
1000
0010
1000
0010
1000
0010
1000
,
0020
0000
0000
0000
,
0333
0000
0000
0000
0000
0000
0001
0000
1000
0000
0000
0100
0000
0000
0020
0000
,
0200
0000
0000
0000
0000
0001
0000
0002
,
0000
0000
0000
0000
0000
1000
1000
1000
,
1333
0000
0010
0001
0010
0000
0010
0100
,
1000
0000
0001
0100
0000
1000
0000
0100
,
0010
0000
0000
1000
0000
0000
0010
0000
0000
1000
0000
0000
0010
0000
0000
1000
0000
0000
0010
0000
0000
1000
0000
0000
0010
0000
0000
1000
0000
0000
0010
0000
0000
1000
0000
0000
0010
0000
1000
0000
0010
0000
1000
0000
0010
0000
1000
0000
,
0010
0000
0000
1000
0001
0000
0010
0000
,
0100
0100
0100
0100
,
0100
0000
0000
0000
0100
0000
1000
0001
1000
0000
0010
0000
0000
0000
0100
0000
,
0200
0000
0000
0001
0002
0000
1000
0000
,
0010
0000
1000
0000
0010
0000
0303
1000
,
2000
0000
0000
0100
0200
0000
0010
0000
,
0001
0000
0000
0000
3300
0000
1000
0010
1000
0000
0001
0000
0000
0000
0100
0000
,
0200
0000
0000
0000
0000
0000
0001
0000
0002
0000
0000
0000
1000
0000
0010
1000
,
0010
0000
1000
0010
1000
0010
1000
0010
1000
0010
1000
0010
1000
0010
1000
0010
,
1303
0000
0000
0000
;

//---------------dance-single - Kyzentun----------------
#NOTES:
     dance-single:
     Kyzentun:
     Hard:
     9:
     0.451,0.639,0.010,0.314,0.276,298.000,1.000,33.000,0.000,0.000,0.000,0.000,0.451,0.639,0.010,0.314,0.276,298.000,1.000,33.000,0.000,0.000,0.000,0.000:
0000
0000
0000
0000
,
0000
0000
0000
0000
,
0000
0000
0000
0000
,
0000
0000
0000
0000
,
0000
0000
0000
0000
,
0000
0000
0000
0000
,
0000
0000
0000
0000
,
2002
0000
0000
0000
,
3003
0000
0000
0000
0000
0000
0001
1000
0001
0000
0000
0100
0000
0000
0010
0000
,
0020
0000
0000
0130
0200
0000
0001
0000
,
0010
0000
1000
0000
0001
0000
0300
0001
,
0002
0000
0000
0013
0020
0000
1000
0000
,
0001
0000
0000
0000
0030
0000
0001
1000
0001
0000
0000
0010
0000
0000
0100
0000
,
0200
0000
0000
0000
0000
0000
1300
0000
2000
0000
3001
0010
0001
0000
1000
0010
,
1000
0000
0001
0100
0001
1000
0100
1000
0001
0100
0001
1000
0100
1000
0001
0100
,
0001
0000
0000
0000
0000
0000
1000
0000
0010
0000
0000
0100
0000
0000
1000
0000
,
0100
0000
0001
0000
1000
0100
0000
0100
,
0001
0000
0001
0000
0001
0100
1000
0010
,
0200
0000
0301
0010
0000
0100
0000
0001
,
0100
0000
0000
0000
0010
0000
0000
0000
0001
0000
0000
1000
0000
0000
0010
0000
,
0001
0010
1000
0001
0010
0000
0010
0001
,
0100
0000
1000
0000
0100
0001
1000
0100
,
0002
0000
0103
0200
0020
0300
0032
1000
,
1003
0000
0000
0000
0000
0000
0010
0000
1000
0000
0000
0001
0000
0000
0010
0000
,
0010
0000
0000
0000
0010
0000
0000
0000
0010
0000
0000
0100
0000
0000
1000
0000
,
0001
0000
0100
0000
0010
0001
0010
0100
,
0001
0000
1000
0010
0000
1000
0000
0100
,
0010
0000
0000
0000
1000
0000
0000
0000
0010
0000
0000
0001
0000
0000
0010
0000
,
0100
1000
0001
0100
1000
0000
1000
0100
,
0020
0000
2030
0000
3001
0002
0000
0200
,
0000
0000
0000
0000
0000
0000
0000
0000
0000
0000
0303
0000
0001
0000
1000
0100
,
1000
0000
0001
0010
0001
1000
0010
1000
0001
0010
0001
1000
0010
1000
0001
0010
,
0002
0100
1000
0010
,
0103
0000
0000
0000
0000
0000
0100
0000
0100
0000
0000
1000
0000
0000
0100
0000
,
0002
0000
0000
0013
0200
0000
0001
0000
,
1000
0000
0010
0000
0301
0000
0000
0100
,
2000
0000
0000
3001
0020
0000
0001
0000
,
1000
0000
0000
0000
0130
0000
0000
0000
0010
0000
0000
0001
0000
0000
1000
0000
,
0010
0000
0000
0000
0100
0000
0002
0000
0000
0000
0000
0000
0013
0000
0100
1000
,
0100
0000
0010
0001
0010
0100
1000
0100
0010
0001
0010
0100
1000
0100
0010
0001
,
0020
0001
0100
1000
,
0130
0000
0000
0000
0000
0000
0010
0000
0001
0000
0000
0100
0000
0000
1000
0000
,
0200
0000
0001
0000
0000
1000
0000
0320
,
1000
0000
0001
0000
0000
0100
0100
0130
,
0001
0000
0001
0010
0100
0000
0100
0001
,
0100
0000
0010
0001
0000
1000
0000
0010
,
0100
0000
0000
0001
0000
0000
0100
0000
0000
0001
0000
0000
0100
0000
0000
0001
0000
0000
0100
0000
0000
0001
0000
0000
0100
0000
0000
0001
0000
0000
0100
0000
0000
0001
0000
0000
0100
0000
0001
0000
0100
0000
0001
0000
0100
0000
0001
0000
,
0100
0000
0000
0001
1000
0000
0100
0000
,
0020
0100
1000
0001
,
0100
0000
0000
0000
0031
0000
1000
0010
1000
0000
0001
0000
0000
0000
0100
0000
,
0200
0000
0000
0301
0002
0000
0010
0000
,
0100
0000
1000
0000
0013
0000
0000
0001
,
0002
0000
0000
0103
0200
0000
0010
0000
,
0001
0000
0000
0000
0300
0000
0100
0010
0100
0000
1000
0000
0000
0000
0001
0000
,
0002
0000
0000
0000
0000
0000
0013
0000
0020
0000
0000
0000
0130
0000
1000
0010
,
1000
0001
0100
0001
1000
0010
1000
0001
0100
0001
1000
0010
1000
0001
0100
0001
,
1000
0000
0000
0000
;

//---------------dance-single - Kyzentun----------------
#NOTES:
     dance-single:
     Kyzentun:
     Medium:
     7:
     0.352,0.426,0.010,0.362,0.067,220.000,1.000,38.000,0.000,58.000,0.000,0.000,0.352,0.426,0.010,0.362,0.067,220.000,1.000,38.000,0.000,58.000,0.000,0.000:
0000
0000
0000
0000
,
0000
0000
0000
0000
,
0000
0000
0000
0000
,
0000
0000
0000
0000
,
0000
0000
0000
0000
,
0000
0000
0000
0000
,
0000
0000
0000
0000
,
2002
0010
0100
0010
,
3103
0000
0000
0000
0000
0000
1000
0001
1000
0000
0000
0010
0000
0000
0100
0000
,
0200
0000
0000
0001
0002
0000
1000
0000
,
1000
0000
1000
0000
1000
0000
0303
1000
,
2000
0000
0000
0100
0200
0000
0010
0000
,
0001
0000
0000
0000
3300
0000
1000
0100
1000
0000
0000
0001
0000
0000
0100
0000
,
0200
0000
0000
0010
0020
0000
1000
0000
,
0001
0000
1000
0000
0001
1000
0001
1000
,
0331
0000
0000
0000
0000
0000
0100
0000
0010
0000
0000
1000
0000
0000
0100
0000
,
0010
0000
0010
0000
0001
1000
0000
1000
,
0010
0000
0100
0000
0100
1000
0100
0001
,
2000
0000
3001
0010
0000
0100
0000
0010
,
0001
0000
0000
0000
0001
0000
0000
0000
1000
0000
0000
0100
0000
0000
0010
0000
,
1000
0010
0100
1000
0100
0000
0100
0010
,
0100
0000
0100
0000
0100
0001
0100
0010
,
0002
2003
0002
0020
,
3033
0000
0000
0000
0000
0000
1000
0000
1000
0000
0000
0010
0000
0000
0100
0000
,
0100
0000
0000
0000
0100
0000
0000
0000
0100
0000
0000
0010
0000
0000
1000
0000
,
0001
0000
0001
0000
0001
0010
0001
0010
,
0100
0000
0010
0001
0000
1000
0000
0010
,
0100
0000
0000
0000
0100
0000
0000
0000
0010
0000
0000
1000
0000
0000
0010
0000
,
0001
0010
1000
0001
0010
0000
0010
0100
,
2000
0000
0200
0000
0010
0020
0000
0002
,
0000
0000
0000
0000
0000
0033
0010
0000
,
0001
0000
0010
0000
0001
0010
0001
0010
,
0002
0000
0000
0000
,
3303
0000
0000
0000
0000
0000
1000
0000
0001
0000
0000
0010
0000
0000
0002
0000
,
0200
0000
0000
0010
0020
0000
0000
0000
,
0000
0000
0000
0000
0333
0000
0000
0002
,
2000
0000
0000
0020
0200
0000
0000
0000
,
0000
0000
0000
0000
3333
0000
0000
0000
0001
0000
0000
0010
0000
0000
0001
0000
,
1000
0000
0200
2000
0000
0000
0010
0000
,
0001
0000
0010
0000
0001
0010
0001
0010
,
0002
0000
0000
0000
,
3303
0000
0000
0000
0000
0000
0100
0000
0010
0000
0000
0001
0000
0000
2000
0000
,
0020
0000
0000
0000
0000
0001
0000
0002
,
0000
0000
0000
0000
,
3033
0000
1000
0001
1000
0000
1000
0010
,
0100
0000
1000
0100
0000
0001
0000
1000
,
0100
0001
0100
0010
0100
1000
0100
0010
,
0001
0000
0000
1000
0010
0000
0001
0000
,
0020
0100
0100
0100
,
0100
0000
0000
0000
0130
0000
0010
1000
0010
0000
1000
0000
0000
0000
0100
0000
,
0200
0000
0000
0010
0020
0000
0001
0000
,
0001
0000
0001
0000
0001
0000
0330
0100
,
0200
0000
0000
1000
2000
0000
0001
0000
,
0001
0000
0000
0000
3300
0000
0100
1000
0100
0000
0010
0000
0000
0000
0001
0000
,
0002
0000
0000
0100
0200
0000
1000
0000
,
0010
0000
1000
0000
0010
1000
0010
1000
,
0313
0000
0000
0000
;

//---------------dance-single - Kyzentun----------------
#NOTES:
     dance-single:
     Kyzentun:
     Easy:
     5:
     0.246,0.266,0.019,0.352,0.000,142.000,2.000,37.000,0.000,32.000,0.000,0.000,0.246,0.266,0.019,0.352,0.000,142.000,2.000,37.000,0.000,32.000,0.000,0.000:
0000
0000
0000
0000
,
0000
0000
0000
0000
,
0000
0000
0000
0000
,
0000
0000
0000
0000
,
0000
0000
0000
0000
,
0000
0000
0000
0000
,
0000
0000
0000
0000
,
2002
0000
0010
0000
,
3013
0000
0000
1000
0001
1000
0000
0000
,
0200
0000
0020
0000
,
0001
0000
0001
0330
,
0200
0000
2000
0000
,
0001
0000
3300
0100
1000
0001
0000
0000
,
0200
0000
0002
0000
,
0010
0000
1000
0010
,
1303
0000
0100
0010
,
1000
1000
0001
0010
,
0100
0001
0001
0100
,
0020
0130
1000
0001
,
0100
0100
0010
1000
,
0001
0100
1000
1000
,
0100
0001
1000
0100
,
0020
0032
2003
3002
,
0003
0000
0100
0010
,
0001
0010
0100
0001
,
1000
0100
0010
1000
,
0010
0001
1000
0010
,
0100
0100
0001
1000
,
0001
0010
0001
1000
,
0200
2000
0000
0020
,
0002
0000
0033
0010
,
0000
0001
0010
0001
,
0020
0000
0000
0000
,
3330
0000
0100
2000
,
0002
0000
0020
0000
,
0000
0000
3033
2000
,
0200
0000
0020
0000
,
0000
3330
1000
0001
,
0100
0002
0200
0000
,
0010
1000
0010
1000
,
0020
0000
0000
0000
,
0333
0001
1000
0020
,
0200
0000
0000
0000
0000
1000
0000
2000
,
0000
0000
0000
0000
,
3330
0010
1000
0001
,
0001
0100
1000
0100
,
0010
1000
0001
0010
,
0100
0000
0010
0001
,
0200
0000
0010
0000
,
0010
0000
0300
0100
0001
0100
0000
0000
,
0002
0000
2000
0000
,
0010
0000
0010
3003
,
0002
0000
0200
0000
,
0010
0000
0303
0001
0100
0001
0000
0000
,
0002
0000
0200
0000
,
1000
0000
0010
1000
,
1313
0000
0000
0000
;
