#TITLE:Chimera;
#SUBTITLE:;
#ARTIST:Yahpp;
#TITLETRANSLIT:;
#SUBTITLETRANSLIT:;
#ARTISTTRANSLIT:;
#CREDIT:348;
#BANNER:Chimera Banner.png;
#BACKGROUND:Chimera Background.png;
#LYRICSPATH:;
#CDTITLE:;
#MUSIC:Chimera.mp3;
#OFFSET:-1.196;
#SAMPLESTART:5.780;
#SAMPLELENGTH:15.000;
#SELECTABLE:YES;
#BPMS:0.000=210.000;
#STOPS:;
#BGCHANGES:12.000=chimeraBGA.avi=1.000=1=0=0,
359.000=Chimera Background.png=1.000=1=0=1,
99999=-nosongbg-=1.000=0=0=0 // don't automatically add -songbackground-
;

//---------------dance-single - ----------------
#NOTES:
     dance-single:
     :
     Beginner:
     2:
     0.156,0.240,0.009,0.000,0.000:
0000
0000
0000
0000
,
0000
0000
0000
0000
,
0000
0000
0000
0000
,
0000
0000
0000
0000
,
0001
0000
0000
0000
,
0001
0000
0000
0000
,
0001
0000
0001
0000
,
0001
0000
0000
0000
,
1000
0000
0000
0000
,
1000
0000
0000
0000
,
1000
0000
1000
0000
,
1000
0000
0000
0000
,
0010
0000
0000
0000
,
0100
0000
0000
0000
,
0010
0000
0000
0000
,
0100
0000
0000
0000
,
0010
0000
0100
0000
,
0010
0000
0000
0000
,
1000
0000
1000
0000
,
0100
0000
0000
0000
,
0010
0000
0010
0000
,
0001
0000
0000
0000
,
1000
0000
0001
0000
,
1000
0000
0000
0000
,
0010
0000
0100
0000
,
0010
0000
0000
0000
,
1000
0000
0000
0000
,
0100
0000
0000
0000
,
0010
0000
0000
0000
,
0001
0000
0000
0000
,
1000
0000
0100
0000
,
1000
0000
0000
0000
,
0001
0000
0010
0000
,
0001
0000
0000
0000
,
0100
0000
0000
0000
,
0010
0000
0000
0000
,
0100
0000
0000
0000
,
0001
0000
0000
0000
,
0100
0000
0000
0000
,
0010
0000
0000
0000
,
1000
0000
0000
0000
,
0001
0000
1000
0000
,
0001
0000
1000
0000
,
0010
0000
0000
0000
,
0010
0000
0000
0000
,
0010
0000
0000
0000
,
0010
0000
0000
0000
,
0100
0000
0100
0000
,
0100
0000
0000
0000
,
0001
0000
0000
0000
,
1000
0000
0001
0000
,
1000
0000
0000
0000
,
0010
0000
0010
0000
,
0010
0000
0000
0000
,
0100
0000
0100
0000
,
0100
0000
0000
0000
,
0001
0000
0000
0001
,
0001
0000
0000
0000
,
1000
0000
0000
1000
,
1000
0000
0000
0000
,
0010
0000
0010
0000
,
1000
0000
0000
0000
,
0001
0000
0001
0000
,
0100
0000
0000
0000
,
0001
0000
1000
0000
,
0001
0000
0000
0000
,
1000
0000
0000
0000
,
0100
0000
0000
0000
,
0010
0000
0000
0000
,
0100
0000
1000
0000
,
0001
0000
0000
0000
,
1000
0000
0000
0001
,
0001
0000
0000
0000
,
0100
0000
0100
0000
,
0100
0000
0000
0010
,
0010
0000
0010
0000
,
0010
0000
0000
1000
,
1000
0000
0000
0001
,
0001
0000
0000
0000
,
0100
0000
0100
0000
,
0100
0000
0001
0000
,
0001
0000
1000
0000
,
1000
0000
0010
0000
,
0010
0000
0010
0000
,
1000
0000
0000
0000
,
0001
0000
0000
0000
,
1000
0000
0001
0000
,
1000
0000
0001
0000
,
1001
0000
0000
0000
;

//---------------dance-single - ----------------
#NOTES:
     dance-single:
     :
     Easy:
     5:
     0.363,0.408,0.273,0.191,0.000:
0000
0000
0000
0000
,
0000
0000
0000
0000
,
0000
0000
0000
0000
,
0000
0000
0000
0000
,
0001
0000
1000
1000
,
0002
0000
1003
0000
,
0100
0000
0010
0010
,
0200
0000
0310
0000
,
0010
0000
1000
0000
,
0001
0010
0001
0000
,
0100
0000
0001
0000
,
1000
0100
1000
0000
,
0011
0000
0000
1000
,
0100
0000
0010
0000
,
0101
0000
0000
0001
,
0100
0000
0010
0000
,
1001
0000
0001
1000
,
0010
0000
0100
0000
,
1010
0000
0001
0000
,
1100
0000
0010
0000
,
1000
0001
1000
0001
,
0100
0000
0000
0010
,
0010
0000
0000
0100
,
0100
0000
0000
0001
,
1000
0100
0000
0010
,
0001
1000
0000
0001
,
1000
0100
0001
0100
,
2000
0000
0001
0000
,
3001
0010
1000
0010
,
0002
0000
1000
0000
,
1003
1000
1000
0000
,
0001
0001
0001
0000
,
1100
0000
0011
0000
,
1001
0000
0010
0100
,
0010
0000
1001
0000
,
0101
0000
1010
0000
,
0200
0000
0000
0300
,
0001
1000
0100
0000
,
2100
0000
3001
0000
,
0010
1000
0001
0000
,
0012
0000
1003
0000
,
0010
0010
0100
0000
,
0100
0100
0010
0000
,
1000
0100
0010
0100
,
1000
0001
0010
0001
,
1000
0000
1001
0000
,
0110
0000
1001
0000
,
0110
0000
1000
0001
,
2000
0000
0000
0010
,
3020
0000
0000
0100
,
0230
0000
0302
0000
,
2003
0000
3020
0000
,
1030
0000
0001
0001
,
0100
0000
0100
0100
,
0010
0000
0010
0010
,
1000
1000
0001
0001
,
1000
0000
1000
1000
,
0010
0000
0010
0010
,
0100
0000
0100
0100
,
0001
0000
1100
0000
,
1000
0100
0010
0001
,
1000
0000
0011
0000
,
0001
0010
0100
1000
,
0002
0000
0000
0103
,
0020
0000
0000
1030
,
1100
0000
0101
0000
,
1000
0010
0100
0001
,
0100
0010
1000
0001
,
1001
0000
0000
0001
,
0001
0100
0100
0000
,
0020
0000
0000
1030
,
1000
0100
0001
0100
,
2000
0000
0000
3001
,
0010
0001
0100
0010
,
2000
0001
3001
0000
,
1000
0001
0010
0100
,
0020
0100
0130
0000
,
0010
0001
0010
0001
,
1000
0100
1000
0100
,
1000
0000
0010
0100
,
0001
0000
1000
0010
,
0100
0000
0011
0000
,
1100
0000
1010
0000
,
0101
0000
0110
0000
,
1001
0000
0010
1000
,
0010
0000
0100
0001
,
0100
0001
1000
0010
,
1000
0000
0110
0000
,
2002
0000
0000
0000
,
0000
0000
0000
3003
;

//---------------dance-single - ----------------
#NOTES:
     dance-single:
     :
     Medium:
     7:
     0.536,0.653,0.355,0.337,0.000:
0000
0000
0000
0000
,
0000
0000
0000
0000
,
0000
0000
0000
0000
,
0000
0000
0000
0000
,
1001
0000
0010
0100
,
1001
0000
0100
0010
,
1000
0001
0100
0001
,
1000
0010
1000
0001
,
2000
0000
0020
3000
,
0130
0001
1000
0100
,
1000
0001
0100
0010
,
1000
0001
1000
0000
0010
0000
1000
0000
,
0011
0000
1010
0000
,
0002
0103
0200
0310
,
0010
1000
0010
0000
1000
0000
0001
0000
,
1000
0010
0200
0301
,
0010
0001
0010
0000
0001
0000
0100
0000
,
1000
0100
0002
1003
,
0110
0000
1001
0000
,
0010
1000
0100
0000
0010
0001
0100
0000
,
2002
3003
0001
1000
,
0010
0000
0100
0000
,
0101
0000
1100
0000
,
0220
0000
0330
0001
,
2000
3100
0020
0031
,
2002
0000
3003
0001
,
1000
0000
1000
0000
0100
1000
0100
0000
,
0020
0000
0001
0031
,
0001
0000
0001
0000
0100
0001
0100
0000
,
0020
0000
1000
1030
,
0001
0000
1000
0000
0001
0010
0001
0000
,
1000
0100
1000
0000
0010
0100
0010
0000
,
1000
0000
0001
0100
0001
0000
0100
0000
,
0010
0000
1000
0100
1000
0000
0001
0000
,
2000
3001
0020
0130
,
0200
0310
0002
1003
,
0110
0000
0110
0000
,
1000
0100
0010
0000
0001
0010
0100
0000
,
1000
0001
0100
0101
,
0010
0001
0010
0000
0100
1000
0100
0000
,
0001
1000
0100
1100
,
0001
1000
0100
0000
1000
0001
0100
0000
,
0001
0010
0001
0010
0001
0000
1000
0000
,
1000
0100
1000
0100
1000
0000
0001
0000
,
2000
3010
1000
0101
,
0002
0013
0010
1100
,
2002
3003
0220
0330
,
1000
1100
0011
0001
,
1001
0000
0000
0100
,
0101
0000
0000
0010
,
1010
0000
0110
0000
,
0001
1000
0100
0010
,
0001
0000
0010
1000
0010
0000
0001
0000
,
0100
0000
0010
1000
0010
0000
0100
0000
,
0001
0000
1000
0100
0010
0000
0001
0000
,
1000
0100
0010
0000
0010
0100
1000
0000
,
0001
0000
1000
0001
0010
0000
0100
0000
,
0020
0000
0031
0000
1000
0100
0010
0000
,
0200
0000
1300
0000
0001
1000
0001
0000
,
0110
0000
1000
0001
,
0110
0000
0001
0010
,
1000
0010
0001
0100
,
0010
1001
0000
0100
,
0001
1000
0001
0010
,
1000
0100
0001
1000
,
0011
0000
1100
0000
,
0001
0000
1000
0000
0100
1000
0001
0000
,
1000
0000
0100
0000
0010
0001
0010
0000
,
0002
0000
0000
0013
,
0001
0100
0000
0010
,
1000
0100
0000
1000
,
0001
0000
1000
0010
1000
0000
0001
0000
,
0100
0010
0000
1000
,
0001
0010
0100
0000
1000
0000
0100
0000
,
0010
0101
1001
0000
,
1000
0100
1000
0000
0010
0000
0100
0000
,
0001
1100
1001
0000
,
0001
0010
0001
0000
0100
0010
0100
0000
,
0001
1000
0100
0000
0010
0001
1000
0000
,
0001
0000
1000
0001
0100
0000
0010
0000
,
1000
0000
0100
1000
0001
0000
0010
0000
,
0002
1003
2000
3100
,
0200
0310
0020
0031
,
1000
0101
0001
1010
,
0002
1000
0100
0013
,
2000
0001
0010
3100
,
0001
0000
1000
0000
0010
0100
0010
0000
,
1001
0000
0110
0000
,
2002
0000
0000
0000
,
0000
0000
0000
3003
;

//---------------dance-single - ----------------
#NOTES:
     dance-single:
     :
     Hard:
     8:
     0.595,0.653,0.346,0.482,0.000: // measure 1
0000
0000
0000
0000
,  // measure 2
0000
0000
0000
0000
,  // measure 3
0000
0000
0000
0000
,  // measure 4
0000
0000
0000
0000
,  // measure 5
1000
0000
0001
0000
1000
0100
1000
0000
,  // measure 6
0001
0100
0020
0000
,  // measure 7
1030
0000
0100
0000
0001
0100
1000
0100
,  // measure 8
0010
0002
1003
0000
,  // measure 9
0001
0000
1000
0000
0010
1000
0100
0000
,  // measure 10
0010
0001
1000
0000
0001
1000
0001
0000
,  // measure 11
1000
0001
1000
1001
,  // measure 12
0010
0100
0010
0000
1000
0000
0001
0000
,  // measure 13
1100
0000
0001
1000
,  // measure 14
0011
0000
0100
0010
,  // measure 15
1000
0100
1000
0010
1000
0000
0001
0000
,  // measure 16
0200
0310
0020
1030
,  // measure 17
0001
0010
0100
0010
0001
0000
1000
0000
,  // measure 18
0002
0103
0200
0310
,  // measure 19
0202
0303
2020
3030
,  // measure 20
0001
1000
0100
0000
0100
1000
0001
0000
,  // measure 21
1000
0100
0001
0100
1000
0000
0010
0000
,  // measure 22
1001
0000
0110
0000
,  // measure 23
1001
0000
0000
0000
0100
0010
0100
0000
,  // measure 24
0010
0000
0000
0000
1000
0001
1000
0000
,  // measure 25
0001
0010
0100
0000
1000
0100
0010
0000
,  // measure 26
0001
1000
0100
0010
,  // measure 27
0100
1000
0001
1000
0100
0000
1000
0000
,  // measure 28
0020
1000
0001
1030
,  // measure 29
0001
1000
0010
1000
0001
0000
0100
0000
,  // measure 30
0002
0100
0010
0103
,  // measure 31
1000
0000
0001
0010
1000
0000
0001
0100
,  // measure 32
1000
0000
0001
1000
0001
0000
0110
0000
,  // measure 33
1000
0000
0010
0100
0010
0000
1001
0000
,  // measure 34
0200
0301
0020
1030
,  // measure 35
0110
0000
1001
0000
,  // measure 36
0200
0001
1000
0310
,  // measure 37
0110
0000
1001
0000
,  // measure 38
0010
1000
0100
0000
0100
1000
0010
0000
,  // measure 39
2000
0000
0001
3000
,  // measure 40
0001
0100
0010
0000
0010
0100
0001
0000
,  // measure 41
0200
0000
0010
0300
,  // measure 42
0001
0000
1000
0000
0010
1000
0100
0000
,  // measure 43
0010
0000
0001
0000
0100
0001
1000
0000
,  // measure 44
0010
0000
1000
0001
1000
0001
1000
0000
,  // measure 45
0020
1000
0200
0030
,  // measure 46
0002
0300
1000
0000
2000
0000
0003
0000
,  // measure 47
3002
2003
3002
2003
,  // measure 48
3020
0130
2000
3001
,  // measure 49
2002
0000
3003
0010
,  // measure 50
0220
0000
0330
0001
,  // measure 51
2020
3030
0022
0033
,  // measure 52
1000
1100
0101
0001
,  // measure 53
1000
0000
0100
1000
0100
1000
0100
0000
,  // measure 54
0010
0000
0001
0100
0010
0100
0001
0000
,  // measure 55
1000
0000
0001
0010
0100
0010
0001
0000
,  // measure 56
1000
0110
0001
0110
,  // measure 57
0100
1001
0010
1001
,  // measure 58
0100
0000
0001
1000
0100
0010
0001
0000
,  // measure 59
1000
0000
0010
1000
0001
0100
0001
0000
,  // measure 60
1100
0000
0001
0011
,  // measure 61
1001
0000
0100
0110
,  // measure 62
0001
1000
0100
0000
0010
0001
1000
0000
,  // measure 63
0002
0010
0100
1003
,  // measure 64
0100
0001
0100
0000
0010
1000
0010
0000
,  // measure 65
2000
0001
0010
3100
,  // measure 66
2200
3300
0202
0303
,  // measure 67
1000
0001
0100
0010
,  // measure 68
1000
0100
0010
0001
1000
0000
0001
0000
,  // measure 69
2002
0000
3003
0010
,  // measure 70
0100
0011
0000
0100
,  // measure 71
0010
1100
0000
0001
,  // measure 72
1000
0100
0001
0100
1000
0000
0010
0000
,  // measure 73
0100
0001
0000
1000
,  // measure 74
0001
0010
0001
0100
0001
0000
1000
0000
,  // measure 75
0200
0000
1000
1300
,  // measure 76
1000
0100
1000
0001
1000
0000
0001
0000
,  // measure 77
0200
0000
0001
0301
,  // measure 78
1000
0000
0001
0010
0001
0000
1000
0100
,  // measure 79
0010
0000
0001
1000
0001
0000
1100
0000
,  // measure 80
0010
0100
0001
0100
0001
0000
0011
0000
,  // measure 81
1000
0000
0001
0010
0100
0000
1000
0001
,  // measure 82
0100
0000
0001
1000
0001
0000
1000
0000
,  // measure 83
0001
0010
0001
0100
0010
0000
1000
0000
,  // measure 84
0010
0100
0001
1000
0100
0000
0010
0000
,  // measure 85
0220
0330
1000
0001
,  // measure 86
2002
3003
0100
0001
,  // measure 87
1000
0100
0010
0001
1000
0000
0010
0000
,  // measure 88
0200
0000
0020
0330
,  // measure 89
2002
0000
0000
0000
,  // measure 90
0000
0000
0000
3003
;

//---------------dance-single - ----------------
#NOTES:
     dance-single:
     :
     Challenge:
     9:
     0.759,0.694,0.446,0.764,0.000:
0000
0000
0000
0000
,
0000
0000
0000
0000
,
0000
0000
0000
0000
,
0000
0000
0000
0000
,
1001
0000
0100
0010
1000
0001
0100
0010
,
0200
0001
0010
0301
,
0110
0000
0001
0010
0100
1000
0100
0010
,
0002
1003
1100
0101
,
1000
0000
0001
0010
0100
0000
0100
0010
,
0001
0000
0010
1000
0010
0001
0010
0000
,
0002
1003
0200
0310
,
0020
1030
0200
0301
,
0011
0000
1000
0100
0010
0100
1000
0001
,
0200
0302
2003
3020
,
1030
0100
0001
0100
1000
0100
0001
0100
,
2000
3200
0320
0032
,
0103
0001
0100
0001
1000
0010
1000
0010
,
0200
0320
2030
3100
,
0012
1000
1000
0103
,
0010
0001
0200
0000
0310
1000
0200
0000
,
1300
0100
0010
0001
1000
0010
0100
0001
,
2000
0000
0001
3001
,
0020
0000
0031
1000
0002
0000
0013
1000
,
0020
0000
0031
0100
0010
0000
1001
0000
,
0100
0010
1000
0010
0200
0000
0301
0000
,
2000
0002
3003
0011
,
0100
0001
1000
0100
0010
0001
1000
0010
,
2000
3100
0020
0031
,
1000
0001
0100
0010
0100
0010
1000
0001
,
0020
0031
2000
0100
,
3001
0000
1000
0100
0001
0000
1000
0010
,
0001
0000
1000
0100
0001
0100
1000
0000
,
0110
0000
0001
0010
1000
0010
0001
0000
,
2010
0001
3002
0100
,
0203
0010
0320
1000
,
1030
0100
0010
0001
1000
0000
0110
0000
,
2002
0000
3003
0110
,
1000
0100
0001
1000
0010
0001
1000
0001
,
2000
0100
0020
3030
,
0001
0010
0100
0001
0010
0100
0001
0100
,
0002
0100
0020
0033
,
0011
0000
0100
0001
1000
0001
0100
0000
,
1010
0000
0001
1000
0010
1000
0001
0000
,
2100
3010
0102
0013
,
1001
0000
0010
0100
0010
0100
0010
0000
,
2000
3002
0103
0101
,
0020
0230
0301
1010
,
0001
0010
1000
0010
0001
0010
1000
0010
,
0001
0010
0001
1000
0100
0000
1100
0000
,
1000
0100
0010
0001
0010
0000
0101
0000
,
2000
3002
2003
3002
,
0103
0010
0200
0000
0310
0000
0110
0000
,
2000
0000
3001
0010
0001
0010
0001
0000
,
2000
0000
3001
0010
0100
0010
0001
0000
,
2000
0000
3001
0010
1000
0010
0001
0000
,
2000
0000
3001
0010
0001
0010
0100
1000
,
0100
1000
0001
0100
0010
1000
0001
0100
,
0001
0100
0010
1000
0010
1000
0001
0010
,
0100
1000
0100
0010
0001
1000
0001
0000
,
0220
0330
0011
1100
,
2002
3003
1010
0101
,
1000
0100
0020
0000
0031
0010
0200
0000
,
2300
3001
0002
1003
,
0100
0001
1000
0001
0100
0000
1001
0000
,
0020
0031
2000
3100
,
2001
0010
0010
3100
,
0201
0310
1020
0130
,
1000
0001
1000
0001
1000
0000
0001
0000
,
0220
0000
0330
1001
,
0010
1000
0100
1000
0001
0000
1100
0000
,
0011
0220
0330
0101
,
0010
0000
0001
0100
1000
0000
1000
0100
,
0001
2002
3003
1000
,
0001
0010
0100
1000
0001
0010
1000
0010
,
0002
0010
0100
1003
,
1000
0010
0100
0010
0001
0010
1000
0001
,
0200
1000
0010
0301
,
0002
0000
1003
0100
0010
0001
1000
0000
,
0002
0000
1003
0100
1000
0001
0100
0000
,
0011
0000
1000
0001
1000
0000
1100
0000
,
0011
0000
1100
0000
0001
0010
0001
0000
,
1010
0000
0011
0000
0100
0010
0100
0000
,
0001
0010
0100
1000
0001
0000
0110
0000
,
2000
0000
0001
0000
3010
1000
0001
1000
,
0020
0000
1030
0001
0100
0001
1000
0000
,
0200
0000
0310
0001
1000
0001
0010
0000
,
0001
0100
1000
0100
0001
0010
1000
0010
,
0001
0000
0110
0000
,
2002
0000
0000
0000
,
0000
0000
0000
3003
;
