#TITLE:Infinity Blue;
#SUBTITLE:;
#ARTIST:Reiji Sakurai;
#TITLETRANSLIT:;
#SUBTITLETRANSLIT:;
#ARTISTTRANSLIT:;
#GENRE:;
#CREDIT:;
#MENUCOLOR:;
#METERTYPE:DDR;
#BANNER:Infinity Blue-bn.png;
#BACKGROUND:Infinity Blue-bg.png;
#LYRICSPATH:;
#CDTITLE:;
#MUSIC:Infinity Blue.mp3;
#OFFSET:-1.105;
#SAMPLESTART:92.330;
#SAMPLELENGTH:12.000;
#SELECTABLE:YES;
#LISTSORT:;
#BPMS:0.000=190.000;
#STOPS:;
#BGCHANGES:;
#ATTACKS:;

//---------------dance-single - ----------------
#NOTES:
     dance-single:
     :
     Hard:
     8:
     0.681,0.651,0.000,0.324,0.000:
0000
0000
0000
0000
,
0000
0000
0000
0000
,
2000
0000
3001
0010
0100
0010
0001
0200
,
0000
0310
0100
0001
1000
0010
0200
0000
,
0302
0000
0103
1000
0100
0001
1000
0020
,
0000
1030
0100
0010
0100
0010
0002
0000
,
0203
0000
0310
0100
0001
1000
0100
2000
,
0000
3001
0100
1000
0100
0001
0020
0000
,
0230
0000
0310
0001
0100
0010
0100
0002
,
0000
1003
0100
0010
0100
1000
0020
0000
,
0230
0000
0301
0100
1000
0100
0001
2000
,
0000
3010
1000
0100
0010
0100
0002
0000
,
0203
0000
1300
0001
0100
1000
0100
0002
,
0000
0013
0100
0010
0001
0100
0020
0000
,
0230
0000
0301
1000
0100
0010
0001
0020
,
0000
0130
0010
0001
0100
0010
0200
0000
,
0302
0000
0103
1000
0100
0001
1000
0020
,
0000
0130
0010
0100
0001
0010
0200
0000
,
1300
0000
0010
0100
0000
0010
1000
0000
,
0001
0000
0010
0100
0000
1000
0100
0000
,
0010
0000
0100
1000
0000
1000
0010
0000
,
0100
0000
0010
1000
0000
1000
0001
0010
,
0100
0000
1000
0010
0000
0100
0010
0000
,
1000
0000
0001
0010
0000
0100
1000
0000
,
0100
0000
0010
0100
0000
1000
0010
0000
,
1000
0010
0100
0000
0010
1000
0001
0100
,
0010
0000
1000
0001
0000
0100
0010
0000
,
1000
0000
0100
0010
0000
0010
0100
0000
,
1000
0000
0010
0100
0000
0100
0001
0000
,
1000
0000
1000
0010
0000
0100
0010
1000
,
0100
0000
0010
0100
0000
1000
0010
0000
,
0100
0000
0010
1000
0000
0001
0010
0000
,
0100
0000
1000
0010
0000
0100
0010
0000
,
1000
0001
0100
0000
0010
1000
0100
0010
,
0100
0000
0010
0001
1000
0010
0100
0001
,
0000
0010
0000
0100
0000
0010
0001
0100
,
0010
0000
0100
0001
1000
0100
0010
0001
,
0000
0010
0000
0100
0000
0010
0001
0100
,
0010
0000
0100
0001
1000
0100
0010
0100
,
0000
0010
0000
0001
0000
0100
0010
1000
,
0001
0000
1000
0100
0010
0100
1000
0010
,
0000
0100
0000
0001
0000
0100
0010
0100
,
0001
0000
0010
0100
1000
0100
0010
0100
,
0000
0010
0001
0100
0000
0010
0100
0001
,
1000
0000
0010
0100
0001
0010
0100
0010
,
0000
0001
0100
0010
0000
0100
0001
1000
,
0100
0000
0010
0100
1000
0010
0100
0010
,
0000
1000
0100
0010
0000
0100
1000
0001
,
1000
0000
0010
0100
0001
0010
0100
0010
,
0000
0001
0100
0010
0100
0001
0010
0001
,
1000
0000
0100
0000
0010
0100
1000
0000
,
0001
0100
0000
0010
0000
0100
0010
0000
,
0100
0001
0100
0000
0010
0100
0000
0010
,
1000
0000
1000
0001
0000
1000
0010
0000
,
1000
0010
1000
0100
0000
0010
0100
0000
,
1000
0000
0010
0100
0010
1000
0001
0000
,
1000
0000
0010
0100
0010
1000
0001
0000
,
1000
0100
0010
0100
1000
0010
0001
0010
,
1000
0000
0100
0000
1000
0001
0010
0000
,
0100
0010
0000
1000
0000
0010
0001
0000
,
1000
0100
0010
0000
0001
0100
0000
0001
,
1000
0000
0100
0010
0000
0010
0001
0000
,
1000
0000
0010
0100
0001
0000
1000
0010
,
0001
0000
0001
0010
1000
0000
0100
0010
,
0200
0000
0001
0000
0001
0000
0000
1000
,
2300
0000
0010
0010
,
3001
0010
0100
0010
,
0001
0100
1000
0100
,
0010
0001
0010
1000
,
0001
0010
0100
0010
,
0001
0100
1000
0010
,
0001
0100
0010
0100
,
0001
0000
1000
0010
0100
0010
1000
0100
,
1000
0000
0010
0100
0000
0001
0000
1000
,
0010
0000
0100
0001
0010
0100
1000
0000
,
0001
0100
1000
0100
0001
1000
0010
0000
,
0100
0001
0010
0100
0010
0001
0100
0000
,
0001
0100
1000
0100
0001
1000
0010
0000
,
0100
0001
0010
0100
1000
0001
0010
0000
,
0001
0010
0100
0010
0001
0100
1000
0000
,
0100
0001
1000
0010
0100
0001
0010
0000
,
0100
0010
0001
0100
0010
0100
0001
1000
,
0010
0000
0100
0010
0000
1000
0001
0010
,
0000
0100
1000
0010
0000
0100
0010
1000
,
0001
0000
0010
0100
0000
1000
0010
0100
,
0000
0010
1000
0001
0000
0010
0100
1000
,
0000
0001
0100
0010
1000
0000
0001
0010
,
0001
0000
1000
0010
0100
0010
1000
0001
,
0100
0000
0010
1000
0100
0010
0100
1000
,
0001
0100
0001
0010
0000
0001
0010
0100
,
1000
0100
0010
0000
0100
1000
0010
0000
,
0100
0010
1000
0000
0001
0010
1000
0000
,
1000
0010
0001
0000
0100
0010
1000
0000
,
1000
0100
0001
0000
0001
0100
1000
0010
,
0100
0000
0010
1000
0010
0000
0100
0010
,
1000
0001
0000
0010
0100
0000
1000
0010
,
0100
0000
0010
1000
0100
0010
0000
0001
,
0100
0010
0100
0001
1000
0100
0010
0100
,
2000
0000
3200
0000
0320
0000
0031
2000
,
0000
3020
0000
0230
0000
0310
1000
0001
,
0200
0000
0320
0000
2030
0000
3100
0020
,
0000
0032
0000
0203
0000
0310
0100
0001
,
2000
0000
3200
0000
0320
0000
0130
2000
,
0000
3002
0000
0203
0000
0301
0010
0100
,
1000
0000
0000
0000
;

//---------------dance-single - ----------------
#NOTES:
     dance-single:
     :
     Medium:
     6:
     0.590,0.651,0.000,0.346,0.000:
0000
0000
0000
0000
,
0000
0000
0000
0000
,
2000
0000
3001
0100
0001
0000
0100
0020
,
0000
0130
0001
0000
1000
0100
0020
0000
,
0032
0000
0013
0100
0010
0000
0001
0200
,
0000
0310
0100
0000
0001
1000
0200
0000
,
2300
0000
3001
0010
0100
0000
0010
0002
,
0000
0103
0010
0000
0100
0001
0200
0000
,
0302
0000
1003
0010
0100
0000
0001
0020
,
0000
0130
0010
0000
0001
0100
0020
0000
,
0130
0000
0001
0100
0020
0000
0130
0002
,
0000
1003
0100
0000
0010
0001
0020
0000
,
0230
0000
0310
0001
0100
0000
0010
0200
,
0000
0301
1000
0000
0001
0010
0200
0000
,
0320
0000
0031
0100
0010
0000
0100
0002
,
0000
0103
0010
0000
1000
0100
0020
0000
,
0032
0000
0013
0100
0010
0000
0001
0200
,
0000
0310
0100
0000
0001
1000
0002
0000
,
0013
0000
0001
0000
0000
0100
0010
0000
,
0100
0000
0001
1000
0000
0010
0100
0000
,
0001
0000
0010
0000
0000
0100
0010
0000
,
0001
0000
1000
0001
0000
0001
1000
0001
,
0010
0000
0100
0000
0000
0010
0001
0000
,
0100
0000
0010
0000
0000
0100
0001
0000
,
1000
0000
0100
0000
0000
0010
0100
0000
,
0000
1000
0010
0000
0000
1000
0001
0000
,
0010
0000
0100
0000
0000
1000
0100
0000
,
0010
0000
0001
0100
0000
0010
0100
0000
,
0001
0000
1000
0000
0000
0010
0100
0000
,
0010
0000
1000
0001
0000
1000
0010
0100
,
0010
0000
1000
0000
0000
0010
0100
0000
,
0010
0000
1000
0001
0000
0001
0010
0000
,
0100
0000
0010
0001
0000
0001
1000
0000
,
0100
0000
0010
0000
0001
0100
0001
1000
,
0010
0000
0100
0001
1000
0000
0010
0100
,
0000
0001
0000
0010
0000
0100
0010
0000
,
0001
0000
0100
0010
1000
0000
0001
0100
,
0000
0010
0000
0100
0000
0001
1000
0000
,
0001
0000
0010
0001
0010
0000
0100
0010
,
0000
0001
0000
0100
0000
0010
0100
0000
,
0001
0000
1000
0100
1000
0000
0001
0100
,
0000
0010
0000
0100
0000
0001
0010
0000
,
0001
0000
0100
0010
0100
0000
0001
1000
,
0000
0001
0010
0100
0000
0010
0001
0000
,
0100
0000
0010
0100
0001
0000
1000
0001
,
0000
0010
0100
0010
0000
0001
0100
0000
,
0010
0000
0100
0001
1000
0000
0100
1000
,
0000
0001
0010
0100
0000
0010
0001
0000
,
0100
0000
0010
0100
0001
0000
1000
0100
,
0000
1000
0001
1000
0010
1000
0100
1000
,
0010
0000
0100
0000
0010
1000
0001
0000
,
0100
0000
0000
0010
0000
1000
0010
0000
,
0100
0000
0010
0000
1000
0001
0000
1000
,
0100
0000
0010
0100
0000
1000
0010
0000
,
0100
0000
0010
0000
0000
1000
0001
0000
,
0100
0000
0000
0010
0000
1000
0001
0000
,
0100
0000
0010
0000
1000
0000
0000
0001
,
0100
0000
0010
1000
0000
0100
0010
0000
,
0001
0000
0100
0000
0010
0100
0001
0000
,
1000
0000
0010
0100
0000
0001
0010
0000
,
0100
0000
0010
0000
0001
0100
0000
0010
,
0100
0000
0001
1000
0000
0001
0010
0000
,
0100
0000
1000
0000
0001
0010
0100
1000
,
0000
0010
0000
0100
0000
0010
1000
0000
,
0002
0000
1000
0000
,
0203
0000
0010
0000
,
0301
0010
0100
1000
,
0100
0010
0100
1000
,
0010
0100
0010
1000
,
0001
1000
0001
0100
,
0010
1000
0100
0010
,
0100
1000
0010
0100
,
0001
0000
1000
0100
0010
0001
0010
0100
,
1000
0000
0010
0100
0000
0100
0000
0100
,
0010
0000
1000
0000
0001
0010
0100
0000
,
1000
0010
0100
0000
0010
1000
0001
0000
,
1000
0001
0010
0000
0100
1000
0100
0000
,
0010
0100
1000
0000
0010
0100
0010
0000
,
1000
0001
1000
0000
0100
0010
0100
0000
,
1000
0010
0100
0000
0010
1000
0001
0000
,
1000
0100
0010
0000
0100
1000
0010
0000
,
0100
0010
1000
0000
0001
0010
0001
1000
,
0010
0000
0100
0010
0000
1000
0001
0010
,
0000
0001
1000
0010
0000
0100
0010
0000
,
1000
0000
0100
0010
0000
0100
1000
0010
,
0000
0100
0010
1000
0000
0001
0100
0000
,
0010
0000
1000
0001
0100
0000
0010
1000
,
0000
0100
0010
0000
0100
1000
0010
0000
,
0100
0000
0010
1000
0001
0000
0100
0010
,
0000
0100
0001
1000
0000
0010
0100
0010
,
1000
0010
0100
0010
,
1000
0001
0010
0100
,
1000
0100
0010
0100
,
1000
0000
0010
0000
0100
0000
0010
0100
,
0010
0000
1000
0001
0100
0000
0010
0000
,
1000
0100
0000
0010
0100
0000
0010
0000
,
0001
0000
0100
0010
0100
0000
0001
1000
,
0000
0100
0010
0000
0001
0010
0100
0010
,
0002
0000
0023
0000
0230
0000
1300
0200
,
0000
0320
0000
0032
0000
0023
0000
0130
,
0020
0000
0032
0000
0203
0000
0310
0200
,
0000
0320
0000
2030
0000
3002
0000
0013
,
0002
0000
0023
0000
0230
0000
0310
0200
,
0000
0320
0000
0230
0000
2300
0000
3001
,
1000
0000
0000
0000
;

//---------------dance-single - ----------------
#NOTES:
     dance-single:
     :
     Easy:
     5:
     0.448,0.575,0.199,0.398,0.000:
0000
0000
0000
0000
,
0000
0000
0000
0000
,
0200
0301
1000
0020
,
0000
0130
0000
0001
0000
0020
0000
0000
,
0230
0310
0001
0200
,
0000
0310
0000
0100
0000
0002
0000
0000
,
2003
3100
1000
0002
,
0000
0103
0000
0010
0000
0200
0000
0000
,
0302
0013
0100
0020
,
0000
0031
0000
1000
0000
0020
0000
0000
,
2030
3100
0010
0002
,
0000
0103
0000
0010
0000
0200
0000
0000
,
0302
1003
0010
0200
,
0000
0301
0000
0010
0000
0200
0000
0000
,
0320
0031
0100
0020
,
0000
1030
0000
0001
0000
0200
0000
0000
,
0320
0130
0001
2000
,
0000
3001
0000
0010
0000
0200
0000
0000
,
0310
0100
0000
0001
,
1000
0010
0000
0100
,
0001
0010
0000
0100
,
0010
0001
0000
0100
,
0010
0100
0000
0001
,
1000
0010
0000
0100
,
0001
0010
0000
0100
,
0010
0001
0000
1000
,
0010
0100
0000
0001
,
0010
0100
0000
0010
,
0100
1000
0000
0001
,
1000
0010
0000
0100
,
0010
0100
0000
0001
,
0010
0100
0000
0010
,
0100
1000
0000
1000
,
0001
0100
0000
0010
,
0100
0000
0001
0000
1000
0000
0000
0001
,
0000
0100
0000
0010
0000
0000
0100
0000
,
0001
0000
1000
0000
0010
0000
0000
0100
,
0000
0001
0000
0010
0000
0000
0100
0000
,
0010
0000
0001
0000
0100
0000
0000
0010
,
0000
0100
0000
0001
0000
0000
1000
0000
,
0001
0000
0010
0000
0100
0000
0000
1000
,
0000
0001
0000
0100
0000
0000
0010
0000
,
0100
0000
0001
0000
1000
0000
0000
0010
,
0000
0100
0000
0001
0000
0000
0010
0000
,
0100
0000
0010
0000
0001
0000
0000
0100
,
0000
0010
0000
0100
0000
0000
0001
0000
,
1000
0000
0100
0000
0010
0000
0000
0001
,
0000
0010
0000
0100
0000
0000
1000
0000
,
0010
0100
0001
0100
,
0002
0023
0230
2300
,
3001
0000
0100
0000
0010
0000
0000
0100
,
0000
0001
0000
1000
0000
0010
0000
0000
,
0100
0000
0001
0000
0101
0000
0000
0110
,
0000
0000
1100
0000
0000
1001
0000
0000
,
0011
0000
0001
0000
0000
0100
0000
0000
,
0010
0000
0000
1000
0000
0000
0001
0000
,
0010
0100
0001
1000
,
1010
0000
0000
0101
0000
0000
0110
0000
,
0010
0000
0100
0000
0000
0001
0000
0000
,
1000
0000
0000
0010
0000
0000
0100
0000
,
0001
0000
1000
0000
1100
0000
0000
0101
,
0000
0000
0110
0000
0000
0101
0000
0000
,
1001
0000
0000
1000
0000
0000
0010
0000
,
0100
0000
0000
0001
0000
0000
1000
0000
,
0002
0000
0000
0000
,
0200
0000
0000
0003
,
0310
0100
0010
0100
,
0001
0100
0001
0100
,
0001
1000
0001
1000
,
0100
1000
0100
1000
,
0100
0010
0100
0010
,
0001
0010
0001
0010
,
0001
2000
3200
0320
,
0031
0000
0000
0010
0000
0100
0000
1000
,
0000
1001
0010
0110
,
0001
0011
0100
1100
,
0001
1001
0100
0101
,
0010
0110
1000
1010
,
0001
0101
0001
0011
,
0010
0110
1000
1010
,
0001
0101
1000
1001
,
0001
0100
0010
0100
,
0001
0000
1000
0000
0000
0010
0000
0000
,
0100
0000
0001
0000
0000
1000
0000
0000
,
0100
0000
0010
0000
0000
0100
0000
0000
,
1000
0000
0001
0000
0000
0100
0000
0000
,
0010
0000
0100
0000
0000
0001
0000
0000
,
1000
0000
0010
0000
0000
0100
0000
0000
,
0001
0000
0010
0000
0000
0100
0000
0000
,
1000
0000
0001
0000
0000
0100
0000
0000
,
0001
0010
0100
1000
,
0100
0010
0001
1000
,
0001
0100
0010
1000
,
0010
0100
0001
1000
,
0010
0000
0100
0000
0000
0001
0000
0000
,
1000
0000
0010
0000
0000
0100
0000
0000
,
0010
0000
0100
0000
0001
0000
0000
1000
,
0000
0100
0000
0000
0010
0000
0100
0000
,
2000
0000
3020
0000
0230
0000
0000
0302
,
0000
2003
0000
3020
0000
0230
0000
0000
,
0302
0000
2003
0000
3020
0000
0000
0230
,
0000
0302
0000
0023
0000
0230
0000
0000
,
0320
0000
0032
0000
0203
0000
0000
0320
,
0000
0230
0000
0302
0000
2003
0000
0000
,
3001
0000
0000
0000
;
