#TITLE:Wisdom;
#SUBTITLE:;
#ARTIST:The Entity;
#CREDIT:;
#MUSIC:[Round 1] The Entity - Wisdom.mp3;
#SELECTABLE:YES;
#BACKGROUND:;
#BANNER:;
#CDTITLE:;
#OFFSET:-0.065;
#SAMPLESTART:113.1130;
#SAMPLELENGTH:11.000;
#BPMS:0=174;
#STOPS:;

//---------------dance-single - ----------------
#NOTES:
     dance-single:
     :
     Easy:
     4:
     0.000,0.000,0.000,0.000,0.000:
0000
0000
0000
0000
,
0000
0000
0000
0000
,
0000
0000
0000
0000
,
0000
0000
0000
0000
,
0000
0000
0000
0000
,
0000
0000
0000
0000
,
0000
0000
0000
0000
,
0000
0000
0000
0000
,
0000
0000
0000
0000
,
0000
0000
0000
0000
,
1000
0000
0000
0000
,
0001
0000
1000
0000
,
0001
0000
0000
1000
,
0000
0010
0000
0000
,
0001
0000
0000
0000
,
1000
0000
0001
0000
,
1000
0000
0000
1000
,
0000
0000
0000
0000
,
1000
0000
0000
0000
,
0001
0000
1000
0000
,
0001
0000
0000
1000
,
0000
0100
0000
0000
,
0001
0000
0000
0000
,
1000
0000
0001
0000
,
1000
0000
0000
0001
,
0000
0000
0000
0000
,
0010
0000
0001
0000
,
0010
0000
0001
0000
,
0000
0000
0000
0000
,
0000
0000
0000
0000
,
0010
0000
1000
0000
,
0010
0000
1000
0000
,
0000
0000
0000
0000
,
0000
0000
0000
0000
,
1000
0000
0001
0000
,
1000
0000
0001
0000
,
1000
0000
0010
0000
,
1000
0001
1000
0000
,
0010
0000
0000
0000
,
0100
0000
0010
0000
,
1000
0000
0001
0000
,
0100
0000
0010
0000
,
0000
0001
0000
0001
0000
0001
0000
0001
,
0000
0000
0000
0000
,
0000
1000
0000
1000
0000
1000
0000
1000
,
0000
0000
0000
0000
,
0000
0001
0000
0001
0000
0001
0000
0001
,
0000
0000
0000
0000
,
0000
1000
0000
1000
0000
1000
0000
1000
,
0000
0000
0000
0000
,
1001
0000
0000
0000
,
1000
0000
0000
0000
,
0001
0000
0000
0000
0000
0000
0000
0100
,
0100
0000
0000
0000
,
1001
0000
0000
0000
,
1000
0000
0000
0000
,
0100
0000
0000
0000
0000
0000
0000
0010
,
0010
0000
0000
0000
,
1000
0001
1000
1001
,
0000
0000
0000
0000
,
0001
1000
0001
1001
,
0000
0000
0000
0000
,
1000
0010
1000
1010
,
0000
0000
0000
0000
,
0001
0010
0001
0011
,
0000
0000
0000
0000
,
1000
1000
0001
0001
,
1000
0010
1000
0010
,
0000
0000
0000
0000
,
0000
0000
0000
0000
,
0001
0001
1000
1000
,
0001
0010
0001
0010
,
0000
0000
0000
0000
,
0000
0000
0000
0000
,
0010
0100
0010
0100
,
0001
1000
0001
1000
,
1000
0010
0010
1000
,
0100
0001
0100
0001
,
0001
0010
0010
0001
,
0100
1000
0100
1000
,
1000
0010
0010
1000
,
0100
0001
0100
0000
,
1000
0001
1000
1001
,
0000
0000
0000
0000
,
0001
1000
0001
1001
,
0000
0000
0000
0000
,
1000
0010
1000
1010
,
0000
0000
0000
0000
,
0001
0010
0001
0011
,
0000
0000
0000
0000
,
1000
1000
0001
0001
,
1000
0010
1000
0010
,
0000
0000
0000
0000
,
0000
0000
0000
0000
,
0001
0001
1000
1000
,
0001
0010
0001
0010
,
1000
1000
0001
0001
,
0010
1000
0010
2000
,
3000
0000
0000
0000
;

//---------------dance-single - ----------------
#NOTES:
     dance-single:
     :
     Medium:
     7:
     0.000,0.000,0.000,0.000,0.000:
0000
0000
0000
0000
,
0000
0000
0000
0000
,
0000
0000
0000
0000
,
0000
0000
0000
0000
,
0000
0000
0000
0000
,
0000
0000
0000
0000
,
0000
0000
0000
0000
,
0000
0000
0000
0000
,
0000
0000
0000
0000
,
0000
0000
0000
0000
,
1000
1000
0001
0000
,
0001
0000
1000
0000
,
0001
0010
0001
1000
,
0000
0010
0100
0000
,
0010
0100
0001
0000
,
0010
0000
0100
0000
,
0100
0001
0100
0001
,
0000
1000
1000
1000
,
0001
0100
0010
0000
,
0100
0000
0001
0000
,
1000
0010
1000
0010
,
0000
0100
0001
0000
,
1000
0100
1000
0000
,
0010
0000
0001
0000
,
0001
0100
0010
1000
,
0001
0000
0000
0000
,
0010
0000
0001
0000
,
0010
0000
0001
0000
,
0010
0000
1000
0000
,
0010
0000
1000
0000
,
0001
0000
0010
0000
,
0100
0000
0100
0000
,
1000
0000
0100
0000
,
0001
0000
0100
0000
,
1000
0000
0001
0000
,
1000
0000
0001
0000
,
1000
0000
0010
0000
,
1000
0001
1000
0000
,
0011
0000
0000
0000
,
0100
0000
0020
0000
,
1030
0000
0002
0000
,
0103
0000
0010
0000
,
0000
0001
0000
0100
0000
0001
0000
0100
,
0000
0000
0000
0000
,
0000
1000
0000
0100
0000
1000
0000
0100
,
0000
0000
0000
0000
,
0000
0001
0000
0100
0000
0100
0000
0001
,
0000
0000
0000
0000
,
0000
1000
0000
0100
0000
0100
0000
1000
,
0000
0000
0000
0000
,
0110
0000
0000
0000
,
1100
0000
0000
0000
,
0101
0000
0000
0000
0000
0000
0000
0100
,
0100
0000
0000
0000
,
0011
0000
0000
0000
,
1010
0000
0000
0000
,
0110
0000
0000
0000
0000
0000
0000
0010
,
0010
0000
0000
0000
,
1000
0100
1000
0000
0100
0000
1000
0000
,
0001
1000
0010
1000
,
0001
0100
0001
0000
0100
0000
0001
0000
,
1000
0010
0100
0000
,
1000
0010
1000
0000
0010
0000
1000
0000
,
0000
0100
0001
0000
,
0001
0010
0001
0000
0010
0000
0001
0000
,
1000
0010
0100
0000
,
1000
0100
1000
0000
0001
0000
0001
0000
,
1000
0100
1000
0100
0000
1000
0100
0000
,
0001
0100
0001
0000
1000
0000
1000
0000
,
0001
0100
0001
0100
0000
0001
0100
0000
,
1000
0100
1000
0000
0101
0000
0101
0000
,
0001
0100
0001
0100
0000
0001
0100
0000
,
0010
0100
0010
0000
0100
0000
0001
0000
,
1000
0100
1000
0100
1000
0000
0000
0000
,
1000
0100
1000
0001
,
0100
0000
0001
0000
0001
0010
0001
0000
,
1000
0100
1000
0001
,
0100
0000
0001
0000
0001
0010
0001
0000
,
1000
0001
1000
0001
,
1000
0001
1000
0001
,
1100
1100
1100
0100
,
0101
0101
0101
0000
,
1000
0100
1000
0000
1001
0000
1100
0000
,
0001
1000
0010
1000
,
0001
0100
0001
0000
1001
0000
0101
0000
,
1000
0010
0100
0000
,
1000
0010
1000
0000
1010
0000
1001
0000
,
0100
0100
0001
0100
,
0001
0010
0001
0000
0011
0000
1001
0000
,
0001
0100
0010
0000
,
1000
0100
1000
0000
0001
0000
0001
0000
,
1000
0100
1000
0100
0000
1000
0100
0000
,
0001
0100
0001
0000
1000
0000
1000
0000
,
0001
0100
0001
0100
0000
0001
0100
0000
,
1000
0100
1000
0000
0101
0000
0101
0000
,
0001
0100
0001
0100
0000
0001
0100
0000
,
0010
0100
0010
0000
0100
0000
0001
0000
,
1000
0100
1000
0100
1000
0000
0200
0000
,
0300
0000
0000
0000
;

//---------------dance-single - ----------------
#NOTES:
     dance-single:
     :
     Hard:
     9:
     0.000,0.000,0.000,0.000,0.000:
0000
0000
0000
0000
,
0000
0000
0000
0000
,
0000
0000
0000
0000
,
0000
0000
0000
0000
,
0000
0000
0000
0000
,
0000
0000
0000
0000
,
0000
0000
0000
0000
,
0000
0000
0000
0000
,
0000
0000
0000
0000
,
0000
0000
0000
0000
,
1000
1000
0001
0000
,
0001
0000
1000
0000
,
0100
0010
0001
1000
,
0000
0010
0100
0000
,
0010
0100
0001
0000
,
0010
0000
0110
0000
,
0100
1000
0010
0100
,
0000
0001
1001
1000
,
0001
0100
0010
0000
,
0100
0000
0001
0000
,
1000
0010
1000
0010
,
0000
0100
0001
0000
,
0010
1000
0100
0000
,
0010
0000
0001
0000
,
0001
0100
0010
1000
,
0001
0000
0000
0000
,
2000
0000
0001
0000
,
0100
0000
0001
0000
,
0010
0000
0010
0000
,
0010
0000
0100
0000
,
3001
1000
0100
0010
,
0001
0100
0010
1000
,
1001
0010
0100
0010
,
1000
0001
0010
0100
,
1000
0100
1000
0000
0001
0100
0001
0000
,
1000
0100
1000
0000
0001
0010
0001
0000
,
1000
0010
1000
0000
0001
0100
1000
0000
,
1000
0100
0001
0000
0100
1000
0100
0000
,
0001
1000
0001
0000
0002
0000
0000
0000
,
0103
0000
0020
0000
,
1030
0000
0002
0000
,
0103
0000
0010
0000
,
0000
0100
0001
0100
0000
0001
0100
0010
,
0000
0010
0100
0010
0000
0001
0000
1000
,
0000
0100
0001
0100
0000
1000
0010
0100
,
0000
0100
0010
0100
0000
0001
0000
1000
,
0000
0100
1000
0001
0000
0001
0100
0010
,
0000
0010
0100
0010
0000
0001
0000
1000
,
0000
0100
0001
0100
0000
1000
0010
0100
,
0000
0100
0010
0100
0000
0001
0000
0000
,
0110
0000
0000
0000
,
1100
0000
0000
0000
,
0101
0000
0000
0000
0000
0000
0000
1000
,
1100
0000
0000
0000
,
0011
0000
0000
0000
,
1010
0000
0000
0000
,
0110
0000
0000
0000
0000
0000
0000
0010
,
0011
0000
0000
0000
,
1000
0100
0010
0000
0100
0000
1000
0000
,
0001
0010
1000
0010
0000
0100
1000
0000
,
0010
1000
0010
0000
0100
0000
0001
0000
,
1000
0001
0010
0001
0000
1000
0100
0010
,
0001
0100
0010
0000
1000
0000
0001
0000
,
1000
0100
0001
0100
0000
1000
0100
0000
,
0001
0100
0001
0000
0010
0000
1000
0000
,
0001
1000
0100
1000
0010
0000
0000
0000
,
1000
0100
0110
0000
0001
0000
0110
0000
,
0010
0100
0100
0001
0000
1000
1100
0000
,
1000
0100
0110
0000
0001
0000
1000
0000
,
0001
0100
0010
1000
0000
1100
0100
0010
,
0001
0100
0110
0000
0001
0000
1000
0000
,
0010
1000
1001
0100
0000
1000
0100
0000
,
0001
0100
0110
0000
0001
0000
1000
0000
,
0010
0100
0001
0010
0100
0000
0000
0000
,
1000
0000
0001
0000
1000
0100
0010
0000
,
0001
0000
1000
0000
0001
0010
0100
0000
,
1000
0100
0010
0001
0010
0100
1000
0000
,
0001
1000
0001
1000
,
1000
0100
0010
0001
0100
1000
0010
0000
,
1000
0001
1000
0001
,
1000
0100
0010
0001
1000
0100
0010
0001
,
0100
0010
1000
0001
0100
0000
0000
0000
,
1000
0100
0010
0000
0100
0000
1000
0000
,
0001
0010
1000
0010
0000
0100
1000
0000
,
0010
1000
0010
0000
0100
0000
0001
0000
,
1000
0001
0010
0001
0000
1000
0100
0010
,
0001
0100
0010
0000
1000
0000
0001
0000
,
1000
0100
0001
0100
0000
1000
0100
0000
,
0001
0100
0001
0000
0010
0000
1000
0000
,
0001
1000
0100
1000
0010
0000
0000
0000
,
1000
0100
0110
0000
0001
0000
0110
0000
,
0010
0100
0100
0001
0000
1000
1100
0000
,
1000
0100
0110
0000
0001
0000
1000
0000
,
0001
0100
0010
1000
0000
1100
0100
0010
,
0001
0100
0110
0000
0001
0000
1000
0000
,
0010
1000
1001
0100
0000
1000
0100
0000
,
0001
0100
0110
0000
0001
0000
1000
0000
,
0010
0100
0001
0010
0100
0000
2002
0000
,
3003
0000
0000
0000
;
