#TITLE:Starstruck;
#SUBTITLE:;
#ARTIST:Lady Gaga;
#TITLETRANSLIT:A;
#SUBTITLETRANSLIT:;
#ARTISTTRANSLIT:;
#GENRE:;
#CREDIT:;
#MENUCOLOR:ddryellow;
#METERTYPE:DDR;
#BANNER:Starstruck.png;
#BACKGROUND:Starstruck-bg.png;
#LYRICSPATH:;
#CDTITLE:./CDTITLES/DanceDanceRevolution X2.png;
#MUSIC:Starstruck.mp3;
#OFFSET:-0.419;
#SAMPLESTART:50.900;
#SAMPLELENGTH:15.000;
#SELECTABLE:YES;
#LISTSORT:;
#BPMS:0.000=130.000;
#STOPS:;
#BGCHANGES:;
#ATTACKS:;

//---------------dance-single - ----------------
#NOTES:
     dance-single:
     :
     Hard:
     7:
     0.420,0.396,0.166,0.000,0.000:
0000
0000
1000
0001
1000
0000
0010
1000
,
0010
0000
0100
1000
0100
0010
0001
0010
,
0100
0010
0000
0000
1000
0100
0010
0000
,
0000
1000
0100
0010
0001
0000
0010
0100
,
0010
0000
0100
1000
0100
0010
0001
0010
,
0000
0100
0000
1000
0100
0010
0001
0010
,
0000
0010
0000
0000
1000
1000
0000
0000
,
0001
0001
0001
0001
0000
0000
1000
0100
,
0010
0001
0010
0000
0010
0010
0000
0100
,
0000
1000
0000
0000
0001
0000
1000
0000
,
0000
0000
1000
0100
0010
0100
0010
0000
,
0000
1000
0001
0000
0000
1000
0010
0100
,
0000
0010
0010
1000
,
0100
0010
0011
0000
0000
1000
0100
0000
,
0010
0001
1000
0001
,
0000
0000
1000
0100
0010
0001
0110
0000
,
0000
1000
0000
1001
0000
1010
0000
0100
,
0001
0100
0000
0010
0000
0000
0000
0000
,
1000
0100
1000
0001
0000
1000
0000
0010
,
1000
0010
1000
0000
0010
1000
0100
0000
,
0001
0000
0000
0000
1000
0100
0010
0001
,
0010
0000
0000
0000
1000
0100
0010
0100
,
0010
0100
0000
0001
0010
0000
0100
0000
,
1000
0100
0010
0001
0000
0000
0000
0000
,
0001
0010
0100
0000
0010
0100
0001
0010
,
0000
0000
1000
0100
0010
0001
0010
0000
,
0000
0000
0001
1000
0000
0010
0000
1010
,
0000
0000
1100
0100
0000
0010
0000
0000
,
0001
0010
0100
0010
0000
0100
1000
0001
,
0010
0000
0000
0100
1000
0100
0010
0001
,
0000
1001
1010
0000
0100
0000
1000
0001
,
0000
0010
1010
1001
0000
0010
1000
0100
,
0000
0010
0001
0010
1001
0010
1000
0100
,
0000
1000
0001
0100
0010
0000
0001
0010
,
0100
0010
0001
0010
0100
0010
0100
0010
,
0100
0000
0000
1000
0001
0010
0000
0100
,
0000
0000
1000
0000
0000
0001
1001
0000
,
0000
0000
0010
1000
0100
0000
0010
0001
,
0010
0000
0100
1000
0100
0000
0000
0001
,
0000
1000
0001
1000
0010
1000
0010
0000
,
0100
0000
1100
0000
0000
1000
0001
1000
,
0000
0000
0010
1000
0010
0000
1100
0010
,
0000
0001
0010
0000
0000
1000
0100
0010
,
0000
1000
0000
1001
0010
0000
0000
0000
,
0000
1000
0100
0010
0001
0010
0000
0100
,
0010
0100
0000
1000
0001
1000
0001
1000
,
0001
0000
1000
0010
1000
0000
0001
1000
,
0001
1000
0001
1000
0001
1000
0000
0000
;

//---------------dance-single - ----------------
#NOTES:
     dance-single:
     :
     Easy:
     3:
     0.206,0.185,0.000,0.000,0.000:
0000
0000
1000
1000
,
0001
0010
0100
0010
,
0001
1000
0000
0100
,
0100
0000
0001
0001
,
0000
1000
1000
1000
,
1000
0001
0000
0010
,
0100
0010
0000
1000
,
0001
1000
0001
0000
,
0010
0100
0001
0001
,
0000
1000
1000
1000
,
0000
0100
0010
0100
,
0001
0001
0000
1000
,
1000
1000
1000
0000
,
0001
0001
0000
0010
,
0010
0000
0100
0100
,
0000
0000
1000
1000
,
0000
0001
0001
0001
,
0001
1000
0000
0010
,
0100
0010
0000
0000
,
1000
0001
1000
0010
,
0000
0000
0100
0010
,
0000
0001
1000
0001
,
0010
0100
0000
0000
,
1000
0001
0000
0000
,
1000
0100
0010
0100
,
0000
0100
0100
0100
,
0000
0001
0001
0000
,
1000
1000
0000
0001
,
0000
1000
1000
0000
,
0010
0010
0000
0100
,
0100
0000
0000
0001
,
0001
0000
1000
0000
,
0000
0010
0010
0000
,
0100
0100
0000
1000
,
1000
0000
0001
0001
,
0000
1000
1000
0000
,
0010
0010
0000
0000
,
0100
0100
0100
0000
,
0001
0001
0001
0000
,
1000
1000
0000
0100
,
0100
0000
0001
0001
,
0000
1000
1000
0000
,
0010
0010
0010
0000
,
0000
0100
0100
0000
,
0000
0001
0001
0001
,
0000
0000
1000
1000
,
0000
0001
0000
1000
,
0000
0001
0000
1000
;

//---------------dance-single - Copied from----------------
#NOTES:
     dance-single:
     Copied from:
     Medium:
     4:
     0.270,0.264,0.022,0.000,0.000:
0000
1000
0001
1000
,
0001
0000
1000
0000
0001
0000
1000
0001
,
1000
0010
0000
0000
0000
0100
0000
0100
,
0000
0001
1000
0001
0000
0000
0000
0010
,
0000
0010
0000
0100
0000
0100
0000
0000
,
1000
0001
0000
0000
0000
1000
0000
0000
,
0001
0001
0000
1000
,
0000
0000
1000
0001
0000
0000
0000
0010
,
0000
0000
0000
0000
1000
0001
0000
0010
,
0000
0100
0000
0000
0001
0000
0010
0000
,
0000
1000
0100
0010
,
0000
1000
0001
0000
0000
0010
0100
0010
,
0000
0000
1000
0001
0000
0000
0010
0000
,
0000
1000
0000
0000
0001
0010
0000
0100
,
0000
0010
0001
0010
,
0000
0000
1000
0100
0010
0000
0001
0000
,
0000
1000
0000
0001
1000
0001
0000
0000
,
0010
0100
0010
0000
0000
0000
0000
0000
,
1000
0001
0000
0010
0000
0000
0000
0000
,
1000
0100
0000
0000
0000
0010
0001
0000
,
0000
1000
0000
0000
0100
0010
0100
0000
,
0000
0000
0000
0000
1000
0001
1000
0000
,
0000
0010
0100
0010
0000
0000
0000
0000
,
0000
1000
0001
1000
0000
0000
0000
0000
,
0010
0100
0010
0000
0000
1000
0001
1000
,
0000
0010
0000
0100
,
0000
0000
0001
0001
0000
0000
0000
1000
,
0000
0000
0000
0000
1000
0100
0000
0000
,
0000
0001
1000
0000
0000
0000
0010
0010
,
0000
0000
0000
1000
0001
0000
0000
1000
,
0000
0100
0000
0010
0000
0000
0000
0000
,
1000
0100
0010
0000
0000
0100
0000
0010
,
0000
0000
1000
0100
0010
0100
0000
0000
,
0000
1000
0001
1000
0000
0000
0000
1000
,
0100
1000
0000
0000
0010
0000
0100
0010
,
0000
0000
0000
1000
0100
0010
0000
0000
,
1000
0000
0001
0000
0000
1000
0001
1000
,
0000
0000
0010
0100
0010
0000
0000
0000
,
0000
1000
0001
1000
0000
0010
0000
0000
,
0000
1000
0100
0010
0000
0000
0000
1001
,
1000
0000
0000
0000
0000
0000
0010
0100
,
0010
0000
0000
1000
0000
0001
1000
0000
,
0001
0000
0000
0010
0100
0010
0000
0000
,
0000
0000
1000
0001
1000
0000
0000
0000
,
0010
0000
0000
0100
0000
0000
0001
0000
,
0000
1000
0000
0000
0001
0000
1000
0001
,
0000
1000
0000
0000
0000
0000
1001
0000
,
1000
0000
0010
0000
0000
0100
0000
0000
;

//---------------dance-single - Copied from----------------
#NOTES:
     dance-single:
     Copied from:
     Beginner:
     1:
     0.114,0.132,0.000,0.000,0.000:
0000
0000
1000
0000
,
0001
0000
1000
0000
,
0010
0000
0000
0100
,
0000
0000
0001
0000
,
0000
1000
0000
0000
,
0001
0000
0010
0000
,
0100
0100
0000
0001
,
0000
0000
1000
0000
,
0001
0000
0001
0001
,
0000
0010
0000
0000
,
0100
0000
0000
0001
,
0000
1000
0000
0010
,
0000
0000
0100
0000
,
0000
0001
0000
0000
,
1000
0000
0000
0010
,
0000
0000
0100
0000
,
0001
0000
0000
1000
,
0000
0000
0010
0000
,
0000
0100
0000
0000
,
0001
0000
0000
1000
,
0000
0000
0000
0001
,
0000
0000
0010
0000
,
0000
0100
0000
0000
,
0001
0000
0000
0100
,
0000
0000
0010
0000
,
0000
0100
0000
0000
,
0001
0000
1000
0000
,
0000
0000
0010
0000
,
0000
0100
0000
0000
,
0001
0000
1000
0000
,
0000
0010
0000
0000
,
0100
0000
0001
0000
,
0000
1000
0000
0001
,
0000
0000
0010
0000
,
0100
0000
0000
0001
,
0000
0000
1000
0000
,
0001
0000
0000
0010
,
0000
0000
0100
0000
,
0000
0001
0000
0000
,
1000
0000
0000
0010
,
0000
0000
0100
0000
,
0001
0000
0000
1000
,
0000
0000
0100
0000
,
0000
0001
0000
1000
,
0000
0000
0000
0100
,
0000
0000
0010
0000
,
0100
0000
0000
1000
,
0000
0001
0000
1000
;
