#TITLE:Programmed World;
#SUBTITLE:-SF_ Infected Mix-;
#ARTIST:Remixed by Sota Fujimori;
#TITLETRANSLIT:;
#SUBTITLETRANSLIT:;
#ARTISTTRANSLIT:;
#CREDIT:Pandemonium X;
#BANNER:program infectbn.png;
#BACKGROUND:prgmibg.png;
#LYRICSPATH:;
#CDTITLE:;
#MUSIC:Programmed World -SF_ Infected Mix-.mp3;
#OFFSET:-0.120;
#SAMPLESTART:30.864;
#SAMPLELENGTH:12.000;
#SELECTABLE:YES;
#BPMS:0.000=156.000,8.000=78.000,41.000=156.000,205.000=78.000;
#STOPS:40.000=0.096
,40.125=0.096
,40.250=0.096
,40.375=0.096
,40.500=0.096
,40.625=0.096
,40.750=0.096
,40.875=0.096
;
#BGCHANGES:;

//---------------dance-single - Round 1----------------
#NOTES:
     dance-single:
     Round 1:
     Hard:
     9:
     0.666,0.927,0.263,0.593,0.699:
0000
0000
0000
0000
,
0000
0000
0000
0000
,
1000
0010
0100
0001
0000
0100
0000
0100
0000
0100
0010
0000
0100
1000
0000
0000
,
0100
0000
0000
0001
0000
0010
0001
0100
0000
0001
1000
0000
0100
1000
0000
0000
,
0010
0001
1000
0100
0000
1000
0000
0010
0000
0100
0001
0000
1000
0100
0000
0000
,
1000
0000
0000
0001
0000
0001
0000
1000
0000
0010
0010
0000
0100
0100
0000
0000
,
1002
0000
0000
0010
0000
0010
0000
0020
0000
0000
0000
0000
0033
0000
0000
0000
,
0101
0000
0000
0101
0000
0000
0101
0000
0000
0000
0010
0000
0100
0000
0001
0000
0000
0000
1000
0000
0100
0000
0000
0000
0001
0000
0010
0000
0000
0000
0001
0000
,
0200
0310
0000
0001
0200
0310
0000
0001
0000
1000
0100
0000
0001
0010
0000
0001
,
0100
0000
0000
0100
0000
0110
0000
0101
0000
1000
0010
0000
1000
0100
0000
0000
,
0002
0023
0230
0320
0032
0203
0320
2030
3200
0300
0010
0000
0000
0000
0001
0000
0010
0000
0000
0000
0100
0000
0010
0000
0000
0000
0001
0000
0100
0000
0000
0000
,
0010
0100
1000
0001
1001
0000
0000
0001
0100
0000
0100
0010
0000
1000
0000
0001
,
0000
0001
0010
0000
0001
0000
0100
0000
0010
0000
0010
0000
0100
0000
0010
0000
,
1000
0000
1000
0000
1001
0000
0000
1000
0100
0000
0010
0001
0000
0001
0000
0100
,
0000
0010
1000
0000
0001
0000
0100
0000
1000
0000
0100
0000
0001
0000
0010
0000
,
0100
0000
0010
0000
0011
0000
0000
0001
0100
0000
0100
0010
0000
0010
0000
0010
,
0000
0100
0001
0000
1000
0000
0100
0000
0220
0000
0330
0000
1000
0000
0001
0000
,
2002
0000
3003
0000
0010
0000
0000
0001
0010
0100
0000
1000
0000
0100
0000
1000
,
0001
0000
0010
0000
0011
0000
0000
0101
0000
0000
1010
0000
0000
1100
0000
0000
,
2002
3003
0001
0100
0010
1000
0100
0010
,
0001
0000
0001
0100
0010
1000
0100
0010
,
0100
1000
0001
0010
0001
0100
0010
1000
,
0001
0000
1000
0001
0010
0001
1000
0200
,
0310
0100
1000
0010
0100
0001
0010
1000
,
0010
0000
0010
0001
0100
0010
1000
0100
,
0010
0100
1000
0001
0010
0001
0100
0010
,
0100
0000
0001
0010
0100
1000
0001
1000
,
0010
0000
0100
0000
0100
0010
0000
0100
0010
1000
0001
0010
0000
0100
0000
0010
,
0100
1000
0001
0000
0000
0000
0000
0000
0000
0000
0000
0000
0000
0000
0000
0000
,
0000
0000
0000
0000
1000
0010
0000
0100
0001
0010
0001
0100
0000
0100
0000
0010
,
1000
0001
0010
0000
0100
1000
0000
1000
0010
0000
0100
0001
0010
0000
0100
1000
,
0100
1000
0001
1000
0001
0010
0000
0100
1000
0010
0100
0010
0000
0020
0000
0130
,
0010
1000
0100
0000
0000
0000
0000
0000
0000
0000
0000
0000
0000
0000
0000
0000
,
0000
0000
0000
0000
0001
0010
0000
1000
0100
0010
0001
0100
0010
0100
0010
0100
,
0001
0100
0020
0032
0203
2300
3200
0302
,
0023
0230
1300
0000
2200
3300
0010
0000
,
0022
0033
0001
0000
2002
3003
0010
0000
,
0220
0330
0100
0000
0022
0033
0100
0000
,
0202
0303
0010
0000
2200
3300
0010
0000
,
0100
0100
0010
0000
2200
3300
0010
0000
,
0022
0033
0001
0000
0220
0330
1000
0000
,
0022
0033
0100
0000
2020
3030
0100
0000
,
0022
0000
0033
0000
0002
1000
0000
1000
0000
1003
0000
1000
0100
1000
0100
0010
,
0001
0100
0010
2000
0200
0000
0000
0000
3300
0000
0000
0000
1000
0000
0001
0000
,
0010
0000
0001
0100
0010
1000
0010
0100
,
0001
0000
1000
0000
0100
1000
0000
0000
0000
0000
1000
0000
0010
0000
0000
0100
,
0010
0100
0000
0000
0010
0000
1000
0000
0010
0000
0100
0000
0001
0000
0020
0000
,
0130
0010
0001
0001
0100
0000
0010
0010
,
1000
0000
1000
1000
0001
0010
0010
0100
,
1000
0000
0001
0000
0200
0020
0000
0000
0330
0000
0000
0000
0100
0000
0001
0000
,
0010
0000
0000
0000
0000
0000
0000
0000
1000
0000
0000
0000
0001
0000
0000
0000
0010
0000
0000
0000
0000
0000
0000
0002
0103
0000
0000
0000
0000
0000
0000
0000
,
0001
1000
0100
0000
0022
0000
0000
0000
0000
0030
0003
0000
0000
0001
0001
0000
,
1000
1000
0000
0000
0001
0000
0000
0100
0000
0000
1000
0100
0000
0100
0010
0000
,
0100
0001
0000
0000
0001
0010
0100
1000
0000
1000
0000
0010
0000
0100
0001
0000
,
0010
0001
0000
0000
0001
0000
0000
0100
0000
0000
0100
0010
0000
1000
0001
0000
,
0001
0010
0000
0000
2100
0000
0000
0001
0000
0001
0000
0001
0000
3001
0010
0000
,
0100
0010
0000
0000
0002
0000
0100
0203
0000
0010
0320
0100
0000
0130
0001
0000
,
0001
0010
0000
0000
0001
0100
0010
1000
0000
0001
0000
0010
0000
0001
0010
0000
,
0100
0000
0000
1000
0000
0000
0000
0000
0000
0000
0000
0000
0010
0000
0000
0000
0000
0000
0000
0000
0000
0100
0000
0000
0000
0000
0000
0100
0000
0000
0000
0000
0000
0010
0000
0000
0000
0000
0000
1000
0000
0000
0000
0000
0000
1000
0001
1000
,
0002
2000
3003
0000
0000
0000
0000
0000
0000
0000
0000
0000
0000
0000
0000
0000
;

//---------------dance-single - ----------------
#NOTES:
     dance-single:
     :
     Medium:
     8:
     0.423,0.527,0.119,0.373,0.309:
0000
0000
0000
0000
,
0000
0000
0000
0000
,
0010
0000
0000
0100
0000
0100
0000
0100
0000
0010
1000
0000
1000
0001
0000
0000
,
1000
0000
0000
0100
0000
1000
0000
0010
0000
0100
0001
0000
0001
0100
0000
0000
,
0010
0100
0010
0100
0000
0010
0000
1000
0000
0001
0010
0000
0100
1000
0000
0000
,
0100
0000
0000
0100
0000
0100
1000
0100
0000
0010
0001
0000
0001
0100
0000
0000
,
2001
0000
0000
0100
0000
0100
0000
0200
0000
0000
0000
0000
3300
0000
0000
0000
,
2000
0000
0000
3020
0000
0000
0200
0000
0000
0000
0000
0000
0000
0000
0330
0000
,
0001
0010
0100
0010
0000
0001
0000
0100
0000
0010
1000
0000
1000
0001
0000
0001
,
0010
0000
0000
0010
0000
0100
0000
1000
0000
1000
0001
0000
0001
0010
0000
0000
,
2002
3003
0000
0000
,
0000
0000
0010
0000
0101
0000
0010
1000
,
0100
0000
1000
0001
0020
0000
0031
0100
,
0020
0000
1030
0000
1100
0000
1000
0001
,
0010
0000
0001
0100
1000
0000
1000
0100
,
0001
0000
1001
0000
0010
0000
0100
0010
,
1000
0000
0001
0001
0100
0000
0001
0001
,
0010
0000
0100
0000
1100
0000
0100
0010
,
0001
0000
0000
0000
0001
0000
0000
0100
0000
0000
0010
0000
0000
1000
0000
0000
,
1001
0200
0301
0002
,
0013
0000
0020
0000
0130
0000
0100
1000
,
0100
0010
0002
0000
0103
0000
0200
0000
,
0310
0000
0020
0000
1030
0000
1000
0001
,
0010
0001
0200
0000
0310
0000
2000
0000
,
3100
0000
0002
0000
0013
0000
0001
0010
,
1000
0010
0002
0000
0103
0000
0200
0000
,
0310
0000
0020
0000
1030
0000
1000
0001
,
0010
0100
2100
0000
0100
0000
0010
0000
,
3001
0000
0000
0000
,
0000
0102
0100
0010
,
1003
1002
0013
2001
,
3100
0120
1000
0100
,
0031
0000
0000
0000
,
0000
0120
1000
0100
,
0001
0000
0130
0010
1000
0001
0010
0100
,
0010
0001
0200
0000
0000
0010
0000
1000
,
0000
0020
0000
0000
0000
0000
0000
0000
,
0330
0000
0002
0000
0000
1000
0000
0000
,
2000
0000
0000
0000
,
3003
0000
2000
0000
0000
0100
0000
0000
,
3100
2000
0000
0000
0000
0000
0000
0000
,
3000
0000
0200
0000
0000
0320
0000
0000
,
0002
0000
0000
0033
,
0000
0000
2002
0000
3003
0000
0001
1000
,
0001
0000
0100
0000
0010
0000
1000
0100
,
1000
0000
0001
0010
0000
0100
1000
0000
,
0001
0010
0000
0100
0010
0000
0010
1000
,
0001
0010
0100
0000
0010
0000
0001
0010
,
0100
0000
0010
0000
0001
0000
0100
0010
,
1000
0000
0001
0010
0000
1000
0100
0000
,
0100
0010
0000
0010
0100
0000
0100
1000
,
0001
0100
0020
0000
0000
0030
0000
0000
,
0000
0000
0000
0000
0010
0000
0000
0010
0000
0000
0100
0010
0000
0010
1000
0000
,
1000
0001
0000
0000
0010
0000
0100
0010
0000
0001
0000
0001
0000
0001
0010
0000
,
0100
1000
0000
0000
0100
0000
0000
0100
0000
0010
0001
0010
0000
0100
0010
0000
,
0010
0001
0000
0000
2000
0000
0000
0100
0000
0100
0000
0100
0000
3100
1000
0000
,
1000
0010
0000
0000
0200
0000
0000
0320
0000
0000
1030
0001
0000
0001
0010
0000
,
0010
0001
0000
0000
0001
0100
0010
1000
0000
0100
0000
0010
0000
0001
0010
0000
,
0100
1000
0000
0000
1000
0000
0000
0010
0000
0100
0000
0010
0000
1000
0001
0000
,
0020
0200
0000
0330
0000
0000
0000
0000
0000
0000
0000
0000
0000
0000
0000
0000
;

//---------------dance-single - ----------------
#NOTES:
     dance-single:
     :
     Easy:
     5:
     0.298,0.425,0.076,0.466,0.076: // measure 1
0000
0000
0000
0000
,  // measure 2
0000
0000
0000
0000
,  // measure 3
0002
0000
0000
0000
0000
0000
0000
0000
0000
0000
0000
0000
0000
0003
0000
0000
,  // measure 4
0200
0000
0000
0000
0000
0000
0000
0000
0000
0000
0000
0000
0000
0300
0000
0000
,  // measure 5
0020
0000
0000
0000
0000
0000
0000
0000
0000
0000
0000
0000
0000
0030
0000
0000
,  // measure 6
2000
0000
0000
0000
0000
0000
0000
0000
0000
0000
0000
0000
0000
3000
0000
0000
,  // measure 7
0001
0000
0000
0100
0000
0010
0000
2000
0000
0000
0000
0000
3000
0000
0000
0000
,  // measure 8
0001
0000
0000
1000
0000
0001
0000
0200
0000
0000
0000
0000
0300
0000
0000
0000
,  // measure 9
0010
0000
0000
1000
0000
0100
0000
0020
0000
0000
0000
0000
0030
0000
0000
0000
,  // measure 10
0001
0000
0000
0100
0000
0010
0000
1000
0000
0001
0100
0000
0010
1000
0000
0000
,  // measure 11
0000
0000
0000
0000
,  // measure 12
0000
0010
1001
0010
,  // measure 13
1001
0200
0310
0020
,  // measure 14
0130
0010
0101
0010
,  // measure 15
0101
0000
0000
0000
0200
0000
0000
0300
0010
0000
0000
0000
2000
0000
0000
0000
,  // measure 16
3100
1000
0011
1000
,  // measure 17
0011
0000
0100
0001
0100
0000
0010
1000
,  // measure 18
0010
0100
0001
1000
,  // measure 19
0100
0022
0000
0000
,  // measure 20
0033
0001
0000
0010
,  // measure 21
0000
1000
0000
0001
,  // measure 22
0010
0100
0000
0100
,  // measure 23
0000
1000
0000
0100
,  // measure 24
1000
0010
0000
0100
,  // measure 25
0000
0001
0000
1000
,  // measure 26
0100
0001
0000
0001
,  // measure 27
0000
0001
0100
1000
,  // measure 28
0010
0200
0320
2030
,  // measure 29
3200
1300
0010
0100
,  // measure 30
0001
2000
3200
0320
,  // measure 31
0230
2300
3002
0023
,  // measure 32
0032
0203
0320
2030
,  // measure 33
3200
0310
0010
0100
,  // measure 34
0100
0020
0032
0203
,  // measure 35
0320
2000
0000
0000
,  // measure 36
3030
0010
1000
0010
,  // measure 37
0100
0010
1000
0010
,  // measure 38
0100
0001
0010
0001
,  // measure 39
0100
0001
0010
0001
,  // measure 40
0100
0010
1000
0010
,  // measure 41
0100
0010
1000
0010
,  // measure 42
0100
0001
0010
0001
,  // measure 43
0100
0001
0010
0001
,  // measure 44
0000
0000
2200
0000
3300
0000
1000
0100
,  // measure 45
1000
0000
0010
0000
0100
0000
0010
1000
,  // measure 46
0001
0200
0000
0302
,  // measure 47
0000
0023
0001
0002
,  // measure 48
0033
0000
0001
0100
0010
0000
0010
0000
,  // measure 49
0100
0000
0010
1000
0001
0000
1000
0001
,  // measure 50
0100
0020
1030
0200
,  // measure 51
1300
1000
0001
0100
,  // measure 52
0010
1000
2002
0000
0000
0000
3003
0000
,  // measure 53
0000
0002
0000
0000
,  // measure 54
0000
0003
0000
0000
0200
0000
0000
0000
0000
0000
0000
0000
0000
0000
0000
0000
,  // measure 55
0000
0300
0020
0000
0000
0000
0000
0000
,  // measure 56
0000
0030
0000
0000
2000
0000
0000
0200
0000
0000
0000
0000
0000
0000
0000
0000
,  // measure 57
0000
3300
0000
0000
0020
0000
0000
0002
0000
0000
0000
0000
0000
0000
0000
0000
,  // measure 58
0000
0033
0000
0000
0002
0000
0000
0200
0000
0000
0000
0000
0000
0000
0000
0000
,  // measure 59
0000
0303
0000
0000
0020
0000
0000
0200
0000
0000
0000
0000
0000
0000
0000
0000
,  // measure 60
0300
0030
0000
0000
0000
0000
0000
0000
0000
0000
0000
0000
0000
0000
0000
0000
;
