#TITLE:cry_of_aether;
#SUBTITLE:;
#ARTIST:Lionheart82290;
#TITLETRANSLIT:;
#SUBTITLETRANSLIT:;
#ARTISTTRANSLIT:;
#GENRE:;
#CREDIT:;
#BANNER:;
#BACKGROUND:;
#LYRICSPATH:;
#CDTITLE:cdtitle.png;
#MUSIC:Cry_of_Aether.ogg;
#OFFSET:-0.025000;
#SAMPLESTART:0.080000;
#SAMPLELENGTH:11.959999;
#SELECTABLE:YES;
#BPMS:0.000000=140.021996;
#STOPS:;
#DELAYS:;
#TIMESIGNATURES:0.000000=4=4
;
#BGCHANGES:;
#KEYSOUNDS:;
#ATTACKS:;

//---------------dance-single - Kyzentun----------------
#NOTES:
     dance-single:
     Kyzentun:
     Challenge:
     12:
     0.921,0.924,0.464,0.119,1.000,543.000,43.000,11.000,35.000,1.000,1.000,0.000,0.921,0.924,0.464,0.119,1.000,543.000,43.000,11.000,35.000,1.000,1.000,0.000:
0000
0000
0000
0000
,
0000
0000
0000
0000
,
0000
0000
0000
0000
,
0000
0000
0000
0000
,
0000
0000
0000
0000
,
0000
0000
0000
0000
,
0000
0000
0000
0000
1000
1000
0001
0001
,
0100
0000
0100
0000
0010
0000
0010
0000
1000
0001
1000
0001
0100
0010
0100
0010
,
1000
0100
1000
0100
0010
0001
0010
0001
1000
0010
1000
0000
0001
0000
0001
0000
,
0001
0000
1000
0000
0100
0000
0010
0000
0001
1000
0010
0100
0010
1000
0100
0010
,
0200
0000
0000
0300
0200
0000
0000
0000
1300
0001
0100
0000
0010
0000
0010
0000
,
0010
0000
0010
0000
1000
0000
0001
0000
0100
0010
0100
1000
0100
0010
0100
0001
,
0200
0000
0000
0300
0200
0000
0000
0000
0310
1000
0200
0000
1000
0000
1000
0000
,
1300
0000
1000
0000
0100
0000
0010
0000
0001
1000
0010
0100
0010
1000
0100
0010
,
0002
0000
0000
0000
2003
0000
0000
0000
3010
0100
0001
1000
0100
0010
0100
1000
,
0010
0100
0010
0100
0001
1000
0010
1000
0001
0010
0001
1000
0100
0010
0100
1000
,
0002
0000
0000
0000
0023
0000
0000
0000
0130
1000
0001
0000
0101
0000
0010
1000
,
0001
0000
0010
0001
1000
0000
0110
0000
0100
0001
1000
0000
0110
0000
0010
1000
,
0001
0000
0100
0010
1000
0000
0010
0000
0100
0001
0010
0000
1100
0000
0100
1000
,
0010
0000
0100
0001
0010
0000
1100
0000
0010
0001
0100
0000
1010
0000
0010
1000
,
0100
0000
0010
0001
0100
0000
0101
0000
1000
0010
0100
0000
1010
0000
0001
0100
,
0010
0000
0010
0100
0001
0000
1100
0000
0010
0001
1000
0000
0101
0000
0010
1000
,
0001
0000
0010
0001
1000
0000
0101
0000
1000
0000
0001
0000
0001
0000
0100
0010
,
0100
0000
0001
0010
0001
0000
1000
0000
1000
0100
1000
0000
1000
0000
0010
0100
,
0010
0000
1000
0100
1000
0000
1000
0000
1001
0000
0000
0101
0000
0000
1100
0000
,
0110
0000
0010
0000
0011
0000
0001
1000
1001
0000
1010
0000
0110
0000
0100
0001
,
02M2
0000
0000
0000
0010
0000
0000
0303
0101
0000
0000
1100
0000
0000
1100
0000
,
0011
0000
1100
0000
0011
0000
0010
0100
0011
0000
1100
0000
1100
0000
1000
0010
,
1100
0000
0000
0011
1100
0000
0011
0000
1100
0000
0001
0100
0011
0000
1100
0000
,
1100
0000
0011
0000
0011
0000
1000
0001
0100
0000
0110
0000
0110
0000
0010
1000
,
1001
0000
0000
0000
0101
0000
0000
0000
0001
1000
0001
0100
0001
1000
0100
0010
,
0100
1000
0010
0100
0001
0100
0010
1000
0001
0010
0001
0100
0010
1000
0100
0010
,
0100
0000
0100
0000
0100
0000
0100
0000
0010
0001
1000
0010
0100
0010
0100
0010
,
0100
0010
0100
0010
0100
0010
1000
0001
1000
0001
1000
0001
1000
0001
1000
0001
,
0100
0001
0100
0001
1000
0100
1000
0100
0010
0001
0100
0010
1000
0010
1000
0010
,
1000
0010
1000
0010
1000
0010
0100
0001
0100
0001
0100
0001
0100
0001
0100
0001
,
1000
0010
1000
0010
0100
0001
0100
0001
10M0
0001
0010
0001
10M0
0100
1000
0100
,
100M
0100
1000
0100
10M0
0100
0010
0100
001M
0100
0010
0100
M010
0100
0010
0100
,
100M
0010
1000
0010
M100
0010
0100
0010
1M00
0001
0100
0001
M010
0001
0010
0001
,
0M10
0001
0010
0001
M010
0001
1000
0100
10M0
0100
1000
0100
100M
0100
1000
0001
,
01M0
0001
0100
0001
1M00
0010
1000
0010
0100
0001
1000
0001
0010
0001
1000
0100
,
0010
0100
0010
0001
1000
0010
0100
0010
1000
0010
1000
0001
0010
0001
0010
0001
,
1000
0010
0100
0010
1000
0010
0100
0010
1000
0001
0010
0100
0010
0001
1000
0010
,
0100
0010
1000
0010
0100
0010
1000
0010
0100
0001
1000
0100
0010
0001
1000
0001
,
0100
0010
1000
0100
0010
0001
1000
0001
10M0
0001
M100
0010
010M
0010
0100
0001
,
M010
0001
0010
0001
M100
0010
0100
0010
010M
0010
0100
0010
100M
0100
0010
0001
,
M100
0001
1000
0100
001M
0100
1000
0100
M010
0001
1000
0010
1M00
0001
0010
0001
,
M100
0001
1000
0001
01M0
0001
1000
0001
M100
0010
1000
0001
0M10
0001
1000
0010
,
M100
0001
1000
0100
10M0
0001
0100
0010
400M
0000
0000
0000
0010
0000
0000
0000
,
0001
0100
0001
0100
,
0010
0001
0010
0001
,
0100
0001
0010
0001
,
0100
0010
0000
0000
,
0000
0000
3000
0000
;

//---------------dance-double - Kyzentun----------------
#NOTES:
     dance-double:
     Kyzentun:
     Challenge:
     12:
     0.921,0.924,0.464,0.119,1.000,543.000,43.000,11.000,34.000,1.000,4.000,0.000,0.921,0.924,0.464,0.119,1.000,543.000,43.000,11.000,34.000,1.000,4.000,0.000:
00000000
00000000
00000000
00000000
,
00000000
00000000
00000000
00000000
,
00000000
00000000
00000000
00000000
,
00000000
00000000
00000000
00000000
,
00000000
00000000
00000000
00000000
,
00000000
00000000
00000000
00000000
,
00000000
00000000
00000000
00000000
00001000
00001000
00010000
00010000
,
00000010
00000000
00000010
00000000
00001000
00000000
00001000
00000000
00000001
00000100
00000001
00000100
00000010
00001000
00000010
00001000
,
00000100
00010000
00000100
00010000
00001000
01000000
00001000
01000000
00010000
00100000
00010000
00000000
10000000
00000000
10000000
00000000
,
10000000
00000000
01000000
00000000
00010000
00000000
00001000
00000000
00000100
00000010
00001000
00000001
00001000
00000100
00000010
00000001
,
00000020
00000000
00000000
00000030
00002000
00000000
00000000
00000000
00013000
00001000
01000000
00000000
00100000
00000000
00100000
00000000
,
00100000
00000000
00100000
00000000
00010000
00000000
00001000
00000000
00010000
00000100
00010000
00000010
00100000
00001000
00010000
00000010
,
00002000
00000000
00000000
00003000
00002000
00000000
00000000
00000000
00003100
00000010
00000002
00000000
00000100
00000000
00000100
00000000
,
00000103
00000000
00000100
00000000
00001000
00000000
00010000
00000000
00100000
10000000
00100000
01000000
00100000
10000000
01000000
00100000
,
00020000
00000000
00000000
00000000
00230000
00000000
00000000
00000000
00301000
00010000
00000100
00001000
00000010
00000100
00000010
00001000
,
00000001
00000010
00000001
00000010
00000100
00010000
00001000
00010000
01000000
00100000
00010000
10000000
01000000
00100000
01000000
10000000
,
00020000
00000000
00000000
00000000
00230000
00000000
00000000
00000000
00300100
00001000
00000001
00000000
00000101
00000000
00000010
00010000
,
00001000
00000000
00100000
00001000
00010000
00000000
01000100
00000000
01000000
00001000
00010000
00000000
00100010
00000000
00000010
00010000
,
00001000
00000000
00100000
01000000
10000000
00000000
00100000
00000000
01000000
00010000
00100000
00000000
00011000
00000000
00000100
00010000
,
00000010
00000000
00000100
00000001
00000010
00000000
00001100
00000000
00000010
00000100
00010000
00000000
00101000
00000000
00001000
01000000
,
00100000
00000000
01000000
00010000
00100000
00000000
00101000
00000000
10000000
00010000
00100000
00000000
00011000
00000000
00000010
00001000
,
00000001
00000000
00000001
00001000
00000010
00000000
00000011
00000000
00000100
00010000
00001000
00000000
00010010
00000000
00001000
00100000
,
00010000
00000000
00100000
00010000
10000000
00000000
01010000
00000000
00001000
00000000
00010000
00000000
00010000
00000000
00000010
00000100
,
00000010
00000000
00001000
00000100
00001000
00000000
00000001
00000000
00000001
00000010
00000001
00000000
00000001
00000000
00000100
00001000
,
00000100
00000000
00000010
00010000
00000010
00000000
00000010
00000000
00010010
00000000
00000000
00011000
00000000
00000000
01010000
00000000
,
01100000
00000000
00100000
00000000
10100000
00000000
10000000
00010000
10010000
00000000
00110000
00000000
00011000
00000000
00001000
00010000
,
000220M0
00000000
00000000
00000000
00000010
00000000
00000000
00033000
00011000
00000000
00000000
00110000
00000000
00000000
00110000
00000000
,
00001010
00000000
00110000
00000000
00001010
00000000
00000010
00100000
00001010
00000000
00110000
00000000
00110000
00000000
00100000
00000010
,
00110000
00000000
00000000
00001010
00110000
00000000
00001010
00000000
00110000
00000000
00000010
00100000
00001010
00000000
00110000
00000000
,
00110000
00000000
00001010
00000000
00001010
00000000
00010000
00000100
00001000
00000000
00001001
00000000
00001001
00000000
00000001
00000010
,
00000011
00000000
00000000
00000000
00001010
00000000
00000000
00000000
00000010
00001000
00000010
00010000
00000010
00100000
00001000
00010000
,
00001000
01000000
00010000
10000000
01000000
10000000
00010000
00100000
00001000
00010000
00001000
00100000
00000100
00001000
00000010
00000100
,
00000010
00000000
00000010
00000000
00000010
00000000
00000010
00000000
00000100
00000001
00001000
00000100
00010000
00000100
00010000
00000100
,
00010000
00000100
00010000
00000100
00010000
00000100
01000000
00001000
01000000
00001000
01000000
00001000
01000000
00001000
01000000
00001000
,
00010000
00001000
00010000
00001000
00100000
00010000
00100000
00010000
10000000
00100000
01000000
00010000
10000000
00010000
10000000
00010000
,
10000000
00010000
10000000
00010000
10000000
00010000
00100000
00001000
00100000
00001000
00100000
00001000
00100000
00001000
00100000
00001000
,
00010000
00000010
00010000
00000010
00001000
00000100
00001000
00000100
M0010000
00000100
00000010
00000100
00M01000
00000001
00001000
00000001
,
0M001000
00000001
00001000
00000001
00M01000
00000001
00000100
00000001
000M0100
00000001
00000100
00000001
M0000100
00000001
00000100
00000001
,
00M01000
00000010
00001000
00000010
M0010000
00000010
00010000
00000010
00100M00
00001000
01000000
00001000
1000000M
00001000
10000000
00001000
,
10000M00
00001000
10000000
00001000
100000M0
00001000
00100000
01000000
0010000M
01000000
00100000
01000000
00100M00
01000000
00100000
00010000
,
1000000M
00010000
10000000
00010000
00100M00
00001000
00100000
00001000
00010000
00000010
00001000
00000010
00000100
00000010
00001000
00000001
,
00000010
00000001
00000010
00000100
00010000
00001000
00100000
00001000
10000000
00001000
10000000
00010000
01000000
00010000
01000000
00010000
,
10000000
00100000
01000000
00100000
00010000
00100000
01000000
00100000
10000000
00010000
00100000
00001000
00100000
00000010
00010000
00001000
,
00100000
00001000
00010000
00001000
00000010
00001000
00010000
00001000
00100000
00000100
00010000
00000001
00001000
00000010
00000100
00000010
,
00001000
00000100
00010000
00001000
01000000
00010000
10000000
00010000
100000M0
00010000
01000000
00100000
0100000M
00100000
01000000
00001000
,
M0100000
00001000
00100000
00001000
M0010000
00000010
00010000
00000010
0001000M
00000010
00010000
00000010
0M001000
00000100
00010000
00001000
,
M1000000
00001000
00010000
00000100
0000100M
00000100
00000010
00000100
M0001000
00000001
00000100
00000010
0M000100
00001000
00010000
00001000
,
010000M0
00001000
00010000
00001000
00M00010
00001000
00010000
00001000
00100M00
00010000
10000000
01000000
0010000M
00010000
01000000
00001000
,
M0010000
00000100
00001000
00000001
00M00100
00000010
00010000
00001000
0M040000
00000000
00000000
00000000
00100000
00000000
00000000
00000000
,
10000000
01000000
00034000
00000010
,
00000001
00000100
00043000
00100000
,
10000000
01000000
00034000
00000010
,
00000001
00000100
00000000
00000000
,
00000000
00000000
00003000
00000000
;

//---------------dance-double - Kyzentun----------------
#NOTES:
     dance-double:
     Kyzentun:
     Hard:
     9:
     0.653,0.722,0.054,0.356,0.421,385.000,5.000,33.000,0.000,47.000,2.000,0.000,0.653,0.722,0.054,0.356,0.421,385.000,5.000,33.000,0.000,47.000,2.000,0.000:
00000000
00000000
00000000
00000000
,
00000000
00000000
00000000
00000000
,
00000000
00000000
00000000
00000000
,
00000000
00000000
00000000
00000000
,
00000000
00000000
00000000
00000000
,
00000000
00000000
00000000
00000000
,
00000000
00000000
00000000
00000000
00010000
00010000
00001000
00001000
,
01000000
01000000
00010000
00010000
10000000
01000000
00010000
00001000
,
00000100
00000000
00001000
00000000
00010000
00000000
00001000
00000000
00000010
00000001
00000010
00000000
00000100
00000000
00000100
00000000
,
00000100
00001000
00000001
00000100
00000010
00000100
00001000
00010000
,
00200000
00000000
00000000
00000000
02300000
00000000
00000000
00000000
03010000
10000000
00010000
00000000
00100000
00000000
00100000
00000000
,
00100000
00100000
01000000
00010000
01000000
00100000
00001000
00000010
,
00000002
00000000
00000000
00000003
00000002
00000000
00000000
00000000
00001003
00000010
00002000
00000000
00000001
00000000
00000001
00000000
,
00003001
00000001
00000010
00000100
00010000
01000000
00100000
00001000
,
02000000
00000000
03020000
00000000
01030000
10000000
00010000
00100000
,
01000000
00001000
00000100
00000001
00000010
00001000
00010000
00100000
,
00020000
00000000
00000000
00000000
00032000
00000000
00000000
00000000
00013000
00000100
00010000
00000000
00000100
00000000
00001000
00000010
,
00001000
00000000
00000001
00000010
00000001
00000000
00000010
00000000
00000100
00010000
00000100
00000000
00010000
00000000
00001000
01000000
,
00001000
00000000
00100000
00010000
00100000
00000000
00010000
00000000
01000000
00001000
00010000
00000000
00000100
00000000
00001000
00000100
,
00000010
00000000
00000100
00000010
00000001
00000000
00000010
00000000
00000001
00001000
00000010
00000000
00000100
00000000
00000010
00010000
,
00001000
00000000
00010000
00001000
00100000
00000000
00010000
00000000
10000000
00100000
01000000
00000000
10000000
00000000
01000000
00010000
,
10000000
00000000
10000000
00010000
00100000
00000000
00001000
00000000
00010000
00000100
00001000
00000000
00000001
00000000
00000100
00000010
,
00001000
00000000
00001000
00000010
00010000
00000000
00001000
00000000
01000000
00000000
00010000
00000000
00010000
00000000
10000000
00010000
,
10000000
00000000
00010000
00100000
00010000
00000000
00100000
00000000
00100000
00001000
00100000
00000000
00100000
00000000
00001000
00010000
,
00001000
00000000
00010000
00000100
00010000
00000000
00010000
00000000
00022000
00000000
00000000
00100010
00000000
00000000
00000010
00000000
,
01000000
00000000
00100000
00000000
01000000
00000000
00100000
10000000
00100000
00000000
10000000
00000000
10000000
00000000
00100000
01000000
,
00100000
00000000
00000000
00000000
00100010
00000000
00000000
00000000
00000011
00000000
00000000
00000010
00000000
00000000
00000001
00000000
,
00000001
00000000
00000010
00000000
00000010
00000000
00000100
00000010
00000100
00000000
00000001
00000000
00000001
00000000
00000100
00000010
,
00000100
00000000
00000000
00100000
00000010
00000000
00100000
00000000
00000010
00000000
00100000
00000010
00100000
00000000
00000001
00000000
,
00000001
00000000
10000000
00000000
10000000
00000000
00000010
00100000
00000010
00000000
00100000
00000000
00100000
00000000
00100000
00000010
,
00100000
00000000
00033000
00000000
00011000
00000000
00000000
00000000
00004000
00040000
00000000
00000000
00000000
00000000
00000000
00000000
,
00000000
00000000
00000000
00000000
00000000
00000000
00000000
00000000
00000000
00000000
00000000
00000000
00000000
00000000
00003000
00030000
,
00000100
00000000
00000100
00000000
00000100
00000000
00000100
00000000
00000000
00000010
00000000
00000000
00000001
00000000
00000100
00001000
,
00000000
00000000
00010000
00000000
00001000
00100000
00000000
00000000
01000000
00000000
10000000
00100000
10000000
00000000
00000000
00010000
,
01000000
00010000
01000000
00000000
00001000
00010000
00000000
00000000
00000100
00001000
00000000
00000000
00000010
00000000
00000100
00001000
,
00000000
00000000
00000100
00000000
00000001
00001000
00000000
00000000
00000100
00000000
00010000
00001000
00010000
00000000
00000000
00001000
,
00100000
00001000
00100000
00000000
00010000
10000000
00010000
00000000
01000000
00100000
00000000
00000000
10000000
00000000
00010000
00100000
,
00010000
00000000
00100000
00000000
00001000
00010000
00000000
00000000
00000100
00000000
00000010
00000001
00000010
00000000
00000000
00000100
,
00010000
00000100
00010000
00000000
00000010
00000100
00000000
00000000
00001000
00010000
00000000
00000000
00100000
00000000
01000000
00010000
,
01000000
00000000
10000000
00000000
01000000
00010000
00000000
00000000
00100000
00000000
00001000
00010000
00001000
00000000
00000000
00010000
,
00000010
00010000
00000010
00000000
00000100
00000001
00000000
00000000
00010000
00001000
00010000
00000000
00001000
00000000
01000000
00100000
,
01000000
00000000
00010000
10000000
00010000
10000000
00010000
00000000
00100000
00000000
01000000
00010000
01000000
00000000
00100000
00001000
,
00100000
00001000
00200000
00000000
00302000
00000000
00023000
00000000
00030010
00000000
00000100
00000000
00001000
00000000
00010000
00000000
,
00002000
00003020
00002030
00023000
01030000
10000000
00100000
00010000
,
00100000
00000000
02000000
00000000
03002000
00000000
00023000
00000000
00030100
00000010
00000001
00000000
00001000
00000000
00000010
00010000
,
00001000
00000000
00100000
00001000
00010000
00001000
00100000
00000000
00010000
00000000
10000000
00100000
01000000
00000000
00100000
10000000
,
00020000
00230000
02300000
03010000
00001000
00000010
00001000
00010000
,
00002000
00003200
00000320
00002030
00103000
01000000
10000000
01000000
,
00001000
00100000
01000000
00010000
00002000
00000000
00000010
00000000
,
00000001
00000100
00023000
00100000
,
10000000
01000000
00032000
00000010
,
00000001
00000100
00023000
00100000
,
10000000
01000000
00032000
00000000
,
00000000
00000000
00003000
00000000
;

//---------------dance-double - Kyzentun----------------
#NOTES:
     dance-double:
     Kyzentun:
     Medium:
     8:
     0.489,0.693,0.000,0.605,0.000,261.000,0.000,56.000,0.000,5.000,0.000,0.000,0.489,0.693,0.000,0.605,0.000,261.000,0.000,56.000,0.000,5.000,0.000,0.000:
00000000
00000000
00000000
00000000
,
00000000
00000000
00000000
00000000
,
00000000
00000000
00000000
00000000
,
00000000
00000000
00000000
00000000
,
00000000
00000000
00000000
00000000
,
00000000
00000000
00000000
00000000
,
00000000
00000000
00000000
00000000
00001000
00010000
00001000
00010000
,
00001000
00010000
00001000
00010000
00000100
00001000
00000010
00000100
,
00000010
00001000
00000100
00000001
00000100
00010000
00000100
00000000
,
00000100
00010000
00001000
00010000
00000100
01000000
00001000
00010000
,
00000020
00000000
00200030
00000000
00301000
00100000
10000000
00000000
,
10000000
00100000
01000000
00100000
01000000
00010000
00000100
00010000
,
00000020
00000000
00000230
00000000
00000310
00000020
00000000
00000000
,
00000031
00000010
00001000
00000100
00010000
00001000
00100000
00001000
,
02000000
00000000
03020000
00000000
01030000
00100000
00010000
00001000
,
00000010
00000001
00000100
00001000
00010000
01000000
10000000
00100000
,
00020000
00000000
00032000
00000000
00013000
00000100
00000010
00000100
,
00000010
00000001
00000010
00001000
00010000
00001000
00100000
00010000
,
00100000
01000000
10000000
01000000
00010000
01000000
00010000
00001000
,
00000010
00001000
00000010
00000100
00001000
00000001
00000100
00000010
,
00010000
00001000
00010000
00100000
01000000
00010000
10000000
01000000
,
00100000
01000000
00100000
00001000
00010000
00000010
00001000
00000001
,
00000010
00000100
00010000
00000100
00020000
00032000
00003000
00200000
,
00320000
10030000
20000000
30200000
02300000
03010000
00020000
00230000
,
00302000
00023000
00030200
00001300
00000002
00000000
00000000
00000200
,
00000000
00000020
00000000
00000333
,
00000000
00000000
00000000
00000000
00002000
00000000
00000000
00000200
,
00000000
00000020
00000000
00003330
,
00000000
00000000
00000000
00000000
00000200
00000000
00000000
02000000
,
00000000
00002000
00200000
00000000
,
00020000
03333300
00002000
00000000
,
00020000
00000000
00000000
00000000
00000000
00000000
00000000
00003000
,
00031000
00010000
00001000
00010000
00001000
00001000
00001000
00000000
,
00000000
00000000
00000000
01000000
00000000
00000000
00000000
00000000
,
00010000
00000000
10000000
00000000
01000000
01000000
01000000
00000000
,
00000000
00000000
00000000
00100000
00000000
00000000
00000000
00000000
,
00001000
00000000
00010000
00000000
00000010
00000010
00000010
00000000
,
00001000
00000000
00000001
00000010
00000100
00000000
00010000
00000000
,
00001000
00000000
00100000
00000000
00010000
00010000
00010000
00000000
,
01000000
00000000
00100000
10000000
00010000
00000000
00100000
00000000
,
00001000
00000000
00010000
00000000
00000100
00001000
00000001
00001000
,
00000100
00000010
00001000
00010000
00100000
01000000
10000000
01000000
,
00010000
00200000
00302000
00023000
00030010
00000100
00001000
00000100
,
00000002
00000023
00000230
00020300
00031000
01000000
00100000
00010000
,
00100000
02000000
03020000
20030000
31000000
00100000
00001000
00100000
,
00001000
00010000
00000010
00000100
00000010
00001000
00000001
00000010
,
00000200
00020300
00032000
00013000
00100000
01000000
10000000
01000000
,
00200000
20300000
30020000
00230000
00301000
00010000
00000100
00000010
,
00000001
00000100
00001000
00010000
00002000
00000000
00000010
00000000
,
00000001
00000100
00023000
00100000
,
10000000
01000000
00032000
00000010
,
00000001
00000100
00023000
00100000
,
10000000
01000000
00032000
00000000
,
00000000
00000000
00003000
00000000
;

//---------------dance-double - Kyzentun----------------
#NOTES:
     dance-double:
     Kyzentun:
     Easy:
     5:
     0.310,0.404,0.000,0.454,0.000,159.000,0.000,42.000,0.000,3.000,0.000,0.000,0.310,0.404,0.000,0.454,0.000,159.000,0.000,42.000,0.000,3.000,0.000,0.000:
00000000
00000000
00000000
00000000
,
00000000
00000000
00000000
00000000
,
00000000
00000000
00000000
00000000
,
00000000
00000000
00000000
00000000
,
00000000
00000000
00000000
00000000
,
00000000
00000000
00000000
00000000
,
00000000
00000000
00001000
00010000
,
00001000
00010000
00000010
00000100
,
00000010
00001000
00000100
00000000
,
00000100
00010000
00001000
01000000
,
00200000
20300000
30000000
00010000
,
00100000
00001000
00010000
00000010
,
00002000
00003002
00000023
00000000
,
00000031
00000010
00001000
00010000
,
02000000
03200000
01300000
00010000
,
00001000
00000100
00000001
00000100
,
00002000
00023000
00031000
00010000
,
00001000
00100000
00010000
00100000
,
01000000
00010000
01000000
10000000
,
00010000
01000000
00100000
00010000
,
00001000
00010000
00000100
00001000
,
00000100
00000001
00000100
00001000
,
00000010
00000001
00000020
00002030
,
00023000
02030000
03020000
20030000
,
32000000
00000000
03200000
00000000
00302000
00000000
00000000
00020000
,
00000000
00000020
00000000
00033030
,
00000000
00000000
00000000
00000000
00000200
00000000
00000000
00002000
,
00000000
00000020
00000000
00003330
,
00000000
00000000
00000000
00000000
00000002
00000000
00000000
00000203
,
00000000
00000320
00002000
00000000
,
00020000
00033030
00000200
00000000
,
00020000
00000000
00000000
00000000
00000000
00000000
00000000
00000300
,
00030100
00010000
00001000
00010000
,
00000000
00000000
00000000
00001000
00000000
00000000
00000000
00000000
,
00100000
00010000
10000000
00100000
,
00000000
00000000
00000000
01000000
00000000
00000000
00000000
00000000
,
00010000
00100000
00001000
00010000
,
00000010
00000100
00001000
00000100
,
00000010
00010000
00001000
00010000
,
01000000
00100000
00010000
10000000
,
00100000
01000000
00001000
00010000
,
00000100
00000001
00000100
00000010
,
00001000
00020000
01030000
10000000
,
02000000
03020000
00031000
00000100
,
00000001
00000200
00001300
00010000
,
00100000
10000000
00100000
00010000
,
00002000
00003010
00000001
00000010
,
00002000
00023000
00031000
00000100
,
00000001
00000100
00002000
00010000
,
00100000
00010000
00023000
00000100
,
00001000
00000100
00032000
01000000
,
00010000
01000000
00023000
00000010
,
00001000
00000010
00032000
00000000
,
00000000
00000000
00003000
00000000
;

//---------------dance-single - Kyzentun----------------
#NOTES:
     dance-single:
     Kyzentun:
     Hard:
     9:
     0.649,0.722,0.065,0.335,0.421,384.000,6.000,31.000,0.000,46.000,2.000,0.000,0.649,0.722,0.065,0.335,0.421,384.000,6.000,31.000,0.000,46.000,2.000,0.000:
0000
0000
0000
0000
,
0000
0000
0000
0000
,
0000
0000
0000
0000
,
0000
0000
0000
0000
,
0000
0000
0000
0000
,
0000
0000
0000
0000
,
0000
0000
0000
0000
0001
0001
1000
1000
,
0100
0100
0001
0001
0100
1000
0010
0001
,
0010
0000
0100
0000
0001
0000
1000
0000
0001
0010
0001
0000
0010
0000
0010
0000
,
0010
0100
1000
0001
0100
1000
0100
0010
,
2000
0000
0000
0000
3200
0000
0000
0000
0310
0001
0010
0000
0001
0000
0001
0000
,
0001
0001
0100
0010
0001
0010
1000
0100
,
0002
0000
0000
0000
0203
0000
0000
0000
1300
0010
2000
0000
0010
0000
0010
0000
,
3010
0010
0001
0010
0100
1000
0100
0001
,
2000
0000
3200
0000
0310
0001
0100
0010
,
0100
0001
0010
1000
0010
0001
1000
0010
,
0002
0000
0000
0000
0023
0000
0000
0000
0130
0001
0100
0000
0010
0000
1000
0010
,
1000
0000
0001
0010
0001
0000
1000
0000
0100
0010
0100
0000
1000
0000
0001
0100
,
0001
0000
1000
0100
1000
0000
0010
0000
0100
1000
0100
0000
0010
0000
0100
0010
,
1000
0000
0010
1000
0001
0000
0010
0000
0100
0010
0001
0000
1000
0000
0001
1000
,
0010
0000
1000
0001
0010
0000
0100
0000
0010
0100
1000
0000
0001
0000
0100
0001
,
1000
0000
0100
1000
0001
0000
0010
0000
0001
1000
0010
0000
0100
0000
1000
0100
,
0001
0000
0001
0100
0010
0000
1000
0000
0100
0000
1000
0000
1000
0000
1000
0001
,
1000
0000
0001
0010
0001
0000
0010
0000
0010
0100
0010
0000
0010
0000
0001
1000
,
0001
0000
0100
0010
0100
0000
0100
0000
0202
0000
0000
1010
0000
0000
1000
0000
,
0010
0000
1000
0000
0010
0000
1000
0010
1000
0000
0010
0000
1000
0000
0010
1000
,
0010
0000
0000
0000
1313
0000
0000
0000
2200
0000
0000
0011
0000
0000
0010
0000
,
0001
0000
0010
0000
0001
0000
0010
0001
0010
0000
0001
0000
0010
0000
0001
0010
,
0001
0000
0000
0010
0001
0000
0010
0000
0001
0000
0010
0001
0010
0000
0001
0000
,
0001
0000
0010
0000
0010
0000
0001
0010
0001
0000
0010
0000
0010
0000
0010
0001
,
3310
0000
0000
0000
1001
0000
0000
0000
4000
0004
0000
0000
0000
0000
0000
0000
,
0000
0000
0000
0000
0000
0000
0000
0000
0000
0000
0000
0000
0000
0000
3000
0003
,
1000
0000
1000
0000
1000
0000
1000
0000
0000
0010
0000
0000
0001
0000
0010
0100
,
0000
0000
0001
0000
0010
0100
0000
0000
0001
0000
0100
0010
0100
0000
0000
1000
,
0001
1000
0001
0000
0010
0001
0000
0000
1000
0010
0000
0000
0100
0000
1000
0100
,
0000
0000
0001
0000
0010
1000
0000
0000
0010
0000
0001
1000
0001
0000
0000
0100
,
0010
0100
0010
0000
1000
0001
1000
0000
0100
0010
0000
0000
1000
0000
0010
0001
,
0010
0000
0100
0000
1000
0001
0000
0000
0100
0000
1000
0100
1000
0000
0000
0100
,
0001
0100
0001
0000
1000
0100
0000
0000
0010
0001
0000
0000
0010
0000
0100
0001
,
0100
0000
1000
0000
0100
0010
0000
0000
0001
0000
1000
0010
1000
0000
0000
0001
,
0100
0001
0100
0000
0010
1000
0000
0000
0001
0010
0001
0000
1000
0000
0100
0010
,
0100
0000
1000
0001
1000
0001
1000
0000
0010
0000
0100
0001
0100
0000
0010
0001
,
0010
0001
0020
0000
0230
0000
0302
0000
0013
0000
1000
0000
0001
0000
0100
0000
,
2000
3002
0203
0320
0031
1000
0100
0001
,
0010
0000
2000
0000
3002
0000
0203
0000
1300
0001
0100
0000
0010
0000
1000
0010
,
0001
0000
0010
0100
0001
0100
0010
0000
1000
0000
0001
0010
0100
0000
1000
0001
,
0200
2300
3200
0301
0010
1000
0001
0100
,
2000
3002
0203
0320
0031
1000
0100
0001
,
0010
1000
0001
0100
2000
0000
0010
0000
,
0001
0100
0001
0010
,
0100
0010
0001
0100
,
0001
0010
0100
0010
,
0001
0100
0000
0000
,
0000
0000
3000
0000
;

//---------------dance-single - Kyzentun----------------
#NOTES:
     dance-single:
     Kyzentun:
     Medium:
     8:
     0.481,0.693,0.000,0.562,0.000,260.000,0.000,52.000,0.000,5.000,0.000,0.000,0.481,0.693,0.000,0.562,0.000,260.000,0.000,52.000,0.000,5.000,0.000,0.000:
0000
0000
0000
0000
,
0000
0000
0000
0000
,
0000
0000
0000
0000
,
0000
0000
0000
0000
,
0000
0000
0000
0000
,
0000
0000
0000
0000
,
0000
0000
0000
0000
1000
0001
1000
0001
,
1000
0001
1000
0001
0100
0010
1000
0010
,
1000
0100
0010
1000
0010
0001
0010
0000
,
0010
0001
0100
0001
0010
0100
0001
0100
,
2000
0000
3020
0000
0031
0010
1000
0000
,
1000
0010
0100
0010
0100
0001
0010
0001
,
0020
0000
2030
0000
3010
0020
0000
0000
,
0031
0100
1000
0100
0001
1000
0100
0001
,
0200
0000
2300
0000
3010
0001
0010
1000
,
0001
0010
1000
0010
0001
0100
1000
0100
,
0002
0000
2003
0000
3100
0010
0001
0010
,
0001
1000
0001
0100
0010
0100
1000
0100
,
1000
0100
0010
1000
0001
1000
0001
0010
,
0100
0010
0100
0001
0100
0010
0001
1000
,
0100
1000
0001
0010
1000
0010
0001
0100
,
0010
0100
0010
1000
0001
0100
1000
0100
,
0010
0001
0010
1000
0002
0023
0030
0020
,
0032
1003
2000
3020
0230
0301
0002
0023
,
0230
0302
0203
1300
0002
0000
0000
0200
,
0000
0020
0000
0333
,
0000
0000
0000
0000
0002
0000
0000
2000
,
0000
0020
0000
3033
,
0000
0000
0000
0000
0200
0000
0000
2000
,
0000
0000
0002
0000
0020
0000
0000
0003
,
0002
3333
0002
0000
,
2000
0000
0000
0000
0000
0000
0000
0003
,
3001
1000
0001
1000
0001
0001
0001
0000
,
0000
0000
0000
0100
0000
0000
0000
0000
,
0001
0000
1000
0000
0100
0100
0100
0000
,
0000
0000
0000
0010
0000
0000
0000
0000
,
0001
0000
1000
0000
0010
0010
0010
0000
,
0100
0000
0001
0100
0010
0000
0001
0000
,
0010
0000
1000
0000
0001
0001
0001
0000
,
0100
0000
0001
0010
0100
0000
0010
0000
,
1000
0000
0010
0000
0001
0100
0010
0100
,
0001
1000
0100
0001
0100
0010
0001
0100
,
0010
0002
0023
2030
3001
0010
0100
0010
,
0002
2003
3200
0320
0031
1000
0010
0001
,
0010
0200
0302
2003
3100
0010
0001
0010
,
0001
0100
1000
0100
1000
0100
0001
1000
,
0200
0302
0203
0301
0100
0010
0001
0010
,
0200
2300
3002
2003
3010
0001
0010
1000
,
0100
0001
0100
1000
0020
0000
0100
0000
,
1000
0100
0001
1000
,
0001
0100
1000
0100
,
0001
1000
0001
0100
,
1000
0100
0000
0000
,
0000
0000
0030
0000
;

//---------------dance-double - Kyzentun----------------
#NOTES:
     dance-double:
     Kyzentun:
     Edit:
     5:
     0.302,0.404,0.000,0.410,0.000,158.000,0.000,38.000,0.000,3.000,0.000,0.000,0.302,0.404,0.000,0.410,0.000,158.000,0.000,38.000,0.000,3.000,0.000,0.000:
00000000
00000000
00000000
00000000
,
00000000
00000000
00000000
00000000
,
00000000
00000000
00000000
00000000
,
00000000
00000000
00000000
00000000
,
00000000
00000000
00000000
00000000
,
00000000
00000000
00000000
00000000
,
00000000
00000000
10000000
00010000
,
10000000
00010000
01000000
00100000
,
01000000
00010000
10000000
00000000
,
10000000
00010000
00100000
01000000
,
00200000
00320000
00030000
10000000
,
00100000
01000000
00010000
00100000
,
02000000
03200000
00320000
00000000
,
10030000
00100000
00010000
00100000
,
02000000
03200000
01300000
00010000
,
10000000
01000000
00010000
01000000
,
00200000
00320000
10030000
00010000
,
01000000
00100000
00010000
00100000
,
01000000
00010000
01000000
10000000
,
01000000
00100000
10000000
00010000
,
00100000
00010000
01000000
00100000
,
00010000
00100000
01000000
00010000
,
10000000
01000000
00200000
02300000
,
03020000
02030000
03200000
00320000
,
02030000
00000000
03200000
00000000
20300000
00000000
00000000
00020000
,
00000000
00200000
00000000
30330000
,
00000000
00000000
00000000
00000000
20000000
00000000
00000000
02000000
,
00000000
00200000
00000000
33300000
,
00000000
00000000
00000000
00000000
00200000
00000000
00000000
00320000
,
00000000
20030000
00020000
00000000
,
00200000
30330000
02000000
00000000
,
00020000
00000000
00000000
00000000
00000000
00000000
00000000
03000000
,
01030000
00010000
10000000
00010000
,
00000000
00000000
00000000
00100000
00000000
00000000
00000000
00000000
,
00010000
01000000
00100000
10000000
,
00000000
00000000
00000000
01000000
00000000
00000000
00000000
00000000
,
00100000
00010000
10000000
00010000
,
01000000
10000000
01000000
00100000
,
10000000
00010000
00100000
00010000
,
01000000
00100000
00010000
00100000
,
10000000
00010000
01000000
00010000
,
00100000
01000000
10000000
00010000
,
10000000
00020000
00130000
10000000
,
00200000
00320000
10030000
00100000
,
00010000
00200000
10300000
01000000
,
00010000
01000000
00100000
00010000
,
20000000
31000000
10000000
00010000
,
02000000
03200000
10300000
00100000
,
01000000
10000000
02000000
00010000
,
00100000
00010000
00100000
10000000
,
00100000
10000000
00100000
00010000
,
00100000
00010000
00100000
10000000
,
00100000
10000000
00000000
00000000
,
00000000
00000000
03000000
00000000
;

//---------------dance-single - Kyzentun----------------
#NOTES:
     dance-single:
     Kyzentun:
     Easy:
     5:
     0.302,0.404,0.000,0.410,0.000,158.000,0.000,38.000,0.000,3.000,0.000,0.000,0.302,0.404,0.000,0.410,0.000,158.000,0.000,38.000,0.000,3.000,0.000,0.000: // measure 1
0000
0000
0000
0000
,  // measure 2
0000
0000
0000
0000
,  // measure 3
0000
0000
0000
0000
,  // measure 4
0000
0000
0000
0000
,  // measure 5
0000
0000
0000
0000
,  // measure 6
0000
0000
0000
0000
,  // measure 7
0000
0000
1000
0001
,  // measure 8
1000
0001
0100
0010
,  // measure 9
0100
0001
1000
0000
,  // measure 10
1000
0001
0010
0100
,  // measure 11
0020
0032
0003
1000
,  // measure 12
0010
0100
0001
0010
,  // measure 13
0200
0320
0032
0000
,  // measure 14
1003
0010
0001
0010
,  // measure 15
0200
0320
0130
0001
,  // measure 16
1000
0100
0001
0100
,  // measure 17
0020
0032
1003
0001
,  // measure 18
0100
0010
0001
0010
,  // measure 19
0100
0001
0100
1000
,  // measure 20
0100
0010
1000
0001
,  // measure 21
0010
0001
0100
0010
,  // measure 22
0001
0010
0100
0001
,  // measure 23
1000
0100
0020
0230
,  // measure 24
0302
0203
0320
0032
,  // measure 25
0203
0000
0320
0000
2030
0000
0000
0002
,  // measure 26
0000
0020
0000
3033
,  // measure 27
0000
0000
0000
0000
2000
0000
0000
0200
,  // measure 28
0000
0020
0000
3330
,  // measure 29
0000
0000
0000
0000
0020
0000
0000
0032
,  // measure 30
0000
2003
0002
0000
,  // measure 31
0020
3033
0200
0000
,  // measure 32
0002
0000
0000
0000
0000
0000
0000
0300
,  // measure 33
0103
0001
1000
0001
,  // measure 34
0000
0000
0000
0010
0000
0000
0000
0000
,  // measure 35
0001
0100
0010
1000
,  // measure 36
0000
0000
0000
0100
0000
0000
0000
0000
,  // measure 37
0010
0001
1000
0001
,  // measure 38
0100
1000
0100
0010
,  // measure 39
1000
0001
0010
0001
,  // measure 40
0100
0010
0001
0010
,  // measure 41
1000
0001
0100
0001
,  // measure 42
0010
0100
1000
0001
,  // measure 43
1000
0002
0013
1000
,  // measure 44
0020
0032
1003
0010
,  // measure 45
0001
0020
1030
0100
,  // measure 46
0001
0100
0010
0001
,  // measure 47
2000
3100
1000
0001
,  // measure 48
0200
0320
1030
0010
,  // measure 49
0100
1000
0200
0001
,  // measure 50
0010
0001
0010
1000
,  // measure 51
0010
1000
0010
0001
,  // measure 52
0010
0001
0010
1000
,  // measure 53
0010
1000
0000
0000
,  // measure 54
0000
0000
0300
0000
;
