#TITLE:Cradle;
#SUBTITLE:;
#ARTIST:positive MA feat.akino;
#TITLETRANSLIT:;
#SUBTITLETRANSLIT:;
#ARTISTTRANSLIT:;
#CREDIT:;
#BANNER:;
#BACKGROUND:;
#LYRICSPATH:;
#CDTITLE:;
#MUSIC:Cradle.mp3;
#OFFSET:-2.725;
#SAMPLESTART:26.250;
#SAMPLELENGTH:12.000;
#SELECTABLE:YES;
#BPMS:0.000=80.000,80.000=160.000,84.000=188.000;
#STOPS:;
#BGCHANGES:;

//---------------dance-single - ----------------
#NOTES:
     dance-single:
     :
     Beginner:
     2:
     0.130,0.120,0.009,0.000,0.000:
0000
0000
0000
0000
,
0000
0000
0000
0000
,
1000
0000
1000
0000
,
0001
0000
0001
0000
,
1000
0000
0010
0000
,
0100
0000
0001
0000
,
1000
0000
0100
0000
,
0010
0000
0001
0000
,
0100
0000
0010
0000
,
1000
0000
0001
0000
,
0010
0000
0100
0000
,
1000
0000
0001
0000
,
0100
0000
0010
0000
,
1000
0000
0001
0000
,
1000
0000
0001
0000
,
0100
0000
0010
0000
,
1000
0000
0010
0000
,
0100
0000
0001
0000
,
0010
0000
0100
0000
,
1000
0000
0001
0000
,
0000
0000
0000
0000
,
0000
0000
0000
0000
,
1000
0000
1000
0000
,
0001
0000
0001
0000
,
0100
0000
0100
0000
,
0010
0000
0010
0000
,
1000
0000
1000
0000
,
0100
0000
0100
0000
,
0010
0000
0010
0000
,
0001
0000
0001
0000
,
1000
0000
1000
0000
,
0010
0000
0010
0000
,
0100
0000
0100
0000
,
0001
0000
0001
0000
,
0010
0000
0010
0000
,
0100
0000
0100
0000
,
1000
0000
1000
0000
,
0001
0000
0001
0000
,
1000
0000
1000
0000
,
0001
0000
0001
0000
,
0100
0000
0100
0000
,
0010
0000
0010
0000
,
1000
0000
1000
0000
,
0010
0000
0010
0000
,
0100
0000
0100
0000
,
0001
0000
0001
0000
,
1000
0000
1000
0000
,
0100
0000
0100
0000
,
0010
0000
0010
0000
,
0001
0000
0001
0000
,
0100
0000
0100
0000
,
0010
0000
0010
0000
,
0100
0000
0010
0000
,
0100
0000
1001
0000
;

//---------------dance-single - ----------------
#NOTES:
     dance-single:
     :
     Easy:
     4:
     0.232,0.289,0.171,0.000,0.000:
0000
0000
0000
0000
,
0000
0000
0000
0000
,
1000
0100
0010
0000
,
0001
0100
0010
0000
,
1000
0001
1000
0000
,
0001
1000
0001
0000
,
0100
0010
0100
0000
,
0010
0100
0010
0000
,
1000
0010
1000
0010
,
0100
0001
0100
0000
,
0001
0100
0001
0100
,
0010
1000
0010
0000
,
1000
0100
1000
0100
,
0010
0001
0010
0000
,
0001
0010
0001
0010
,
0100
1000
0100
0000
,
1000
0001
1000
0000
,
0001
1000
0001
0000
,
0100
0010
0100
0000
,
0010
0100
0010
0000
,
0000
0000
0000
0000
,
0000
0000
0000
0000
,
1000
0001
1000
0000
,
0001
1000
0001
0000
,
0100
0010
1010
0000
,
0100
0010
0011
0000
,
0001
0010
0100
0000
,
1000
0100
0010
0000
,
1000
0100
0101
0000
,
0001
0100
1100
0000
,
1000
0001
1000
0000
,
0001
0100
0001
0000
,
0100
0010
1010
0000
,
0100
0010
0011
0000
,
0001
0010
0100
0000
,
1000
0100
0010
0000
,
0001
1000
1010
0000
,
1000
0001
0011
0000
,
0001
0100
0001
0100
,
0010
1000
0010
0000
,
1000
0100
0011
0001
,
0100
0010
1100
0000
,
1000
0001
1000
0001
,
0100
0010
0100
0000
,
0010
1000
1100
0000
,
0010
0001
0101
0000
,
0001
0010
0001
0010
,
0100
1000
0100
1000
,
0100
0010
0011
0000
,
0100
0010
1010
0000
,
1000
0100
0010
0001
,
1100
0010
1001
0001
,
0110
0100
1100
0000
,
0010
0100
0101
0000
;

//---------------dance-single - ----------------
#NOTES:
     dance-single:
     :
     Medium:
     6:
     0.342,0.340,0.126,0.009,0.000:
0000
0000
0000
0000
,
0000
0000
0000
0000
,
1000
0100
0010
0000
1001
0000
0000
0000
,
0001
0100
0010
0000
1001
0000
0000
0000
,
1000
0100
1000
0100
0010
0000
0000
0000
,
0001
0100
0001
0100
0010
0000
0000
0000
,
1000
0010
1000
0010
0100
0000
0000
0000
,
0001
0010
0001
0010
0100
0000
0000
0000
,
1000
1000
1000
0000
0001
0000
0000
0000
,
0001
0001
0001
0000
1000
0000
0000
0000
,
0100
0100
0100
0000
0010
0000
0000
0000
,
0010
0010
0010
0000
0100
0000
0000
0000
,
1000
0100
0001
0000
0010
0000
0000
0000
,
0001
0100
1000
0000
0010
0000
0000
0000
,
1000
0010
0001
0000
0100
0000
0000
0000
,
0001
0010
1000
0000
0100
0000
0000
0000
,
1000
0100
1000
0100
0001
0000
0000
0000
,
0001
0100
0001
0100
1000
0000
0000
0000
,
1000
0010
1000
0010
0001
0000
0000
0000
,
0001
0010
0001
0010
1000
0000
0000
0000
,
0000
0000
0000
0000
,
0000
0000
0000
0000
,
1000
0100
1000
0000
0001
0000
0001
0000
,
0100
0010
0100
0000
0001
0000
0001
0000
,
0010
0100
1000
0000
0010
0100
0001
0000
,
0010
1001
0100
1001
,
1000
0100
1000
0000
0001
0100
0001
0000
,
0100
0100
0010
0010
,
1000
0010
0100
0000
0001
0010
0100
0000
,
1000
0100
0001
0100
1000
0000
1001
0000
,
0001
0001
0001
0000
1000
1000
1000
0000
,
0010
0101
0010
1100
,
1000
0100
0001
0000
0001
0100
1000
0000
,
0010
0100
0010
0000
0010
0100
0010
0000
,
1000
0100
1000
0100
,
0001
0100
0001
0100
,
1000
0010
0001
0000
1000
0100
0001
0000
,
1000
0001
1000
0001
1000
0000
0110
0000
,
0010
0010
0010
0000
0100
0100
0100
0000
,
0010
1000
0100
0000
0010
0001
0100
0000
,
0001
0001
1000
1000
,
0100
1000
0001
0000
0010
0001
1000
0000
,
0010
0010
0010
0000
0100
0100
0100
0000
,
0001
0101
1000
1100
,
0001
0010
0100
0000
1000
0100
0010
0000
,
0001
0100
0010
0000
1000
0100
0010
0000
,
1000
1000
1000
0000
0010
0000
0101
0000
,
0001
0001
0001
0000
0010
0000
1100
0000
,
1000
0100
1000
0000
0001
0100
0001
0000
,
0010
1100
0010
0101
,
1000
0100
0001
0000
1000
0010
0001
0000
,
0010
0100
0010
0000
0100
0010
0100
0000
,
0001
0010
0100
0000
1000
0100
0010
0000
,
0001
0010
0100
1000
0200
0000
0000
0300
;

//---------------dance-single - ----------------
#NOTES:
     dance-single:
     :
     Challenge:
     9:
     0.475,0.414,0.153,0.180,0.180:
0000
0000
0000
0000
,
0000
0000
0000
0000
,
1000
0100
0000
0000
1000
0000
0100
1000
0200
0000
0000
0000
0300
0000
0000
0000
,
0001
0100
0000
0000
0001
0000
0100
0001
0200
0000
0000
0000
0300
0000
0000
0000
,
0010
1000
0000
1000
0010
0000
1000
0010
2000
0000
0000
0000
3000
0000
0000
0000
,
0010
0001
0000
0001
0010
0000
0001
0010
0002
0000
0000
0000
0003
0000
0000
0000
,
0100
0010
0000
0100
0010
0000
0100
0010
0200
0000
0000
0000
0300
0000
0000
0000
,
0010
0100
0000
0010
0100
0000
0010
0100
0020
0000
0000
0000
0030
0000
0000
0000
,
1000
0010
0000
0010
0100
0000
0100
0000
0002
0000
0000
0000
0103
0000
0000
0000
,
0001
0100
0000
0100
0010
0000
0010
0000
2000
0000
0000
0000
3010
0000
0000
0000
,
1000
0100
0000
0100
0001
0000
0001
0000
0200
0000
0000
0000
1300
0000
0000
0000
,
0001
0010
0000
0010
1000
0000
1000
0000
0020
0000
0000
0000
0031
0000
0000
0000
,
0100
0010
0000
0010
1000
0000
1000
0000
0200
0000
0000
0000
0310
0000
0000
0000
,
0100
0010
0000
0010
0001
0000
0001
0000
0200
0000
0000
0000
0310
0000
0000
0000
,
1000
0001
0000
0001
0100
0000
0100
0000
0002
0000
0000
0000
1003
0000
0000
0000
,
0001
1000
0000
1000
0010
0000
0010
0000
2000
0000
0000
0000
3001
0000
0000
0000
,
1000
0100
0000
1000
0100
0000
0100
0000
2000
0000
0000
0000
3100
0000
0000
0000
,
0001
0100
0000
0001
0100
0000
0100
0000
0002
0000
0000
0000
0103
0000
0000
0000
,
0010
0100
0000
0001
0010
0000
0100
0000
2000
0000
0000
0000
3010
0000
0000
0000
,
0100
0010
0000
1000
0100
0000
0010
0000
0002
0000
0000
0000
0103
0000
0000
0000
,
0000
0000
0000
0000
,
0000
0000
0000
0000
,
1000
0100
0010
0001
0010
0100
1000
0000
,
0001
0010
0100
1000
0100
0010
0001
0000
,
1000
0001
1000
0000
1010
0000
0101
0000
,
0001
0010
0100
1000
0010
0100
0001
0000
,
1000
0100
0001
0000
1001
0000
0110
0000
,
0001
0010
0100
1000
0010
0100
0001
0000
,
1100
0010
0010
0000
0101
0010
0010
0000
,
1000
0100
0001
0100
1000
0001
0100
0000
,
1000
1000
1000
0000
0001
0001
0001
0000
,
0100
0010
1000
0010
0100
0001
0010
0000
,
0100
1000
1100
0000
0001
0100
0101
0000
,
0001
0010
0100
1000
0010
0100
0001
0010
,
0100
1000
0100
0000
0100
0010
0100
0000
,
0100
0010
0001
0100
0010
1000
0100
0000
,
0011
0001
0001
0000
1010
1000
1000
0000
,
0001
0010
0100
1000
0010
0100
0001
0000
,
1000
0100
1000
0000
0001
0100
0001
0000
,
1000
0010
1000
0000
0001
0010
0001
0000
,
0100
0010
0100
0010
0100
0010
0100
0000
,
0010
0100
0010
0100
0010
0100
0010
0000
,
1000
0100
1000
0100
0010
0001
0010
0000
,
0001
0010
0001
0010
0100
1000
0100
0000
,
1100
0100
0100
0000
0101
0100
0100
0000
,
1010
0010
0010
0000
0011
0010
0010
0000
,
1000
0010
0100
0001
1000
0010
0100
0000
,
0001
0010
0100
1000
0001
0010
0100
0000
,
1000
0100
0001
0100
1000
0100
0001
0000
,
0001
0100
1000
0100
0001
0100
1000
0000
,
0001
1000
0001
1000
0001
0100
0010
0100
,
1100
0100
0100
0000
0101
0100
0100
0000
,
1000
0010
0010
0000
0001
0010
0010
0000
,
0100
0100
0100
0000
2002
0000
0000
0000
,
0000
3003
0000
0000
0000
0000
0000
0000
;

//---------------dance-single - ----------------
#NOTES:
     dance-single:
     :
     Hard:
     8:
     0.450,0.506,0.162,0.009,0.072: // measure 1
0000
0000
0000
0000
,  // measure 2
0000
0000
0000
0000
,  // measure 3
1000
0100
0010
0001
0100
0000
0010
0000
,  // measure 4
0001
0010
0100
1000
0010
0000
0100
0000
,  // measure 5
1000
0001
1000
0001
0100
0010
0100
0000
,  // measure 6
0010
1000
0010
0100
0001
0100
0001
0000
,  // measure 7
1000
0100
0010
0001
0100
0010
1000
0000
,  // measure 8
0001
0010
0100
1000
0010
0100
0001
0000
,  // measure 9
1000
0000
0100
0000
0010
0000
0001
0010
0001
0000
0010
0000
0100
0000
0000
0000
,  // measure 10
0001
0000
0010
0000
0100
0000
1000
0100
1000
0000
0100
0000
0010
0000
0000
0000
,  // measure 11
0001
0000
1000
0000
0001
0000
1000
0010
1000
0000
0010
0000
0100
0000
0000
0000
,  // measure 12
1000
0000
0001
0000
1000
0000
0001
0010
0001
0000
0100
0000
0010
0000
0000
0000
,  // measure 13
1000
0000
0100
0000
0010
0000
0001
0010
0100
0000
1000
0000
0001
0000
0000
0000
,  // measure 14
0001
0000
0010
0000
0100
0000
1000
0100
0010
0000
0001
0000
1000
0000
0000
0000
,  // measure 15
0001
0000
0010
0000
0100
0000
1000
0010
0100
0000
0001
0000
1000
0000
0000
0000
,  // measure 16
0100
0000
0010
0000
0001
0000
0100
0010
1000
0000
0100
0000
1000
0000
0000
0000
,  // measure 17
0001
0000
1000
0000
0010
0000
0100
0010
0100
0010
0100
0000
0001
0000
0100
0000
,  // measure 18
0010
0000
1000
0000
0100
0000
0010
0100
0010
0100
0010
0000
0100
0000
1000
0000
,  // measure 19
0001
0000
0100
0000
0010
0000
1000
0001
1000
0001
1000
0000
0001
0000
0010
0000
,  // measure 20
0100
0000
1000
0000
0100
0000
0001
1000
0001
1000
0001
0000
1000
0000
0200
0000
,  // measure 21
0000
0000
0000
0000
,  // measure 22
0000
0000
0000
0000
,  // measure 23
0301
0010
0100
0000
1000
0100
0010
0000
,  // measure 24
0100
1001
0010
1001
,  // measure 25
1000
0010
0100
0000
0001
0100
0010
0000
,  // measure 26
1010
0100
0011
0100
,  // measure 27
0001
1000
0100
0000
1000
0001
0100
0000
,  // measure 28
0001
1000
0010
1000
0001
0100
0001
0000
,  // measure 29
0010
0100
1000
0000
1100
0000
0101
0000
,  // measure 30
0001
0010
0100
0000
1010
0000
0011
0000
,  // measure 31
0001
0100
0001
0100
0010
1000
0010
0000
,  // measure 32
1000
0100
1000
0100
0010
0001
0010
0000
,  // measure 33
0001
1000
0001
0000
0110
0000
1010
0000
,  // measure 34
0010
0100
0001
0000
0010
0100
0001
0000
,  // measure 35
1000
0100
1000
0100
0010
0001
0010
0000
,  // measure 36
0001
0010
0001
0010
0100
1000
0100
0000
,  // measure 37
1000
0100
1100
0000
0001
0100
0101
0000
,  // measure 38
0001
0010
0100
1000
,  // measure 39
1000
0010
1000
0000
0001
0010
0001
0000
,  // measure 40
0100
0010
0100
0010
1000
0001
1000
0000
,  // measure 41
0011
0001
0001
0000
1010
1000
1000
0000
,  // measure 42
0010
0100
0001
1000
,  // measure 43
0100
0010
0001
0000
0100
0010
1000
0000
,  // measure 44
0010
1000
0100
0010
0001
0100
0010
0000
,  // measure 45
1100
0100
0100
0000
0101
0100
0100
0000
,  // measure 46
0010
0010
0100
0110
,  // measure 47
1000
0001
1000
0000
0001
1000
0001
0000
,  // measure 48
1000
0100
0001
0100
,  // measure 49
1000
0010
1000
0000
0001
0010
0001
0000
,  // measure 50
0100
0010
0100
0010
1000
0001
1000
0001
,  // measure 51
1000
0100
0100
0000
0001
0100
0100
0000
,  // measure 52
1000
0100
0010
0001
0100
0010
1000
0000
,  // measure 53
0001
0010
0100
1000
0010
0100
0001
1000
,  // measure 54
0100
1000
0100
0000
1001
0000
0000
0000
;
