#TITLE:Smell Like This;
#SUBTITLE:;
#ARTIST:Y&Co.;
#TITLETRANSLIT:;
#SUBTITLETRANSLIT:;
#ARTISTTRANSLIT:;
#CREDIT:;
#BANNER:;
#BACKGROUND:;
#LYRICSPATH:;
#CDTITLE:;
#MUSIC:43 - Smell Like This.mp3;
#OFFSET:0.100;
#SAMPLESTART:66.390;
#SAMPLELENGTH:12.000;
#SELECTABLE:YES;
#BPMS:0.000=145.000;
#STOPS:157.000=1.250
;
#BGCHANGES:;

//---------------dance-single - ----------------
#NOTES:
     dance-single:
     :
     Easy:
     4:
     0.260,0.335,0.113,0.226,0.000:
0000
0000
0000
0000
,
0000
1000
0000
1000
,
0000
0001
0000
0001
,
0000
1000
0000
1000
,
0000
0002
0000
0000
,
0003
0100
0010
2000
,
3100
0010
0001
2000
,
0000
3001
0100
0020
,
0130
0001
1000
0200
,
0000
0310
0001
2000
,
3100
1000
0001
0200
,
0000
0310
2000
3100
,
0010
0001
1000
0000
,
0000
0001
0010
1000
,
0001
0100
1000
2002
,
3003
1000
0100
0001
,
1000
0010
0001
2002
,
3003
1000
0100
0001
,
1000
0001
0100
2200
,
3300
0001
0010
1000
,
0001
1000
0010
0022
,
0000
0033
0000
0000
,
0000
0000
0000
0000
,
0000
1000
0000
0000
,
1000
0000
0000
0000
,
0000
0001
0000
0000
,
0001
0000
0000
0000
,
0000
0100
0000
0000
,
0100
0000
0000
0000
,
0000
0010
0000
0000
,
0010
0000
0000
0000
,
0000
1000
0100
0001
,
0100
1000
0100
0001
,
0100
1000
0100
0001
,
0100
1000
0100
0001
,
0100
0010
0001
0010
,
1000
0010
0001
0010
,
1000
0010
0001
0010
,
1000
0020
0000
0000
,
0000
0130
0000
0000
,
0000
0010
0010
0001
,
0001
1000
1000
1100
,
0101
0001
0100
0010
,
1000
0100
0010
0011
,
0011
0001
0001
0010
,
0010
1000
1000
0011
,
1001
1000
0010
0100
,
0001
1000
0100
1100
,
1001
2000
3100
0020
,
0031
1000
1000
0001
,
0001
0200
0310
2000
,
3100
0010
0010
0001
,
0001
2000
3100
0002
,
0103
1000
0010
0001
,
0010
2000
3100
0020
,
0031
2000
0000
0000
,
0000
3000
0001
0000
0000
0000
0000
0000
,
0000
0001
0000
0000
,
0000
1000
0000
0000
,
0000
1000
0000
0000
,
0000
0010
0000
0000
,
0000
0010
0000
0000
,
0000
0100
0000
0000
,
0000
0100
0000
0000
,
0000
1001
0000
0000
;

//---------------dance-single - ----------------
#NOTES:
     dance-single:
     :
     Medium:
     6:
     0.350,0.363,0.096,0.122,0.078:
0000
0000
0000
0000
,
0000
1000
1000
0100
,
0100
0010
0010
0001
,
0001
1000
0100
0001
,
0100
2000
0000
0000
,
3001
0101
0001
0100
,
0010
0000
1000
0000
0100
0000
0000
0010
,
0010
1001
0100
1000
,
0010
0000
0100
0000
0001
0000
0000
1000
,
1000
0011
0010
0100
,
0001
0000
0100
0000
1000
0000
0000
0001
,
0001
0101
1000
0010
,
0001
0000
0000
0000
0001
0000
0000
0000
2001
0000
0000
0000
0001
0000
0000
0001
,
0000
0001
3100
0000
0001
0000
0100
0000
,
0001
0000
1000
0000
0001
0000
0000
0010
,
0010
0100
1000
0100
,
0001
0000
0100
0000
1000
0000
0000
1000
,
0001
1010
0010
0100
,
0001
0000
0100
0000
0010
0000
0000
0100
,
0010
1100
0001
0101
,
0010
0000
0000
0000
1001
0000
0000
0000
0011
0000
0000
0000
1100
0000
0000
0001
,
0000
1000
0200
0000
0000
0000
0000
0000
,
0300
0000
0000
0000
,
0000
0000
0100
0000
0000
0100
0000
0000
,
0100
0000
0000
0010
0000
0000
0010
0000
,
0001
0000
1000
0000
0000
1000
0000
0000
,
1000
0000
0000
0100
0000
0000
0100
0000
,
0010
0000
0001
0000
0000
0001
0000
0000
,
0001
0000
0000
0100
0000
0000
0100
0000
,
0100
0000
0010
0000
0000
0010
0000
0000
,
1000
0000
0000
0001
0000
0000
1000
0000
,
0100
0001
0100
1000
,
0100
0010
0001
0010
,
0001
0010
0001
0010
,
1000
0010
0001
1000
,
0001
1000
1000
1000
,
1000
0100
0001
0000
0001
0000
0001
0000
,
0001
0100
1000
0000
1000
0000
0010
0000
,
0100
0000
0001
0010
0100
1000
0001
0010
,
0100
1000
0002
0000
0000
0000
0000
0000
,
0000
0003
1000
0000
0100
0000
1000
0100
,
0010
0000
0002
0000
0103
0000
0010
0100
,
0001
1000
0100
0001
,
0100
0000
1000
0000
0001
0000
0100
0001
,
1000
0000
0100
0000
0100
0000
0010
0001
,
1000
0000
0020
0000
0031
0000
0100
0010
,
1000
0100
0010
0001
,
1000
0000
0100
0200
0000
0000
0000
0000
,
0000
0000
0000
0000
0310
0000
0000
0001
0000
0000
1000
0000
0000
0100
0000
0000
,
1000
0000
0001
0000
0100
0000
0000
0001
0000
0000
0010
0000
0000
1000
0000
0000
,
0010
0000
0100
0000
1000
0000
0000
1000
0000
0000
0001
0000
0000
0001
0000
0000
,
0100
0000
0010
0000
1000
0000
0000
0100
0000
0000
0010
0000
0000
0001
0000
0000
,
1000
0000
1000
0000
0100
0000
0000
1000
0000
0000
0010
0000
0000
0001
0000
0000
,
0010
0000
0100
0000
0010
0000
0000
0010
0000
0000
1000
0000
0000
0001
0000
0000
,
0100
0000
1000
0000
0100
0000
0000
0001
0000
0000
1000
0000
0000
0100
0000
0000
,
0010
0000
0001
0000
0100
0000
0000
0010
0000
0000
1000
0000
0000
1000
0000
0000
,
0100
1000
0001
0000
0001
0200
0000
0000
,
0310
0000
1000
0000
0001
2000
0000
0000
,
0000
0000
3100
0000
0100
0020
0000
0000
,
0031
0000
1000
0000
0001
0200
0000
0000
,
0000
0000
0000
0300
0010
0000
0000
0000
0010
0000
2000
0000
0000
0000
0000
0000
,
3100
0000
0100
0000
0010
0002
0000
0000
,
0000
0000
0000
0003
1000
0000
0000
0000
0100
0000
1000
0000
0000
0000
0000
0000
,
0001
0100
0010
0000
0010
2000
0000
0000
,
0000
3001
0000
0000
;

//---------------dance-couple - ----------------
#NOTES:
     dance-couple:
     :
     Medium:
     5:
     0.355,0.546,0.557,0.000,0.070:
00000000
00000000
00000000
00000000
,
00000000
00000000
00000000
00000000
,
00000000
00000000
00000000
00000000
,
01100110
00000000
00000000
10001000
00000000
01000100
00000000
00000000
,
00010001
00010001
00000000
10001000
01000100
00000000
00000000
00010001
,
00000000
00110011
00000000
00000000
10001000
01000100
00000000
00100010
,
00000001
00000100
00000001
00100000
,
10000000
01000000
00000010
00001000
,
00001000
01000000
00010000
00010000
,
00000100
00000100
00000000
00100000
,
00100000
00000000
00001000
00001000
,
00000000
00010000
00010000
00000000
,
00001001
00000000
00000010
00000100
00000010
00000000
01100000
00000000
,
00010000
10000000
00010000
00000000
00001001
00000000
00000010
00000001
,
00000100
00000000
01100000
00000000
10000000
00010000
01000000
00000000
,
10000000
00000000
00100000
01000000
00000000
00100000
01000000
00000000
00010000
00000000
00000000
00000000
00000001
00000000
00000010
00000100
,
00000000
00000010
00000100
00000000
00001000
00000000
00000000
00000000
00010000
00000000
00100000
01000000
00000000
00100000
01000000
00000000
,
10000000
00000000
00000000
00000000
00001000
00000000
00000010
00000100
00000000
00000010
00000100
00000000
00000001
00000000
00000000
00000000
,
00100000
10000000
01000000
00010000
,
00100000
10010000
00000010
00001000
,
00000100
00000001
00000010
00001001
,
00100000
10000000
01000000
00010000
,
00100000
01000000
00100000
00000000
00000010
00000000
00001000
00000000
,
00000100
00000000
00000001
00000000
00000010
00000100
00000010
00000000
,
10011001
00000000
00000000
01100110
00000000
10011001
00000000
00000000
,
01010101
11001100
00000000
10011001
00000000
00000000
00010000
00000000
,
00000000
00000000
00000100
00000000
,
00000000
10000000
00000000
00000000
,
00000010
00000000
00100000
01000000
,
00010000
00001000
00000001
00000100
,
10000000
01000000
00100000
00000010
,
00001000
00000000
00000001
00000000
00100000
00010000
01000000
00000000
,
00010000
00000000
00000010
00000100
00000010
00000000
00001000
00000000
,
00100000
01000000
00100000
00000000
10000000
00000000
00000001
00000100
,
00000010
00000000
00000000
00000000
00001000
00000000
00000000
00000000
10000000
00000000
00100000
01000000
00000000
00100000
01000000
00000000
,
00010000
00000000
00000000
00000000
00001000
00000000
00000010
00000100
00000000
00000010
00000100
00000000
00000001
00000000
00000000
00000000
,
00010000
00000000
00100000
01000000
00000000
00100000
01000000
00000000
10000000
00000000
00000000
00000000
00000001
00000000
00000010
00000100
,
00000000
00000010
00000100
00000000
00001000
00000000
00000000
00000000
00100010
00000000
00000000
00000000
10001000
00000000
00010001
00000000
,
01000100
00010001
00100010
10011001
,
00100010
01000100
00010001
10001000
00100010
01000100
00010001
01000100
,
00100010
00000000
01000100
00000000
00000000
00100010
00000000
00010001
,
00000000
01000100
00000000
10001000
00100010
01000100
00100010
00000000
,
10001000
00010001
01000100
00010001
10001000
00010001
00100010
01000100
,
10001000
00000000
00010001
00000000
10011001
00000000
00000000
10100000
,
00000000
00000101
00000000
00000000
01010000
00001100
00000000
10011001
;

//---------------dance-solo - ----------------
#NOTES:
     dance-solo:
     :
     Easy:
     3:
     0.221,0.234,0.104,0.000,0.000:
000000
000000
000000
000000
,
000000
000000
000000
000000
,
000000
000000
000000
000000
,
000100
000001
001000
100000
,
000100
000100
000100
100000
,
001000
000001
000100
000100
,
000010
000001
010000
100000
,
000010
000001
100001
010000
,
100000
000010
000001
010000
,
100001
000010
000001
010000
,
100000
000010
100001
000100
,
000010
000100
010000
000100
,
000001
000001
001000
100000
,
100000
001000
000001
000001
,
001000
100000
100000
001000
,
000010
000010
001000
010000
,
010000
100001
000010
000010
,
001000
010000
010000
100001
,
000010
010000
000001
100000
,
001000
001000
000001
100000
,
000010
010000
000100
000100
,
000010
010000
000001
100000
,
001000
001000
000001
100000
,
000010
010000
000100
000100
,
001000
000000
000000
000100
000000
001000
000000
000000
,
000010
010000
000000
000100
000000
000000
100001
000000
,
000010
000010
100001
010000
,
010000
100001
000100
000100
,
100001
001000
001000
100001
,
000010
000010
100001
010000
,
010000
100001
000100
000100
,
001000
000000
000100
000010
,
000001
000100
010000
001000
,
000100
000010
000001
000100
,
010000
001000
000100
000010
,
000001
000100
010000
001000
,
000100
000010
000001
000100
,
010000
001000
000100
010000
,
000100
001000
100000
100000
,
000100
000010
000100
001000
,
000001
000001
000100
010000
,
000100
001000
100000
100000
,
000100
000010
000100
001000
,
000001
000000
000001
000000
000100
000000
000000
001000
,
000000
000100
000000
000000
010000
000010
000000
010000
;

//---------------dance-solo - ----------------
#NOTES:
     dance-solo:
     :
     Medium:
     5:
     0.292,0.351,0.243,0.000,0.000:
000000
000000
000000
000000
,
000000
000000
000000
000000
,
000000
000000
000000
000000
,
000100
000000
100001
000000
000010
010000
000010
000000
,
100000
100000
000000
000010
000100
000000
000000
001000
,
000000
100001
000000
000000
010000
000010
000000
000000
,
000101
000010
001000
000001
,
000100
001000
100100
010000
,
001000
100000
000100
001000
,
101000
000100
010000
100000
,
001000
000100
001001
000100
,
000010
000001
001000
000100
,
010000
000000
001000
000000
010000
000001
100000
000000
,
100000
001000
000010
001000
,
000010
100000
000001
000000
000001
000000
001000
000000
,
000100
000000
001000
000000
000100
100000
000001
000000
,
000001
001000
000100
001000
,
000010
010000
000001
000000
000001
000000
001000
000000
,
000100
010000
000100
010000
000100
010000
000100
000100
,
100100
000000
000101
000000
000100
000010
000100
000010
,
000100
000010
000100
000100
000101
000000
100100
000000
,
100000
001000
100000
001000
100000
001000
100000
100000
,
010100
000000
101000
000000
000001
001000
000001
001000
,
000001
001000
000001
000001
000110
000000
001001
000000
,
010010
000000
000000
001100
000000
100001
000000
000000
,
000010
000010
000000
001000
000000
000000
100001
000000
,
000000
001000
000100
000000
100001
000000
000000
001000
,
000100
000000
100001
000000
000000
000100
001000
000000
,
100001
000000
000000
000100
001000
000000
001010
000000
,
000000
100000
001000
000000
011000
000000
000000
000001
,
001000
000000
001010
000000
000000
100000
001000
000000
,
010010
000000
000100
000001
,
010000
001000
000010
000000
000010
000000
001000
000000
,
000100
000000
100000
000000
000010
001000
010000
000000
,
010000
001000
000100
000001
,
010000
001000
000010
000000
000001
000000
001000
000000
,
000100
000000
100000
000000
000010
001000
010000
000000
,
100000
000000
001000
000000
000100
000001
000100
000010
,
000100
000001
000100
000010
100000
000000
100000
000000
,
000100
100000
000100
010000
000100
100000
000100
010000
,
000001
000000
000001
000000
010000
000010
010000
000100
,
010000
000010
010000
000100
100000
000000
100000
000000
,
000010
010000
000010
000100
000010
010000
000010
000100
,
000001
000000
000001
000000
010010
000000
000000
001100
,
000000
100001
000000
000000
000010
000010
000000
010000
;

//---------------dance-solo - ----------------
#NOTES:
     dance-solo:
     :
     Hard:
     7:
     0.385,0.390,0.644,0.000,0.139:
000000
000000
000000
000000
,
000000
000000
000000
000000
010010
000000
000000
000101
,
000000
100100
000000
000000
000010
000010
000000
010000
,
010000
000000
000000
000000
000100
010000
000001
000000
,
001000
001000
000000
000001
100000
000000
000000
000101
,
000000
100100
000000
000000
100010
010001
000000
001001
,
101000
000100
010000
100000
,
000001
001000
110000
000100
,
000010
000001
100000
001000
,
000011
000100
010000
100000
,
000001
001000
110000
000100
,
000010
000001
100000
001000
,
000100
000000
000001
001000
000000
000001
001000
000000
000010
000000
010000
000000
001000
000000
100000
001000
,
000000
100000
001000
000000
100000
000000
000000
000000
000100
000000
100000
001000
000000
100000
001000
000000
,
010000
000000
000010
000000
001000
000000
000001
001000
000000
000001
001000
000000
000001
000000
000000
000000
,
100000
000000
000001
000100
000000
000001
000100
000000
000010
000000
010000
000000
000100
000000
100000
001000
,
000000
100000
001000
000000
100000
000000
000000
000000
000001
000000
100000
000100
000000
100000
000100
000000
,
010000
000000
000010
000000
000100
000000
000001
001000
000000
000001
001000
000000
000001
000000
000000
000000
,
000101
000000
100100
000000
101000
000000
001001
000001
,
010000
000010
100100
000101
,
001001
000000
101000
100000
000010
000000
010000
000000
,
000110
000000
101000
000000
001001
000000
010100
000100
,
000011
110000
010100
001001
,
101000
000000
000110
000100
110000
000000
000011
000000
,
001000
000000
000000
101000
000000
001001
000000
000000
,
000100
000100
000000
010010
000000
000000
000100
000000
,
000000
100010
010001
000000
000100
000000
000000
101000
,
001001
000000
000100
000000
000000
000101
100100
000000
,
000100
000000
000000
001010
011000
000000
001100
000000
,
000000
000010
000010
000000
001100
000000
000000
010000
,
010000
000000
001100
000000
000000
010000
000010
000000
,
000000
000000
000000
000000
000000
000000
000000
000000
000100
000000
000001
001000
000000
000001
001000
000000
,
000010
000000
010000
000000
000010
000000
100000
001000
000000
100000
001000
000000
100000
000000
000000
000000
,
000100
000000
100000
001000
000000
100000
001000
000000
010000
000000
000010
000000
010000
000000
000001
001000
,
000000
000001
001000
000000
000001
000000
000000
000000
100000
000000
000001
000100
000000
000001
000100
000000
,
000010
000000
010000
000000
000100
000000
100000
001000
000000
100000
001000
000000
100000
000000
000000
000000
,
000001
000000
100000
000100
000000
100000
000100
000000
010000
000000
000010
000000
000100
000000
000001
001000
,
000000
000001
001000
000000
000001
000000
000000
000000
000011
000000
000000
000000
010010
000000
000000
000000
,
110000
000000
100001
100000
000101
000000
101000
000000
,
110000
000000
010010
000000
000011
000000
100001
000001
,
100100
001001
000110
101000
,
001001
000000
010100
010000
000101
000000
100100
000000
,
010100
000000
001001
000000
101000
000000
000110
000010
,
100100
000000
000101
000000
001100
000000
000000
101000
,
000000
001001
000000
000000
000100
000100
000000
010010
;

//---------------dance-single - Copied from Copied f----------------
#NOTES:
     dance-single:
     Copied from Copied f:
     Hard:
     9:
     0.513,0.598,0.017,0.096,0.261:
0000
0000
0000
0000
,
0000
1000
0100
0001
,
0010
1000
0010
0001
,
0100
1000
0010
0001
,
1000
0001
0010
2000
,
0100
0000
0000
0000
3010
0000
1000
0000
0001
0000
0100
0000
0010
0000
1000
0010
,
0000
0000
0100
0000
0001
0000
1000
0000
0100
0000
1000
0000
0001
0000
0000
0001
,
0000
0000
0001
0000
1000
0000
0010
0000
0100
0000
0001
0000
1000
0000
0100
0010
,
0000
0000
0100
0000
0010
0000
0001
0000
1000
0000
0100
0000
1000
0000
0000
1000
,
0000
0000
1000
0000
0001
0000
0100
0000
0010
0000
1000
0000
0001
0000
1000
0100
,
0000
0000
1000
0000
0010
0000
0100
0000
0001
0000
1000
0000
0100
0000
0000
0100
,
0000
0000
0100
0000
1000
0000
0001
0000
0010
0000
0001
0000
1000
0000
0001
0100
,
0000
0000
0001
0000
0100
0000
0010
0000
0100
0000
0001
0000
1000
0000
0000
1000
,
0000
1000
0001
0100
1000
0100
0010
1000
,
0001
0000
0100
0000
0010
0000
1000
0000
0100
0000
0010
0000
0001
0000
0000
0001
,
0000
0001
1000
0010
0001
0010
0100
0010
,
1000
0000
0001
0000
1000
0000
0010
0000
0100
0000
0001
0000
1000
0000
0000
1000
,
0000
1000
0100
0010
0100
0001
0100
1000
,
0010
0000
0100
0000
0001
0000
0100
0000
0010
0000
1000
0000
0100
0000
0000
0100
,
0000
0100
0010
0001
1000
0001
0100
1000
,
0100
0000
0010
0000
1000
0000
0001
0000
1000
0000
0100
0000
0010
0000
0000
0010
,
0000
0010
0002
0000
0000
0000
0000
0000
,
0000
0003
0000
0000
,
0000
0000
1000
0000
0000
0001
0000
0000
,
1000
0000
0000
0001
0000
0000
1000
0000
,
0100
0000
0010
0000
0000
0001
0000
0000
,
0010
0000
0000
0001
0000
0000
0010
0000
,
0001
0000
1000
0000
0000
0100
0000
0000
,
1000
0000
0000
0100
0000
0000
1000
0000
,
0100
0000
0010
0000
0000
0001
0000
0000
,
0010
0000
0000
0001
0000
0000
0010
0000
,
0001
1000
0100
0001
,
1000
0010
0001
0001
,
1001
0001
0100
1000
,
0001
0010
1000
0100
,
1001
0000
0001
0100
0010
1000
0001
0100
,
0010
1000
0100
0010
0001
0010
0100
0010
,
0001
0010
0100
1000
0001
1000
0100
1000
,
0001
1000
0001
0100
1000
0001
0010
1000
,
0001
0000
0100
0000
0010
0000
0000
0000
1000
0000
0001
0000
0100
0010
0000
0010
,
1000
0000
0001
0100
0000
0100
0001
0000
0100
0000
0010
0000
1000
0000
0010
0000
,
0001
0000
0010
0000
1000
0000
0100
0000
1000
0000
0001
0000
0100
0001
0000
0001
,
0100
0000
0010
1000
0000
1000
0010
0000
0100
0000
0010
0000
1000
0000
0010
0000
,
0100
0000
0001
0000
1000
0000
0001
0000
0100
0000
0010
0000
1000
0010
0000
0010
,
1000
0000
0001
1000
0000
1000
0001
0000
1000
0000
0100
0000
0010
0000
0001
0000
,
0010
0000
1000
0000
0010
0000
0001
0000
0100
0000
0010
0000
0100
0001
0000
0001
,
0100
0000
0001
1000
0000
1000
0001
0000
1000
0000
0100
0000
0000
0000
0010
0000
,
0001
0000
0000
0000
1000
0000
0000
0000
1000
0000
0001
0100
0000
0001
0100
0000
,
0010
1000
0000
0010
1000
0000
0001
0000
0100
0000
0001
1000
0000
0001
1000
0000
,
0010
0100
0000
0010
0100
0000
0010
0000
0100
0000
0001
0100
0000
0010
0100
0000
,
0010
1000
0000
0100
1000
0000
0100
0000
0001
0000
0100
1000
0000
0001
1000
0000
,
0001
0100
0000
0001
1000
0000
0010
0000
0100
0000
0001
0100
0000
0010
0100
0000
,
0001
1000
0000
0010
1000
0000
0100
0000
0010
0000
0001
1000
0000
0100
1000
0000
,
0001
0100
0000
0010
0100
0000
1000
0000
0100
0000
0010
1000
0000
0001
1000
0000
,
0100
0010
0000
0001
0010
0000
1000
0000
0010
0000
0001
1000
0000
0010
1000
0000
,
0010
0100
0000
0001
1000
0000
0010
0000
0001
0000
0010
0000
0100
0000
0002
0000
,
0000
0000
0103
0010
1000
0100
0010
0200
,
0000
0000
0000
0000
1300
0001
0100
2000
,
0000
0000
3100
0010
1000
0001
0010
0200
,
0000
0000
0000
0000
1300
0100
0100
0020
,
0000
0000
0031
1000
1000
0100
1000
2000
,
0000
0000
0000
0000
3001
0001
0100
0200
,
0000
0000
0301
1000
0100
0100
0010
0020
,
0000
0000
0002
0000
,
0000
0000
0000
0000
,
0000
0000
0033
0000
;
