#TITLE:Slang;
#SUBTITLE:;
#ARTIST:Kozo Nakamura;
#TITLETRANSLIT:;
#SUBTITLETRANSLIT:;
#ARTISTTRANSLIT:;
#CREDIT:;
#BANNER:;
#BACKGROUND:;
#LYRICSPATH:;
#CDTITLE:;
#MUSIC:Slang.mp3;
#OFFSET:-1.920;
#SAMPLESTART:55.920;
#SAMPLELENGTH:12.000;
#SELECTABLE:YES;
#BPMS:0.000=160.000;
#STOPS:;
#BGCHANGES:;

//---------------dance-single - ----------------
#NOTES:
     dance-single:
     :
     Hard:
     8:
     0.602,0.607,0.502,0.210,0.169: // measure 1
1000
0000
0001
0010
0000
0010
0100
0000
,  // measure 2
0010
0001
0100
0000
0010
1000
0001
0000
,  // measure 3
1000
0000
0001
1000
0000
1000
0100
0000
,  // measure 4
0010
0001
0100
0000
0010
0100
0010
0100
,  // measure 5
0001
0000
1001
0000
1000
0100
0010
0100
,  // measure 6
0000
0010
0001
0100
1000
0100
0001
0000
,  // measure 7
1001
0000
1000
0000
0001
0010
0001
0100
,  // measure 8
0000
0010
0100
0000
0001
1000
0001
0000
,  // measure 9
0011
0000
0011
0000
0100
0000
1000
0001
,  // measure 10
0000
0001
0100
0000
0010
0000
0101
0000
,  // measure 11
1001
0000
0000
0000
1100
0000
0000
0000
0010
0000
0001
0000
0000
0000
0000
0011
,  // measure 12
0000
0000
0110
0000
0000
1100
0000
0000
1001
0000
0000
0000
0101
0000
0000
0000
,  // measure 13
0010
1000
0100
0010
0100
0010
0000
0011
,  // measure 14
0000
0001
0010
0001
0100
0010
1000
0000
,  // measure 15
0001
1000
0100
0100
0010
0100
1000
0001
,  // measure 16
0100
2002
0000
3003
,  // measure 17
1000
0000
0100
0000
0010
0001
0010
0001
,  // measure 18
0000
1000
0001
1000
0001
0000
0100
0000
,  // measure 19
0010
0000
0100
0001
0000
0001
1000
0100
,  // measure 20
0000
0010
0100
0000
0010
0001
0100
0000
,  // measure 21
0001
0000
0010
0000
1000
0010
0001
1000
,  // measure 22
0000
0001
1000
0000
0010
0100
0001
0000
,  // measure 23
0101
0000
1001
0000
1000
0100
0001
0100
,  // measure 24
0000
0010
0001
0000
0100
0010
1000
0000
,  // measure 25
0101
0000
0000
0101
0000
0000
1010
0000
0000
1010
0000
0000
1000
0000
0001
0000
,  // measure 26
0010
0001
1000
0010
0100
0000
1001
0000
,  // measure 27
0011
0000
0101
0000
0010
1000
0001
0010
,  // measure 28
0001
0000
1000
0000
0010
0100
0000
0000
,  // measure 29
0101
0000
0101
0000
0001
1000
0000
0001
,  // measure 30
0100
1000
0100
0001
0000
1000
0100
0000
,  // measure 31
0010
0001
0010
0001
1000
0001
1000
0001
,  // measure 32
0100
0220
0000
0330
,  // measure 33
2002
0000
0000
0003
,  // measure 34
0200
0000
0000
3000
,  // measure 35
0020
0300
0002
0033
,  // measure 36
2002
0000
0000
3003
,  // measure 37
1000
0100
1000
0100
1000
0000
0000
0000
0001
0000
0010
0000
0000
0000
0001
0000
,  // measure 38
0000
0010
0001
0001
1000
0010
0100
0000
,  // measure 39
0001
0100
0001
0100
0001
0000
0000
0000
0100
0000
0001
0000
0000
0000
0100
0000
,  // measure 40
0000
0001
1000
0100
0010
0001
1000
0000
,  // measure 41
0010
0100
0010
0100
0010
0000
0000
0000
0100
0000
0001
0000
0000
0000
0100
0000
,  // measure 42
0000
0010
1000
1000
0100
0010
0001
0000
,  // measure 43
0100
0001
0100
0001
0100
0000
0000
0000
0010
0000
1000
0000
0000
0000
1001
0000
,  // measure 44
0000
0001
0010
0100
0010
0001
1000
0000
,  // measure 45
1010
0000
1000
1001
0000
0001
0011
0000
,  // measure 46
0110
0000
0010
0100
1000
0100
0010
0001
,  // measure 47
0100
0010
0100
0010
0100
0001
0100
0001
,  // measure 48
1000
2002
0000
3003
,  // measure 49
1001
0000
0000
1001
0000
0000
1001
0000
0000
0000
0001
0000
0100
0000
0000
0000
,  // measure 50
0110
0000
0000
0110
0000
0000
0110
0000
0000
0000
0010
0000
1000
0000
1000
0000
,  // measure 51
0001
0010
0100
0010
0001
1000
0010
1000
,  // measure 52
0100
0010
0100
1000
0001
0100
0010
0100
,  // measure 53
0001
0000
0000
0101
0000
0000
2002
0000
0000
0000
0000
0000
3003
0000
0000
0000
,  // measure 54
1000
0000
0000
1100
0000
0000
2002
0000
0000
0000
0000
0000
3003
0000
0000
0000
,  // measure 55
1000
0100
0010
0100
0010
0001
1000
0001
,  // measure 56
0100
0000
0000
0000
0010
0000
0000
0000
1000
0000
0000
1001
0000
0000
0000
0000
,  // measure 57
0001
0000
0000
0001
0100
0000
0000
0100
0010
0000
0000
0010
1000
0000
0100
0000
,  // measure 58
1000
0000
0000
1000
0100
0000
0000
0100
0010
0000
0000
0010
0001
0000
1000
0001
,  // measure 59
1000
0000
0000
0000
0100
0000
0000
0010
0001
0000
1000
0000
0001
0000
0000
0000
,  // measure 60
1001
0000
0001
0000
1000
0000
1010
0000
0100
0000
0001
0000
,  // measure 61
0011
0000
0001
0000
2002
0000
0000
0000
0000
3003
0000
0000
,  // measure 62
0001
1000
0001
1000
0010
0100
0010
0100
,  // measure 63
0000
0000
0100
0000
0001
0000
0000
0001
0010
0000
0001
0000
0100
0000
0000
0000
,  // measure 64
0010
1000
0010
1000
0001
0010
0001
0100
,  // measure 65
0000
0000
0010
0000
0100
0000
0000
0100
0001
0000
1000
0000
0100
0000
0000
0000
,  // measure 66
0010
0001
0100
0010
1000
0001
0010
0100
,  // measure 67
0000
0000
0010
0000
0001
0000
0000
0001
1000
0000
0001
0000
0100
0001
0100
0000
,  // measure 68
0220
0000
0000
0330
,  // measure 69
1001
0000
0000
0101
0000
0000
1010
0000
0000
2002
0000
0000
0000
0000
0000
0000
,  // measure 70
0000
0000
0000
3003
,  // measure 71
0110
0000
0000
0000
;

//---------------dance-single - ----------------
#NOTES:
     dance-single:
     :
     Medium:
     7:
     0.475,0.511,0.283,0.319,0.046: // measure 1
1000
0000
0001
0010
0000
0010
0001
0000
,  // measure 2
1000
0001
0100
0010
,  // measure 3
0100
0000
0010
1000
0000
1000
0001
0000
,  // measure 4
1000
0100
0001
0100
,  // measure 5
0110
0000
0010
0000
0001
0000
1000
0001
,  // measure 6
0000
0001
1000
0000
0001
0000
0100
0000
,  // measure 7
0010
0000
1000
0001
0000
0001
1000
0000
,  // measure 8
0100
0010
0100
1000
,  // measure 9
1001
0000
1001
0000
0001
0100
0000
0100
,  // measure 10
0000
0100
0001
0000
1000
0000
0100
0000
,  // measure 11
0010
0000
0100
0000
2000
0002
0000
0000
,  // measure 12
0000
0000
3003
0110
,  // measure 13
1010
0000
1010
0000
1000
0100
0000
0010
,  // measure 14
0000
0100
1000
0000
0001
0100
0001
0000
,  // measure 15
1000
0010
1000
0000
0001
0000
0010
0000
,  // measure 16
0100
0220
0000
0330
,  // measure 17
0001
0000
0100
0000
0010
0000
1000
0002
,  // measure 18
0000
1003
0100
0010
,  // measure 19
0100
0000
0010
0000
0001
0000
1000
0020
,  // measure 20
0000
0000
0130
0000
0010
0100
0001
0000
,  // measure 21
1000
0000
0001
0000
1000
0010
1000
0020
,  // measure 22
0000
0000
0130
0000
0001
0100
0001
0000
,  // measure 23
1000
0000
0100
0000
0010
0001
0010
0200
,  // measure 24
0000
0000
0310
0000
0001
0010
0001
0000
,  // measure 25
1002
0000
0000
1000
0000
0000
1000
0000
0000
1000
0000
0000
1000
0000
1000
0000
,  // measure 26
1003
0001
0220
0330
,  // measure 27
1010
0000
1000
0000
0100
0010
0100
0000
,  // measure 28
0010
0001
0010
0000
0001
1000
0000
0000
,  // measure 29
0101
0000
0010
0000
1000
0100
1000
0100
,  // measure 30
0000
1000
0100
0000
0010
0000
0001
0000
,  // measure 31
0100
0001
0100
0000
0010
1000
0100
0000
,  // measure 32
0010
0220
0000
0330
,  // measure 33
2002
0000
0000
3003
,  // measure 34
0220
0000
0000
0330
,  // measure 35
2020
3030
0202
0303
,  // measure 36
2002
0000
0000
3003
,  // measure 37
1000
1000
1000
0000
0001
0010
0000
0100
,  // measure 38
0000
1000
0100
0000
0010
0000
0001
0000
,  // measure 39
0100
0100
0100
0000
0010
1000
0000
0001
,  // measure 40
0000
1000
0100
0000
0010
0001
0100
0000
,  // measure 41
0001
0001
0001
0000
1000
0100
0000
0010
,  // measure 42
0000
0001
0010
0000
0100
0000
1000
0000
,  // measure 43
0010
0010
0010
0000
0100
0001
0000
1000
,  // measure 44
0000
0001
0100
0000
0001
1000
0001
0000
,  // measure 45
1100
0000
0000
1001
0000
0000
0011
0000
,  // measure 46
0110
0000
0010
0000
0001
1000
0001
0000
,  // measure 47
1000
0001
1000
0001
0100
0000
0010
0000
,  // measure 48
0110
2002
0000
3003
,  // measure 49
1000
0000
0000
1000
0000
0000
2000
0000
0000
0000
0000
0000
3000
0000
0000
0000
,  // measure 50
0001
0000
0000
0001
0000
0000
0002
0000
0000
0000
0000
0000
0003
0000
0000
0000
,  // measure 51
1000
0010
1000
0000
0001
0100
0001
0000
,  // measure 52
0010
0001
0010
0000
0100
1000
0100
0000
,  // measure 53
0010
0000
0000
0010
0000
0000
0020
0000
0000
0000
0000
0000
0030
0000
0000
0000
,  // measure 54
0100
0000
0000
0100
0000
0000
0200
0000
0000
0000
0000
0000
0300
0000
0000
0000
,  // measure 55
0010
0000
0001
0000
1000
0001
1000
0001
,  // measure 56
0100
0000
0000
0000
0010
0000
0000
0000
1000
0000
0000
1001
0000
0000
0000
0000
,  // measure 57
1000
0100
0010
0000
0010
0100
1000
0000
,  // measure 58
0001
0100
0010
0000
0010
0100
0001
0000
,  // measure 59
1000
0000
0100
0000
0010
0001
0100
0000
,  // measure 60
0101
0000
1001
0000
,  // measure 61
1100
0000
0000
0000
2002
0000
0000
0000
0000
3003
0000
0000
,  // measure 62
0001
0100
0001
0000
1000
0000
0100
1000
,  // measure 63
0000
1000
0100
0000
0010
0001
0100
0000
,  // measure 64
0010
0100
0010
0000
0100
0000
0001
1000
,  // measure 65
0000
1000
0100
0000
0010
0001
0100
0000
,  // measure 66
0001
0100
0010
0000
1000
0000
0100
0010
,  // measure 67
0000
0010
0001
0000
0010
0001
0100
0000
,  // measure 68
0220
0000
0000
0330
,  // measure 69
0010
0000
0000
1000
0000
0000
0001
0000
0000
2002
0000
0000
0000
0000
0000
0000
,  // measure 70
0000
0000
0000
3003
,  // measure 71
0110
0000
0000
0000
;

//---------------dance-single - ----------------
#NOTES:
     dance-single:
     :
     Easy:
     5:
     0.402,0.479,0.356,0.438,0.005: // measure 1
1000
0001
0100
0010
,  // measure 2
0100
0001
1000
0000
,  // measure 3
0001
1000
0100
0010
,  // measure 4
0100
1000
0001
0000
,  // measure 5
0010
0001
0010
0100
,  // measure 6
1000
0100
1000
0000
,  // measure 7
0010
1000
0010
0100
,  // measure 8
0001
0010
0100
0010
,  // measure 9
0220
0330
0100
1000
,  // measure 10
0001
0100
0010
1000
,  // measure 11
2002
3003
0220
0330
,  // measure 12
2002
0000
0000
3003
,  // measure 13
0001
0010
0001
0100
,  // measure 14
0010
1000
0100
0010
,  // measure 15
0100
0100
1000
1000
,  // measure 16
0001
2002
0000
3003
,  // measure 17
0001
0000
0100
0000
0010
0000
1000
0001
,  // measure 18
0000
1000
0100
0010
,  // measure 19
0100
0000
0010
0000
0001
0000
1000
0010
,  // measure 20
0000
0100
0001
0010
,  // measure 21
0100
0000
0010
0000
0100
0000
0010
0001
,  // measure 22
0000
1000
0001
0100
,  // measure 23
0010
0000
1000
0000
0001
0000
0100
0010
,  // measure 24
0000
0100
0010
1000
,  // measure 25
2002
0000
0000
3003
,  // measure 26
0001
0100
0220
0330
,  // measure 27
1000
1001
0001
0010
,  // measure 28
0110
0110
2002
3003
,  // measure 29
1001
0001
0100
1000
,  // measure 30
0100
0001
1000
0100
,  // measure 31
0010
0010
0100
0100
,  // measure 32
0110
2002
0000
3003
,  // measure 33
0220
0000
0000
0330
,  // measure 34
0220
0000
0000
0330
,  // measure 35
2002
3003
2002
3003
,  // measure 36
0220
0000
0000
0330
,  // measure 37
0010
0010
0100
0100
,  // measure 38
0001
1000
0100
0000
,  // measure 39
0010
0010
0100
0100
,  // measure 40
0010
0001
1000
0000
,  // measure 41
0001
1000
0001
1000
,  // measure 42
0010
0100
0010
0100
,  // measure 43
0001
0010
0100
1000
,  // measure 44
0010
0100
0001
0000
,  // measure 45
1001
0000
0000
1001
0000
0000
0110
0000
,  // measure 46
0000
0110
0000
0000
0001
0000
1000
0000
,  // measure 47
0100
0010
0100
1000
,  // measure 48
0001
2002
0000
3003
,  // measure 49
0202
0000
0000
0303
,  // measure 50
2020
0000
0000
3030
,  // measure 51
1100
0100
0010
0001
,  // measure 52
1001
1000
0001
0010
,  // measure 53
0022
0000
0033
0100
,  // measure 54
2200
0000
3300
0001
,  // measure 55
0100
1000
0100
0001
,  // measure 56
0010
0100
0220
0330
,  // measure 57
0010
0001
0010
0001
,  // measure 58
1000
0001
1000
0001
,  // measure 59
0100
1000
0010
0001
,  // measure 60
2000
0000
3002
0000
,  // measure 61
0103
0000
0000
0000
0202
0000
0000
0000
0000
0303
0000
0000
,  // measure 62
1001
0001
1000
0100
,  // measure 63
0010
0100
1000
0001
,  // measure 64
1001
1000
0010
0100
,  // measure 65
0001
0010
0100
0010
,  // measure 66
0110
0100
0010
0001
,  // measure 67
1000
0010
0100
0001
,  // measure 68
2002
0000
0000
3003
,  // measure 69
1001
0000
0220
0000
,  // measure 70
0000
0000
0000
0330
,  // measure 71
1001
0000
0000
0000
;

//---------------dance-single - ----------------
#NOTES:
     dance-single:
     :
     Beginner:
     2:
     0.180,0.256,0.219,0.000,0.000: // measure 1
1000
0000
0001
0000
,  // measure 2
0100
0000
0000
0000
,  // measure 3
0010
0000
0100
0000
,  // measure 4
0001
0000
0000
0000
,  // measure 5
1000
0000
0001
0000
,  // measure 6
1000
0000
0000
0000
,  // measure 7
0010
0000
0100
0000
,  // measure 8
0010
0000
1000
0000
,  // measure 9
1001
1001
0000
0000
,  // measure 10
0001
0000
0010
0000
,  // measure 11
0110
0110
0000
0000
,  // measure 12
0000
0000
0000
1001
,  // measure 13
1001
0000
0001
0000
,  // measure 14
0100
0000
0010
0000
,  // measure 15
1000
0000
0001
0000
,  // measure 16
1001
0000
0000
0000
,  // measure 17
1000
0000
0001
0000
,  // measure 18
0010
0000
0100
0000
,  // measure 19
0010
0000
0001
0000
,  // measure 20
1000
0000
0000
0000
,  // measure 21
0001
0000
1000
0000
,  // measure 22
0100
0000
0010
0000
,  // measure 23
0100
0000
1000
0000
,  // measure 24
0001
0000
0000
0000
,  // measure 25
1000
0000
0010
0000
,  // measure 26
0100
0000
0001
0000
,  // measure 27
0010
0000
0100
0000
,  // measure 28
0010
0000
0000
0000
,  // measure 29
0001
0000
1000
0000
,  // measure 30
0100
0000
0000
0000
,  // measure 31
0110
0000
0000
0000
,  // measure 32
1001
1001
0000
0000
,  // measure 33
0110
0000
0000
0000
,  // measure 34
0110
0000
0000
0000
,  // measure 35
1001
0000
1001
0000
,  // measure 36
1001
0000
0000
0000
,  // measure 37
1000
0000
0000
0000
,  // measure 38
0001
0000
0010
0000
,  // measure 39
0001
0000
0000
0000
,  // measure 40
0100
0000
0010
0000
,  // measure 41
0100
0000
0000
0000
,  // measure 42
0010
0000
1000
0000
,  // measure 43
0010
0000
0000
0000
,  // measure 44
1000
0000
0001
0000
,  // measure 45
1000
0000
0100
0000
,  // measure 46
0010
0000
0001
0000
,  // measure 47
1000
0000
0010
0000
,  // measure 48
0100
0100
0000
0000
,  // measure 49
0110
0000
0000
0000
,  // measure 50
1001
0000
0000
0000
,  // measure 51
1000
0000
0100
0000
,  // measure 52
0010
0000
0001
0000
,  // measure 53
1001
0000
0000
0000
,  // measure 54
0110
0000
0000
0000
,  // measure 55
0010
0000
1000
0000
,  // measure 56
0001
0000
0100
0000
,  // measure 57
0010
0000
0010
0000
,  // measure 58
0100
0000
0100
0000
,  // measure 59
0001
0000
1000
0000
,  // measure 60
1001
0000
0000
0000
,  // measure 61
0000
0000
0000
0000
,  // measure 62
1000
0000
0100
0000
,  // measure 63
0010
0000
0001
0000
,  // measure 64
0100
0000
0010
0000
,  // measure 65
0100
0000
0001
0000
,  // measure 66
1000
0000
0100
0000
,  // measure 67
0010
0000
0100
0000
,  // measure 68
0110
0000
0000
0000
,  // measure 69
1001
0000
1001
0000
,  // measure 70
0000
0000
0000
0000
,  // measure 71
0110
0000
0000
0000
;
