#TITLE:Sakura Reflection;
#SUBTITLE:;
#ARTIST:Ryu*;
#TITLETRANSLIT:;
#SUBTITLETRANSLIT:;
#ARTISTTRANSLIT:;
#GENRE:;
#CREDIT:;
#MENUCOLOR:;
#METERTYPE:DDR;
#BANNER:Sakura Reflection-bn.png;
#BACKGROUND:Sakura Reflection-bg.png;
#LYRICSPATH:;
#CDTITLE:;
#MUSIC:Sakura Reflection.mp3;
#OFFSET:-0.663;
#SAMPLESTART:78.560;
#SAMPLELENGTH:12.000;
#SELECTABLE:YES;
#LISTSORT:;
#BPMS:0.000=181.000,68.000=90.500,84.000=181.000,150.000=90.500,166.000=181.000;
#STOPS:148.000=1.989
;
#BGCHANGES:;
#ATTACKS:;

//---------------dance-single - ----------------
#NOTES:
     dance-single:
     :
     Hard:
     9:
     0.723,0.852,0.251,0.260,0.313: // measure 1
0000
0000
0000
0000
,  // measure 2
0001
0000
0100
1000
0000
0100
0000
0010
,  // measure 3
0000
0001
0010
1000
0010
0000
1002
0000
,  // measure 4
0103
0000
0001
1000
0000
0100
0000
1000
,  // measure 5
0000
0001
0010
1000
0001
0100
1000
0010
,  // measure 6
0100
0000
0001
1000
0000
0100
0000
0010
,  // measure 7
0000
0100
1000
0100
1000
0000
0021
0000
,  // measure 8
0130
0000
1000
0010
0000
0001
0000
0010
,  // measure 9
0000
1000
1000
1000
1000
0010
0100
0001
,  // measure 10
0100
0000
0010
1000
0100
0010
0100
0001
,  // measure 11
0000
0001
0100
1000
0010
0001
0120
0000
,  // measure 12
1030
0000
0100
0010
0001
0010
0100
0001
,  // measure 13
0000
0001
0100
0010
0100
1000
0100
0010
,  // measure 14
1100
0000
0010
0100
0000
0001
0000
1000
,  // measure 15
0000
0100
0100
1000
1000
0000
0102
0000
,  // measure 16
0013
0000
0100
0001
0000
1000
0000
0010
,  // measure 17
0000
0100
0100
0001
0010
0100
1000
0010
,  // measure 18
0100
0001
0000
0010
0000
1000
0000
0100
0000
0001
0000
0010
0000
0100
1000
0001
,  // measure 19
0100
1000
0000
0100
0000
0001
0000
1000
0000
0010
0000
0100
0000
0001
0100
0010
,  // measure 20
0100
0001
0000
0100
0000
1000
0000
0010
0000
0001
0000
0100
0000
0010
1000
0001
,  // measure 21
0010
1000
0000
0001
0000
0100
0000
1000
1000
0001
0001
0001
0001
0010
0100
1000
,  // measure 22
0010
0100
0000
0001
0100
1000
0010
0001
,  // measure 23
0000
1000
0010
0001
0010
1000
0210
0010
,  // measure 24
0301
0010
0000
0001
0100
1000
0001
0010
,  // measure 25
0000
1000
0001
0100
0001
0010
1000
0010
,  // measure 26
0001
0100
0000
0010
1000
0100
1000
0001
,  // measure 27
0000
1000
0010
0001
0010
1000
0120
0100
,  // measure 28
0031
0010
0000
0100
0001
0100
0010
1000
,  // measure 29
0000
0001
0010
1000
0001
0100
1000
0001
,  // measure 30
1100
0010
0100
0001
1000
0010
0001
0010
,  // measure 31
0100
1000
0100
0001
1000
0010
0102
0100
,  // measure 32
0013
0100
1000
0001
0010
1000
0010
0100
,  // measure 33
1000
0010
0100
0001
0100
1000
0100
0010
,  // measure 34
1000
0001
0110
0000
1000
0100
0011
0000
,  // measure 35
1000
0010
1100
0000
0001
1000
0101
0000
,  // measure 36
0100
0010
1000
0001
0100
0001
0010
0100
,  // measure 37
1000
0100
0001
0010
1000
0100
0001
0010
,  // measure 38
2002
3003
0000
0000
0000
0000
0000
0000
0001
0000
0000
0000
0100
0000
0000
0000
1010
0000
0000
0000
0001
0000
0010
0000
0100
0000
2000
0000
0000
0000
3010
0000
,  // measure 39
0100
0010
1000
0100
0010
0000
0001
0100
0010
0000
1000
0010
0001
0020
0000
0000
,  // measure 40
1030
0000
0200
0000
0310
0000
0010
0100
1000
0000
0001
0100
0002
0000
0103
0001
,  // measure 41
0010
0100
1000
0100
0010
0000
0100
1000
0001
0000
1000
0010
0001
2000
0000
3100
,  // measure 42
0001
0000
0001
0010
0100
0000
1000
0001
0110
0000
0000
0000
0100
0000
0000
0000
,  // measure 43
0001
1000
0100
0001
,  // measure 44
1000
0210
0301
0100
,  // measure 45
0010
1000
0100
0001
,  // measure 46
0010
0000
2100
0000
3001
0010
0001
0010
,  // measure 47
0100
0010
0100
0010
0100
1000
0100
1000
,  // measure 48
0001
1000
0001
1000
0001
0100
0010
1000
,  // measure 49
0100
0010
0001
0010
1100
0000
0110
0000
,  // measure 50
0012
0000
0103
0010
1000
0000
0001
0100
,  // measure 51
1000
0000
0100
0010
0100
0000
0001
0000
0010
0000
1000
0000
0100
0000
0001
0000
,  // measure 52
2000
0000
3010
0100
0001
0000
0100
0010
,  // measure 53
1000
0000
0001
0100
0001
0000
0010
0000
0200
0000
0000
0000
1300
0100
1000
0100
,  // measure 54
1000
0000
0001
0100
1000
0000
0100
0001
,  // measure 55
0010
0100
0010
0100
0010
0000
0100
0000
1000
0000
0010
0000
0001
0000
1000
0000
,  // measure 56
0200
0000
0301
1000
0010
0000
0100
0001
,  // measure 57
0010
0000
0100
0010
0100
0000
0010
0000
0100
0000
1000
0000
0100
0000
0010
0000
,  // measure 58
0001
0000
0120
0100
1030
0000
0001
0010
,  // measure 59
0100
0000
0010
0001
0010
0000
0100
0000
1000
0000
0010
0000
0100
0000
0001
0000
,  // measure 60
0010
0000
2100
0100
3010
0000
0100
0001
,  // measure 61
0010
0000
0100
1000
0100
0000
0010
0000
0200
0000
0000
0000
1300
0010
1000
0010
,  // measure 62
1000
0000
0120
0100
1030
0000
0001
0010
,  // measure 63
0100
0010
0100
0010
0100
0000
1000
0000
0001
0000
0010
0000
1000
0000
0100
0000
,  // measure 64
0001
0000
2010
0010
3100
0000
1000
0010
,  // measure 65
0001
0000
0010
1000
0010
0000
1000
0000
0100
0000
0001
0000
1000
0000
0010
0000
,  // measure 66
0002
0000
0200
0303
1100
0000
0000
0000
;

//---------------dance-single - ----------------
#NOTES:
     dance-single:
     :
     Medium:
     7:
     0.606,0.726,0.135,0.096,0.193: // measure 1
0000
0000
0000
0000
,  // measure 2
0010
0000
0100
0001
0000
1000
0000
0001
,  // measure 3
0000
0010
0100
0010
0100
0000
1001
0000
,  // measure 4
0001
0000
0100
0010
0000
1000
0000
0001
,  // measure 5
0000
0100
0001
0100
0001
1000
0100
0000
,  // measure 6
0010
0000
0001
1000
0000
0100
0000
0010
,  // measure 7
0000
0001
0010
0001
0010
0000
0110
0000
,  // measure 8
1000
0000
0001
0100
0000
0010
0000
1000
,  // measure 9
0000
0001
1000
0001
1000
0010
0100
0000
,  // measure 10
0001
0000
1000
0010
0100
0001
0000
1000
,  // measure 11
0000
0100
0010
0100
0010
0000
0011
0000
,  // measure 12
1000
0000
0010
0100
0010
1000
0000
0010
,  // measure 13
0000
1000
0100
1000
0100
0010
0001
0010
,  // measure 14
0001
0000
0100
0010
0000
1000
0000
0001
,  // measure 15
0000
1000
0001
1000
0001
0000
0110
0000
,  // measure 16
0001
0000
1000
0100
0000
1000
0000
0001
,  // measure 17
0000
1000
0010
1000
0010
0100
0001
0100
,  // measure 18
0001
0010
0000
0001
0000
1000
0000
0010
0000
0100
0000
0010
0000
1000
0001
0000
,  // measure 19
0010
0100
0000
1000
0000
0010
0000
0100
0000
0001
0000
1000
0000
0100
0010
0000
,  // measure 20
0100
1000
0000
0010
0000
0100
0000
0010
0000
1000
0000
0001
0000
1000
0001
0000
,  // measure 21
0010
0100
0000
1000
0000
0010
0000
0100
0000
0010
1000
0010
1000
0000
0001
0000
,  // measure 22
0100
0010
0000
1000
0001
0010
0000
0001
,  // measure 23
1000
0010
0000
0100
0010
1000
0002
0000
,  // measure 24
0103
0010
0000
1000
0001
0010
0000
0100
,  // measure 25
1000
0001
0000
1000
0010
1000
0100
0000
,  // measure 26
1000
0100
0000
1000
0001
0100
0000
0001
,  // measure 27
0010
0001
0000
0010
0100
0010
0002
0000
,  // measure 28
1003
0100
0000
1000
0001
0100
0000
0001
,  // measure 29
0100
0001
0000
0100
0010
0100
0001
0000
,  // measure 30
1000
0100
0000
1000
0100
0010
0001
0010
,  // measure 31
0000
0001
0100
0010
1000
0001
2000
0000
,  // measure 32
3010
0100
0000
0001
1000
0010
0100
0001
,  // measure 33
0000
0100
0010
1000
0100
0010
0100
1000
,  // measure 34
0010
0110
0100
0101
,  // measure 35
0001
1001
1000
1100
,  // measure 36
1000
0100
1000
0100
0010
0001
0010
0001
,  // measure 37
1000
0100
0010
0001
0010
0100
1000
0001
,  // measure 38
2000
3000
0000
0000
0000
0000
0000
0000
0010
0000
0000
0000
0100
0000
0000
0000
0010
0000
0000
0000
1000
0000
0100
0000
1000
0000
0000
0000
0010
0000
0000
0000
,  // measure 39
0100
0001
0100
0010
0100
0000
0001
1000
0001
0000
0100
0001
0100
0000
0010
0000
,  // measure 40
1000
0000
0100
0000
0010
0000
0001
0100
0010
0000
0100
0001
1000
0000
0010
0000
,  // measure 41
0100
0001
0010
0100
0010
0000
0001
1000
0100
0000
0010
0100
1000
0000
0001
0000
,  // measure 42
0100
0000
0010
0100
0001
0000
1000
0010
0100
0000
0000
0000
0010
0000
0000
0000
,  // measure 43
1000
0001
0010
1000
,  // measure 44
0010
1002
0103
0010
,  // measure 45
0100
0001
1000
0001
,  // measure 46
1000
0000
0120
0000
1030
0001
1000
0001
,  // measure 47
0100
0001
0100
0001
0100
0010
0100
0010
,  // measure 48
1000
0010
1000
0010
1000
0100
0010
0001
,  // measure 49
0010
0100
1000
0000
0101
0000
0110
0000
,  // measure 50
2010
0000
3001
0100
0010
0000
1000
0010
,  // measure 51
0100
0000
0001
0000
1000
0100
0010
0100
,  // measure 52
1000
0000
0010
0100
0001
0000
1000
0010
,  // measure 53
0100
0000
0010
0000
1000
0000
0001
0010
,  // measure 54
0100
0000
1000
0010
0100
0000
0001
1000
,  // measure 55
0010
0000
0100
0000
0010
1000
0001
0010
,  // measure 56
0100
0000
1000
0010
0100
0000
0010
1000
,  // measure 57
0001
0000
1000
0000
0100
0010
0100
0010
,  // measure 58
0001
0000
1020
0000
0130
0000
0010
1000
,  // measure 59
0001
0010
0100
0000
1000
0010
0100
0001
,  // measure 60
1000
0000
0010
0100
0001
0000
1000
0100
,  // measure 61
0010
0100
1000
0010
0100
0000
0001
0010
,  // measure 62
0100
0000
1000
0001
0100
0000
0010
1000
,  // measure 63
0001
0010
0100
1000
0100
0010
0100
1000
,  // measure 64
0010
0000
1000
0100
1000
0000
0001
0010
,  // measure 65
0100
0010
0001
0100
0010
0100
0001
0010
,  // measure 66
0200
0320
0031
0000
;

//---------------dance-single - ----------------
#NOTES:
     dance-single:
     :
     Easy:
     5:
     0.525,0.663,0.106,0.289,0.173: // measure 1
0000
0000
0000
0000
,  // measure 2
0010
0000
0100
0001
0000
1000
0000
0100
,  // measure 3
0000
1000
0100
0000
0010
0000
0120
0000
,  // measure 4
0130
0000
0010
0100
0000
0010
0000
0001
,  // measure 5
0000
1000
0001
0000
0100
0000
0010
0000
,  // measure 6
1000
0000
0001
0010
0000
0100
0000
1000
,  // measure 7
0000
0001
0100
0000
0001
0000
1002
0000
,  // measure 8
1003
0000
0001
1000
0000
0001
0000
0010
,  // measure 9
0000
0100
1000
0000
0001
0000
0100
0000
,  // measure 10
0010
0000
1000
0010
0000
0100
0000
0001
,  // measure 11
0000
0010
0001
0010
0001
0000
0012
0000
,  // measure 12
0013
0000
0100
0010
0000
0001
0000
0010
,  // measure 13
0000
0001
0010
0001
0010
0000
0100
0000
,  // measure 14
1000
0000
0010
0100
0000
0001
0000
1000
,  // measure 15
0000
0100
1000
0000
0001
0000
0102
0000
,  // measure 16
0103
0000
0010
1000
0000
0100
0000
0010
,  // measure 17
0000
0100
0010
0000
0100
0000
1000
0000
,  // measure 18
0001
0100
0000
0010
0000
1000
0000
0001
0000
0010
0000
0100
0000
0020
0000
0000
,  // measure 19
0031
0100
0000
0010
0000
1000
0000
0100
0000
1000
0000
0001
0000
0020
0000
0000
,  // measure 20
0130
0010
0000
0001
0000
0100
0000
0010
0000
1000
0000
0001
0000
2000
0000
0000
,  // measure 21
3010
0100
0000
0001
0000
0010
0000
0100
0000
1000
0000
0010
0000
0200
0000
0000
,  // measure 22
0301
1000
0000
0010
0000
0100
0000
0001
,  // measure 23
0000
0010
0000
0100
0000
1000
0002
0000
,  // measure 24
1003
0010
0000
0100
0000
0001
0000
0010
,  // measure 25
0000
0100
0000
0010
0000
0001
0100
0000
,  // measure 26
0010
1000
0000
0001
0000
0010
0000
0001
,  // measure 27
0000
0010
0000
0100
0000
1000
0200
0000
,  // measure 28
1300
0001
0000
0100
0000
0010
0000
0100
,  // measure 29
0000
0001
0000
0010
0000
0100
0010
0000
,  // measure 30
0001
0100
0000
0010
0100
0010
0000
0100
,  // measure 31
0001
0100
0000
0001
1000
0001
2000
0000
,  // measure 32
3001
0010
0000
0001
0100
0001
0000
0100
,  // measure 33
0010
0100
0000
0010
1000
0010
2000
0000
,  // measure 34
3001
0110
0000
1100
,  // measure 35
0000
0011
0000
1001
,  // measure 36
0001
0100
0010
1000
,  // measure 37
0002
0023
0230
2300
,  // measure 38
3001
0000
1000
0001
1000
0010
0100
0001
,  // measure 39
0100
0000
0001
0100
0001
0000
0100
0010
0100
0000
0001
0000
0010
0000
0100
0000
,  // measure 40
1000
0000
0100
1000
0100
0000
1000
0001
1000
0000
0001
0000
0100
0000
0010
0000
,  // measure 41
0100
0001
0100
0000
0001
0000
0010
0100
0010
0000
0001
0000
0100
0000
0010
0000
,  // measure 42
0100
0000
0001
1000
0001
0000
0100
0001
0100
0000
0000
0000
0010
0000
0000
0000
,  // measure 43
1000
0100
0010
0001
,  // measure 44
0010
0200
1300
0001
,  // measure 45
0100
0010
0100
0001
,  // measure 46
1000
0002
2003
3200
,  // measure 47
0320
0032
0023
0230
,  // measure 48
2300
0000
3002
0000
1003
0100
1000
0100
,  // measure 49
0010
0001
0010
0001
1000
0000
1001
0000
,  // measure 50
1002
0000
1003
0001
1000
0000
0010
0000
,  // measure 51
0100
0000
0001
0000
1000
0100
1000
0000
,  // measure 52
0001
0000
0100
0010
0100
0000
0001
0000
,  // measure 53
0010
0000
0100
0000
1000
0000
0001
0100
,  // measure 54
0001
0000
0100
0010
0100
0000
0001
0000
,  // measure 55
1000
0000
0001
0000
0100
0001
0100
0001
,  // measure 56
0100
0000
0010
0100
0010
0000
0100
0000
,  // measure 57
0001
0000
1000
0000
0100
1000
0100
0000
,  // measure 58
1000
0210
0301
1000
,  // measure 59
0100
0000
0010
0000
0001
0000
1000
0100
,  // measure 60
1000
0000
0010
0100
0010
0000
0100
0000
,  // measure 61
0001
0000
1000
0000
0100
0000
1000
0100
,  // measure 62
1000
0000
0010
0100
0010
0000
0100
0000
,  // measure 63
0001
0000
0010
0000
0100
1000
0100
1000
,  // measure 64
0100
0000
1000
0001
1000
0000
0001
0000
,  // measure 65
0100
0000
0010
0000
0100
0000
0001
0010
,  // measure 66
0002
2003
3010
0000
;
