#TITLE:Let Me;
#SUBTITLE:;
#ARTIST:DJ KOO feat. Hana;
#TITLETRANSLIT:;
#SUBTITLETRANSLIT:;
#ARTISTTRANSLIT:;
#CREDIT:;
#BANNER:;
#BACKGROUND:;
#LYRICSPATH:;
#CDTITLE:;
#MUSIC:dj koo feat hana - let me.mp3;
#OFFSET:-0.060;
#SAMPLESTART:74.950;
#SAMPLELENGTH:12.000;
#SELECTABLE:YES;
#BPMS:0.000=128.000;
#STOPS:;
#BGCHANGES:0.000=let me.avi=1.000=1=1=0,
99999=-nosongbg-=1.000=0=0=0 // don't automatically add -songbackground-
;

//---------------dance-single - ----------------
#NOTES:
     dance-single:
     :
     Easy:
     3:
     0.240,0.329,0.160,0.185,0.000:
0000
0000
0000
0000
,
0000
0000
0000
0000
,
0000
0000
0000
0000
,
0000
0000
0000
0000
,
0000
1000
1000
0000
,
0001
0001
0001
0000
,
0100
0100
0100
0000
,
0010
0000
0010
0000
,
0010
1000
0100
0001
,
0001
0001
0100
1000
,
1000
1000
0100
0001
,
0001
0001
0100
1000
,
0010
0100
0100
1001
,
0000
0010
0010
1000
,
1010
0001
0001
0101
,
0000
2000
0000
0000
,
3000
0001
0010
0100
,
0000
1000
0100
0010
,
0001
0001
0100
0001
,
0000
0100
0010
1000
,
0100
0010
0001
1000
,
0000
1000
0100
0001
,
0100
1000
0010
0100
,
0000
0100
0010
1000
,
0001
0100
0000
0000
,
0000
0100
0000
0000
,
0000
0100
0000
0000
,
0000
0100
0000
0000
,
0000
0010
1000
0001
,
0000
0010
0001
1000
,
0000
1000
1000
0100
,
0000
0001
0001
0100
,
0000
2000
3000
0020
,
0030
0200
0300
0002
,
0003
1001
0000
0000
,
0000
0000
0000
0000
,
0000
0200
0300
0020
,
0030
2000
3000
0002
,
0003
0010
0001
0010
,
0000
0100
1000
0100
,
1000
0002
0003
0200
,
0300
0010
1000
0010
,
0000
0200
0300
0002
,
0003
1000
1000
0100
,
0000
0020
0030
0002
,
0003
0100
0010
1000
,
0000
0100
0000
0100
,
0010
0000
0000
0000
,
0000
2001
3001
0100
,
0000
0210
0310
1000
,
1000
2100
3100
0001
,
0000
0201
0301
0100
,
1000
0210
0310
1000
,
1100
1000
0001
0100
,
0010
1000
1000
0001
,
0001
1000
0100
0010
,
0001
0100
0100
0010
,
0010
1010
0101
1010
,
0101
1001
1001
1001
,
1001
2002
0000
0000
,
0000
3003
0000
0000
;

//---------------dance-single - ----------------
#NOTES:
     dance-single:
     :
     Medium:
     6:
     0.407,0.456,0.345,0.345,0.000:
0000
0000
0000
0000
,
0000
0000
0000
0000
,
0000
0000
0000
0000
,
0000
0000
0000
0000
,
0000
0000
0001
0000
1001
0000
0000
1000
,
1000
0000
1000
0000
1010
0000
0000
0001
,
0001
0000
1000
0000
1100
0000
0000
1000
,
1000
1000
1000
0000
,
1000
0000
0002
0000
0103
0000
1000
0100
,
0001
0000
0020
0000
1030
0000
1000
0010
,
0001
0000
0002
0000
0103
0000
0010
1000
,
0100
0000
0020
0000
0031
0000
1000
0100
,
0010
0000
0002
0000
0103
0000
0010
1000
,
0001
0000
2000
0000
3100
0000
1000
0001
,
0100
0000
0020
0000
1030
0000
0010
0100
,
0001
2000
0000
0000
,
3000
0000
1000
0000
1000
0100
0020
0000
,
0031
0000
0100
0001
1000
0000
0010
0010
,
0100
0000
0001
0000
0001
0100
0020
0000
,
0130
0000
0010
0000
1000
0000
0010
0100
,
0001
0000
1000
0000
0100
0010
0002
0000
,
0103
0000
0010
0000
1000
0000
1000
0001
,
0010
0000
0001
0000
0100
0010
2000
0000
,
3100
0000
0001
0000
0100
0000
0010
0010
,
0001
1000
0100
1000
,
0100
2000
3001
0010
,
0001
0201
0301
0100
,
0010
2010
3010
1000
,
0100
0002
0103
0010
,
0001
0200
0310
1000
,
0100
2001
3001
0100
,
0010
1200
1300
0001
,
0010
0201
0310
2010
,
3010
0210
0310
2001
,
3001
0000
0001
0000
0100
0100
0001
0000
,
1100
0000
1000
0010
0100
0000
0001
0001
,
0100
2001
3001
0210
,
0310
2010
3010
0201
,
0301
0000
1000
0000
1000
0100
1000
0000
,
1010
0000
0010
1000
0100
0000
0001
0100
,
0100
0000
1000
0000
1001
0000
0001
0100
,
0010
0000
1000
0000
0010
0000
0100
1000
,
0100
0110
1100
1000
,
1000
0200
0000
0000
0010
0000
0001
0300
,
0010
0100
0010
0000
1010
0000
0010
0000
,
1000
0000
0100
1000
0001
0000
0100
0000
,
2010
3010
2100
3001
,
0101
1001
1001
1001
,
0110
0000
0002
0000
0103
0001
1000
0000
,
1100
0000
2000
0000
3100
1000
0100
0010
,
0001
0000
0020
0000
0130
1000
0001
0000
,
1001
0000
2000
0000
3001
1000
0001
0010
,
0100
0000
2100
0000
3001
0100
0010
0000
,
0110
0000
0002
0000
0103
0000
0010
1000
,
0100
0000
2100
0000
3001
0100
0010
0000
,
1010
0000
0020
0000
0130
0000
0001
1000
,
0100
2001
3001
0201
,
0310
0110
1010
0110
,
0101
0000
1001
1000
1000
1000
1000
1000
,
1000
1000
0002
0000
0000
0000
0000
0000
,
0000
0003
0000
0000
;

//---------------dance-couple - ----------------
#NOTES:
     dance-couple:
     :
     Medium:
     5:
     0.344,0.528,0.538,0.000,0.067:
00000000
00000000
00000000
00000000
,
00000000
00000000
00000000
00000000
,
00000000
00000000
00000000
00000000
,
01100110
00000000
00000000
10001000
00000000
01000100
00000000
00000000
,
00010001
00010001
00000000
10001000
01000100
00000000
00000000
00010001
,
00000000
00110011
00000000
00000000
10001000
01000100
00000000
00100010
,
00000001
00000100
00000001
00100000
,
10000000
01000000
00000010
00001000
,
00001000
01000000
00010000
00010000
,
00000100
00000100
00000000
00100000
,
00100000
00000000
00001000
00001000
,
00000000
00010000
00010000
00000000
,
00001001
00000000
00000010
00000100
00000010
00000000
01100000
00000000
,
00010000
10000000
00010000
00000000
00001001
00000000
00000010
00000001
,
00000100
00000000
01100000
00000000
10000000
00010000
01000000
00000000
,
10000000
00000000
00100000
01000000
00000000
00100000
01000000
00000000
00010000
00000000
00000000
00000000
00000001
00000000
00000010
00000100
,
00000000
00000010
00000100
00000000
00001000
00000000
00000000
00000000
00010000
00000000
00100000
01000000
00000000
00100000
01000000
00000000
,
10000000
00000000
00000000
00000000
00001000
00000000
00000010
00000100
00000000
00000010
00000100
00000000
00000001
00000000
00000000
00000000
,
00100000
10000000
01000000
00010000
,
00100000
10010000
00000010
00001000
,
00000100
00000001
00000010
00001001
,
00100000
10000000
01000000
00010000
,
00100000
01000000
00100000
00000000
00000010
00000000
00001000
00000000
,
00000100
00000000
00000001
00000000
00000010
00000100
00000010
00000000
,
10011001
00000000
00000000
01100110
00000000
10011001
00000000
00000000
,
01010101
11001100
00000000
10011001
00000000
00000000
00010000
00000000
,
00000000
00000000
00000100
00000000
,
00000000
10000000
00000000
00000000
,
00000010
00000000
00100000
01000000
,
00010000
00001000
00000001
00000100
,
10000000
01000000
00100000
00000010
,
00001000
00000000
00000001
00000000
00100000
00010000
01000000
00000000
,
00010000
00000000
00000010
00000100
00000010
00000000
00001000
00000000
,
00100000
01000000
00100000
00000000
10000000
00000000
00000001
00000100
,
00000010
00000000
00000000
00000000
00001000
00000000
00000000
00000000
10000000
00000000
00100000
01000000
00000000
00100000
01000000
00000000
,
00010000
00000000
00000000
00000000
00001000
00000000
00000010
00000100
00000000
00000010
00000100
00000000
00000001
00000000
00000000
00000000
,
00010000
00000000
00100000
01000000
00000000
00100000
01000000
00000000
10000000
00000000
00000000
00000000
00000001
00000000
00000010
00000100
,
00000000
00000010
00000100
00000000
00001000
00000000
00000000
00000000
00100010
00000000
00000000
00000000
10001000
00000000
00010001
00000000
,
01000100
00010001
00100010
10011001
,
00100010
01000100
00010001
10001000
00100010
01000100
00010001
01000100
,
00100010
00000000
01000100
00000000
00000000
00100010
00000000
00010001
,
00000000
01000100
00000000
10001000
00100010
01000100
00100010
00000000
,
10001000
00010001
01000100
00010001
10001000
00010001
00100010
01000100
,
10001000
00000000
00010001
00000000
10011001
00000000
00000000
10100000
,
00000000
00000101
00000000
00000000
01010000
00001100
00000000
10011001
;

//---------------dance-solo - ----------------
#NOTES:
     dance-solo:
     :
     Easy:
     3:
     0.214,0.226,0.101,0.000,0.000:
000000
000000
000000
000000
,
000000
000000
000000
000000
,
000000
000000
000000
000000
,
000100
000001
001000
100000
,
000100
000100
000100
100000
,
001000
000001
000100
000100
,
000010
000001
010000
100000
,
000010
000001
100001
010000
,
100000
000010
000001
010000
,
100001
000010
000001
010000
,
100000
000010
100001
000100
,
000010
000100
010000
000100
,
000001
000001
001000
100000
,
100000
001000
000001
000001
,
001000
100000
100000
001000
,
000010
000010
001000
010000
,
010000
100001
000010
000010
,
001000
010000
010000
100001
,
000010
010000
000001
100000
,
001000
001000
000001
100000
,
000010
010000
000100
000100
,
000010
010000
000001
100000
,
001000
001000
000001
100000
,
000010
010000
000100
000100
,
001000
000000
000000
000100
000000
001000
000000
000000
,
000010
010000
000000
000100
000000
000000
100001
000000
,
000010
000010
100001
010000
,
010000
100001
000100
000100
,
100001
001000
001000
100001
,
000010
000010
100001
010000
,
010000
100001
000100
000100
,
001000
000000
000100
000010
,
000001
000100
010000
001000
,
000100
000010
000001
000100
,
010000
001000
000100
000010
,
000001
000100
010000
001000
,
000100
000010
000001
000100
,
010000
001000
000100
010000
,
000100
001000
100000
100000
,
000100
000010
000100
001000
,
000001
000001
000100
010000
,
000100
001000
100000
100000
,
000100
000010
000100
001000
,
000001
000000
000001
000000
000100
000000
000000
001000
,
000000
000100
000000
000000
010000
000010
000000
010000
;

//---------------dance-solo - ----------------
#NOTES:
     dance-solo:
     :
     Medium:
     5:
     0.282,0.340,0.235,0.000,0.000:
000000
000000
000000
000000
,
000000
000000
000000
000000
,
000000
000000
000000
000000
,
000100
000000
100001
000000
000010
010000
000010
000000
,
100000
100000
000000
000010
000100
000000
000000
001000
,
000000
100001
000000
000000
010000
000010
000000
000000
,
000101
000010
001000
000001
,
000100
001000
100100
010000
,
001000
100000
000100
001000
,
101000
000100
010000
100000
,
001000
000100
001001
000100
,
000010
000001
001000
000100
,
010000
000000
001000
000000
010000
000001
100000
000000
,
100000
001000
000010
001000
,
000010
100000
000001
000000
000001
000000
001000
000000
,
000100
000000
001000
000000
000100
100000
000001
000000
,
000001
001000
000100
001000
,
000010
010000
000001
000000
000001
000000
001000
000000
,
000100
010000
000100
010000
000100
010000
000100
000100
,
100100
000000
000101
000000
000100
000010
000100
000010
,
000100
000010
000100
000100
000101
000000
100100
000000
,
100000
001000
100000
001000
100000
001000
100000
100000
,
010100
000000
101000
000000
000001
001000
000001
001000
,
000001
001000
000001
000001
000110
000000
001001
000000
,
010010
000000
000000
001100
000000
100001
000000
000000
,
000010
000010
000000
001000
000000
000000
100001
000000
,
000000
001000
000100
000000
100001
000000
000000
001000
,
000100
000000
100001
000000
000000
000100
001000
000000
,
100001
000000
000000
000100
001000
000000
001010
000000
,
000000
100000
001000
000000
011000
000000
000000
000001
,
001000
000000
001010
000000
000000
100000
001000
000000
,
010010
000000
000100
000001
,
010000
001000
000010
000000
000010
000000
001000
000000
,
000100
000000
100000
000000
000010
001000
010000
000000
,
010000
001000
000100
000001
,
010000
001000
000010
000000
000001
000000
001000
000000
,
000100
000000
100000
000000
000010
001000
010000
000000
,
100000
000000
001000
000000
000100
000001
000100
000010
,
000100
000001
000100
000010
100000
000000
100000
000000
,
000100
100000
000100
010000
000100
100000
000100
010000
,
000001
000000
000001
000000
010000
000010
010000
000100
,
010000
000010
010000
000100
100000
000000
100000
000000
,
000010
010000
000010
000100
000010
010000
000010
000100
,
000001
000000
000001
000000
010010
000000
000000
001100
,
000000
100001
000000
000000
000010
000010
000000
010000
;

//---------------dance-solo - ----------------
#NOTES:
     dance-solo:
     :
     Hard:
     7:
     0.372,0.377,0.622,0.000,0.135:
000000
000000
000000
000000
,
000000
000000
000000
000000
010010
000000
000000
000101
,
000000
100100
000000
000000
000010
000010
000000
010000
,
010000
000000
000000
000000
000100
010000
000001
000000
,
001000
001000
000000
000001
100000
000000
000000
000101
,
000000
100100
000000
000000
100010
010001
000000
001001
,
101000
000100
010000
100000
,
000001
001000
110000
000100
,
000010
000001
100000
001000
,
000011
000100
010000
100000
,
000001
001000
110000
000100
,
000010
000001
100000
001000
,
000100
000000
000001
001000
000000
000001
001000
000000
000010
000000
010000
000000
001000
000000
100000
001000
,
000000
100000
001000
000000
100000
000000
000000
000000
000100
000000
100000
001000
000000
100000
001000
000000
,
010000
000000
000010
000000
001000
000000
000001
001000
000000
000001
001000
000000
000001
000000
000000
000000
,
100000
000000
000001
000100
000000
000001
000100
000000
000010
000000
010000
000000
000100
000000
100000
001000
,
000000
100000
001000
000000
100000
000000
000000
000000
000001
000000
100000
000100
000000
100000
000100
000000
,
010000
000000
000010
000000
000100
000000
000001
001000
000000
000001
001000
000000
000001
000000
000000
000000
,
000101
000000
100100
000000
101000
000000
001001
000001
,
010000
000010
100100
000101
,
001001
000000
101000
100000
000010
000000
010000
000000
,
000110
000000
101000
000000
001001
000000
010100
000100
,
000011
110000
010100
001001
,
101000
000000
000110
000100
110000
000000
000011
000000
,
001000
000000
000000
101000
000000
001001
000000
000000
,
000100
000100
000000
010010
000000
000000
000100
000000
,
000000
100010
010001
000000
000100
000000
000000
101000
,
001001
000000
000100
000000
000000
000101
100100
000000
,
000100
000000
000000
001010
011000
000000
001100
000000
,
000000
000010
000010
000000
001100
000000
000000
010000
,
010000
000000
001100
000000
000000
010000
000010
000000
,
000000
000000
000000
000000
000000
000000
000000
000000
000100
000000
000001
001000
000000
000001
001000
000000
,
000010
000000
010000
000000
000010
000000
100000
001000
000000
100000
001000
000000
100000
000000
000000
000000
,
000100
000000
100000
001000
000000
100000
001000
000000
010000
000000
000010
000000
010000
000000
000001
001000
,
000000
000001
001000
000000
000001
000000
000000
000000
100000
000000
000001
000100
000000
000001
000100
000000
,
000010
000000
010000
000000
000100
000000
100000
001000
000000
100000
001000
000000
100000
000000
000000
000000
,
000001
000000
100000
000100
000000
100000
000100
000000
010000
000000
000010
000000
000100
000000
000001
001000
,
000000
000001
001000
000000
000001
000000
000000
000000
000011
000000
000000
000000
010010
000000
000000
000000
,
110000
000000
100001
100000
000101
000000
101000
000000
,
110000
000000
010010
000000
000011
000000
100001
000001
,
100100
001001
000110
101000
,
001001
000000
010100
010000
000101
000000
100100
000000
,
010100
000000
001001
000000
101000
000000
000110
000010
,
100100
000000
000101
000000
001100
000000
000000
101000
,
000000
001001
000000
000000
000100
000100
000000
010010
;

//---------------dance-single - Copied from Copied f----------------
#NOTES:
     dance-single:
     Copied from Copied f:
     Hard:
     8:
     0.502,0.532,0.345,0.269,0.231: // measure 1
0000
0000
0000
0000
,  // measure 2
0000
0000
0000
0000
,  // measure 3
0000
0000
0000
0000
,  // measure 4
0000
0000
0000
0000
,  // measure 5
0000
0000
0010
0000
1010
0000
0000
0001
,  // measure 6
0101
0000
1000
0000
1100
0000
0000
0001
,  // measure 7
0011
0000
1000
0000
1001
0000
0000
0010
,  // measure 8
0110
1000
1010
0000
,  // measure 9
1001
0000
0000
0000
0021
0000
0000
0001
0030
0000
0001
0000
0100
0000
0000
0000
,  // measure 10
1100
0000
0000
0000
2010
0000
0000
0010
3000
0000
0010
0000
1000
0000
0000
0000
,  // measure 11
0011
0000
0000
0000
0102
0000
0000
0100
0003
0000
0100
0000
0001
0000
0000
0000
,  // measure 12
1010
0000
0000
0000
1002
0000
0000
1000
0003
0000
1000
0000
0001
0000
0100
0000
,  // measure 13
0010
0000
0000
0000
2100
0000
0000
0100
3000
0000
1000
0000
0001
0000
0000
0000
,  // measure 14
1100
0000
0000
0000
0210
0000
0000
0010
0300
0000
0100
0000
1000
0000
0000
0000
,  // measure 15
0011
0000
0000
0000
1002
0000
0000
1000
0003
0000
0001
0000
0100
0000
0000
0000
,  // measure 16
0101
2002
0000
0000
,  // measure 17
3003
0000
0000
0000
1000
0000
0001
0100
0000
0001
0100
0000
0001
0000
0000
0000
,  // measure 18
1001
0000
0000
0000
0001
0000
1000
0010
0000
1000
0010
0000
1000
0000
0100
0000
,  // measure 19
0010
0000
0000
0000
0001
0000
0100
0010
0000
0100
0010
0000
1000
0000
0000
0000
,  // measure 20
0011
0000
0000
0000
0010
0000
0001
1000
0000
0001
1000
0000
0010
0000
1000
0000
,  // measure 21
0001
0000
0000
0000
0100
0000
0001
0010
0000
0001
0010
0000
0001
0000
0000
0000
,  // measure 22
1001
0000
0000
0000
0001
0000
1000
0100
0000
1000
0100
0000
1000
0000
0010
0000
,  // measure 23
0100
0000
0000
0000
0001
0000
1000
0001
0000
1000
0001
0000
1000
0000
0000
0000
,  // measure 24
1010
0000
0000
0000
1000
0000
0001
0100
0000
0001
0100
0000
0010
0000
1000
0000
,  // measure 25
0100
0000
2000
0000
3001
0000
1000
0100
,  // measure 26
0001
0000
0200
0000
0301
0000
0100
1000
,  // measure 27
0010
0000
2000
0000
3010
0000
1000
0010
,  // measure 28
0001
0000
0001
0010
0100
0001
1000
0000
,  // measure 29
1001
0000
0002
0000
1003
0000
1000
0100
,  // measure 30
0001
0000
0200
0000
0310
0000
0001
0100
,  // measure 31
0010
0000
2000
0000
3001
0000
0001
0100
,  // measure 32
1000
0000
0100
0010
1000
0001
1000
0000
,  // measure 33
1000
0100
0020
0000
0031
0010
0200
0000
,  // measure 34
1300
0001
0020
0000
0031
1000
0200
0000
,  // measure 35
1300
0000
0001
0000
1000
0000
0001
0010
0000
0001
0010
0000
0001
0000
0000
0000
,  // measure 36
0011
0000
0000
0000
1000
0000
0010
1000
0000
0010
1000
0000
0100
0000
0010
0000
,  // measure 37
0001
0100
2000
0000
3100
0001
0200
0000
,  // measure 38
0310
1000
0002
0000
1003
0100
0002
0000
,  // measure 39
0103
0000
1000
0000
0010
0000
1000
0001
0000
1000
0001
0000
1000
0000
0000
0000
,  // measure 40
1001
0000
0000
0000
0001
0000
0100
0010
0000
0100
0010
0000
1000
0000
0100
0000
,  // measure 41
0010
0001
1000
0000
1100
0000
1000
0001
,  // measure 42
0100
0020
0000
0130
0001
2000
0000
3000
,  // measure 43
0100
1000
0001
0000
0101
0000
1000
0100
,  // measure 44
0001
0200
0000
0000
1000
0000
1300
0000
,  // measure 45
0100
0010
0001
0000
1010
0000
0010
1000
,  // measure 46
0100
2000
0000
3001
0100
0020
0000
0030
,  // measure 47
1000
0100
0001
0000
0001
0100
1000
0010
,  // measure 48
0100
0001
0101
0000
1010
0000
2002
0000
,  // measure 49
3003
0000
0000
0000
0001
0000
0100
0010
0000
1000
0010
0000
1000
0000
0000
0000
,  // measure 50
1100
0000
0000
0000
1000
0000
0001
1000
0000
0001
0100
0000
0001
0000
0010
0000
,  // measure 51
0100
0000
0000
0000
1000
0000
0001
0100
0000
0010
1000
0000
0001
0000
0000
0000
,  // measure 52
1100
0000
0000
0000
1000
0000
0100
1000
0000
0001
0010
0000
0001
0000
1000
0000
,  // measure 53
0010
0000
0000
0000
0100
0000
0001
1000
0000
0010
0100
0000
0001
0000
0000
0000
,  // measure 54
0011
0000
0000
0000
0001
0000
0100
0010
0000
0100
0001
0000
1000
0000
0010
0000
,  // measure 55
0100
0000
0000
0000
0001
0000
0100
0010
0000
1000
0010
0000
1000
0000
0000
0000
,  // measure 56
0101
0000
0000
0000
0010
0000
1000
0100
0000
1000
0001
0000
0100
0000
0010
0000
,  // measure 57
1000
0000
0000
0000
0010
0000
1000
0100
0000
1000
0100
0000
1000
0000
0001
0100
,  // measure 58
0000
0001
0100
0000
0010
0000
1000
0010
1000
0000
0001
0100
0001
0000
0100
0010
,  // measure 59
0100
0000
0010
1000
0100
0000
1000
0000
0001
0000
0100
0000
0010
0000
1000
0000
,  // measure 60
0001
0100
2002
0000
0000
0000
0000
0000
,  // measure 61
0000
0000
0000
3003
1001
0000
0000
0000
0000
0000
0000
0000
0000
0000
0000
0000
;

//---------------dance-double - Copied from----------------
#NOTES:
     dance-double:
     Copied from:
     Hard:
     8:
     0.488,0.532,0.269,0.135,0.265:
00000000
00000000
00000000
00000000
,
00000000
00000000
00000000
00000000
,
00000000
00000000
00000000
00000000
,
00000000
00000000
00000000
00000000
,
00000000
00000000
10000000
00000000
11000000
00000000
00000000
00010000
,
01010000
00000000
01000000
00000000
01001000
00000000
00000000
00001000
,
00011000
00000000
00000010
00000000
00001010
00000000
00000000
00000100
,
00000110
00000001
00000101
00000000
,
00001001
00000000
00000001
00000100
00001000
00000100
00001000
00000000
,
00101000
00000000
00100000
00010000
10000000
00010000
10000000
00000000
,
10100000
00000000
10000000
00100000
00010000
00100000
00010000
00000000
,
00011000
00000000
00001000
00000100
00000010
00000100
00000010
00000000
,
00001001
00000000
00000010
00001000
00000100
00001000
00000100
00000000
,
00010100
00000000
00010000
00001000
01000000
00001000
01000000
00000000
,
00110000
00000000
00010000
10000000
01000000
10000000
01000000
00000000
,
10010000
20000000
00000000
00000000
,
30010000
00000000
00000000
00000000
10000000
00000000
00010000
01000000
00000000
00100000
01000000
00000000
00100000
00000000
00000000
00000000
,
10100000
00000000
00000000
00000000
00100000
00000000
10000000
00010000
00000000
01000000
00010000
00000000
01000000
00000000
00001000
00000000
,
00010000
00000000
00000000
00000000
00000100
00000000
00000010
00000001
00000000
00001000
00000001
00000000
00000100
00000000
00000000
00000000
,
00001010
00000000
00000000
00000000
00000010
00000000
00001000
00000100
00000000
00001000
00000001
00000000
00000100
00000000
00001000
00000000
,
00010000
00000000
00000000
00000000
00010000
00000000
00001000
01000000
00000000
00001000
00010000
00000000
01000000
00000000
00000000
00000000
,
01100000
00000000
00000000
00000000
00100000
00000000
10000000
01000000
00000000
00100000
01000000
00000000
10000000
00000000
01000000
00000000
,
00100000
00000000
00000000
00000000
00010000
00000000
01000000
00010000
00000000
10000000
00010000
00000000
10000000
00000000
00000000
00000000
,
10010000
00000000
00000000
00000000
01000000
00000000
00100000
01000000
00000000
00100000
10000000
00000000
00100000
00000000
01000000
00000000
,
00010000
00000000
00000000
00000000
10000000
00000000
00000000
01000000
00000000
00000000
00010000
00000000
00002000
00000000
00000000
00000000
,
00013000
00000000
00000000
00000000
00010000
00000000
00000000
00001000
00000000
00000000
00000100
00000000
00000020
00000000
00000000
00000000
,
00001030
00000000
00000100
00000000
00000010
00000000
00000000
00000000
00000002
00000000
00000000
00000000
00001003
00000000
00000000
00000100
,
00000000
00000000
00010000
00000000
00001000
00000000
00000000
01000000
00000000
00000000
00100000
00000000
10000000
00000000
00000000
00000000
,
00110000
00000000
00000000
00000000
10000000
00000000
00000000
00100000
00000000
00000000
00010000
00000000
00002000
00000000
00000000
00000000
,
00013000
00000000
00000000
00000000
00001000
00000000
00000000
00000100
00000000
00000000
00000010
00000000
00002000
00000000
00000000
00000000
,
00003100
00000000
00000001
00000000
00000200
00000000
00000000
00000000
00001300
00000000
00000000
00000000
00000010
00000000
00000000
00000100
,
00000000
00000001
00002000
00000000
00000100
00000000
00000000
00000000
,
00003100
00000000
00010000
00000000
00001000
00000000
00000000
01000000
00100000
00000000
10000000
00000000
00010000
00000000
00000000
10000000
,
00100000
00000000
01000000
00000000
00010000
00000000
00000000
00010000
01000000
00000000
00010000
00000000
01000000
00000000
00000000
00001000
,
00010000
00000000
00000100
00000000
00000010
00000000
00000001
00000100
00000000
00000001
00000100
00000000
00000010
00000000
00000000
00000000
,
00001010
00000000
00000000
00000000
00000100
00000000
00010000
00001000
00000000
00010000
00001000
00000000
00000100
00000000
00000010
00000000
,
00001000
00000000
00000001
00000000
00000100
00000000
00000000
00000010
00001000
00000000
00000001
00000000
00001000
00000000
00000000
00000100
,
00001000
00000000
00000100
00000000
00010000
00000000
00000000
00001000
01000000
00000000
00100000
00000000
01000000
00000000
00000000
00010000
,
10000000
00000000
00000000
00000000
10000000
00000000
01000000
10000000
00000000
01000000
10000000
00000000
00010000
00000000
00000000
00000000
,
01010000
00000000
00000000
00000000
00010000
00000000
10000000
00010000
00000000
10000000
00010000
00000000
10000000
00000000
00010000
00000000
,
01000000
00000000
00100000
00000000
20000000
00000000
00000000
00000000
30200000
00000000
00000000
00300000
01000000
00000000
00001000
00000000
,
00010000
00002000
00000000
00013000
00001000
00000200
00000000
00000000
,
00000310
00001000
00000001
00000000
00000011
00000000
00001000
00010000
,
00001000
00020000
00000000
00000000
00001000
00000000
00001000
00000000
,
00031000
01000000
00100000
00000000
10100000
00000000
10000000
00100000
,
00010000
00002000
00000000
00013000
00000100
00000020
00000000
00000000
,
00000031
00000100
00001000
00000000
00010000
01000000
10000000
00100000
,
01000000
00010000
00110000
00000000
00101000
00000000
00011000
00000000
,
00010010
00000000
00000000
00000000
00000010
00000000
00000100
00000001
00000000
00000010
00000100
00000000
00001000
00000000
00000000
00000000
,
00001100
00000000
00000000
00000000
00010000
00000000
00001000
00100000
00000000
00001000
00010000
00000000
01000000
00000000
00100000
00000000
,
00010000
00000000
00000000
00000000
00010000
00000000
10000000
01000000
00000000
00100000
01000000
00000000
10000000
00000000
00000000
00000000
,
01010000
00000000
00000000
00000000
00010000
00000000
01000000
00100000
00000000
10000000
00100000
00000000
10000000
00000000
00100000
00000000
,
01000000
00000000
00000000
00000000
00010000
00000000
01000000
00010000
00000000
01000000
00100000
00000000
01000000
00000000
00000000
00000000
,
00101000
00000000
00000000
00000000
00001000
00000000
00010000
00000100
00000000
00000010
00000100
00000000
00001000
00000000
00000001
00000000
,
00000100
00000000
00000000
00000000
00000010
00000000
00001000
00000100
00000000
00001000
00000001
00000000
00001000
00000000
00000000
00000000
,
00010100
00000000
00000000
00000000
00010000
00000000
01000000
00100000
00000000
00010000
10000000
00000000
01000000
00000000
10000000
00000000
,
00100000
00000000
00000000
00000000
00100000
00000000
01000000
00100000
00000000
01000000
00100000
00000000
10000000
00000000
01000000
10000000
,
00000000
01000000
10000000
00000000
00010000
00000000
01000000
00001000
01000000
00000000
00001000
00010000
00001000
00000000
00000100
00000010
,
00000100
00000000
00000010
00001000
00000010
00000000
00001000
00000000
00000100
00000000
00010000
00000000
00001000
00000000
00100000
00000000
,
00010000
01000000
00020000
00000000
00000000
00000000
00000000
00000000
,
00000000
10030000
00000000
00000000
;

//---------------dance-double - Copied from----------------
#NOTES:
     dance-double:
     Copied from:
     Medium:
     5:
     0.400,0.429,0.294,0.345,0.000:
00000000
00000000
00000000
00000000
,
00000000
00000000
00000000
00000000
,
00000000
00000000
00000000
00000000
,
00000000
00000000
00000000
00000000
,
00000000
00000000
10000000
00000000
00010000
00000000
00000000
00010000
,
00010000
00000000
01000000
00000000
00001000
00000000
00000000
00010000
,
00010000
00000000
00000100
00000000
00000010
00000000
00000000
00000001
,
00000001
00000100
00000010
00000000
,
00001001
00000000
00002000
00000000
01003000
00000000
10000000
01000000
,
00010000
00000000
00200000
00000000
10300000
00000000
10000000
00100000
,
00010000
00000000
00020000
00000000
00031000
00000000
00000100
00000010
,
00001000
00000000
00000002
00000000
00001003
00000000
00000100
00010000
,
00001000
00000000
00020000
00000000
00031000
00000000
01000000
00100000
,
10000000
00000000
00020000
00000000
01030000
00000000
10000000
00010000
,
01000000
00000000
00002000
00000000
00013000
00000000
00010000
00001000
,
00000100
00000020
00000000
00000000
,
00001030
00000000
00000001
00000000
00001000
00000100
00000020
00000000
,
00000031
00000000
00001000
00000100
00010000
00000000
00001000
00001000
,
01000000
00000000
00100000
00000000
10000000
01000000
00200000
00000000
,
00301000
00000000
00010000
00000000
00001000
00000000
00000100
00000010
,
00001000
00000000
00000001
00000000
00000010
00000100
00002000
00000000
,
00003100
00000000
00010000
00000000
00001000
00000000
01000000
01000000
,
00100000
00000000
10000000
00000000
00100000
10000000
02000000
00000000
,
03100000
00000000
00010000
00000000
01000000
00000000
00001000
00001000
,
00010000
00002000
00003100
00000010
,
00001000
00000200
00010300
00001000
,
00100000
02010000
03010000
01000000
,
00100000
20100000
30100000
10000000
,
01000000
00020000
00031000
00000100
,
00000010
00002000
00003001
00000100
,
00000010
00001020
00001030
00000001
,
00000100
00002010
00003010
00010000
,
00001000
01002000
00103000
00021000
,
00031000
00002010
00003010
00001200
,
00010300
00000000
00010000
00000000
00001000
00001000
01000000
00000000
,
11000000
00000000
10000000
00100000
01000000
00000000
00010000
00010000
,
01000000
00210000
00301000
00021000
,
00030100
00000210
00000301
00000201
,
00000301
00000000
00001000
00000000
00000100
00010000
00001000
00000000
,
00101000
00000000
00100000
00010000
01000000
00000000
00010000
01000000
,
01000000
00000000
00010000
00000000
01000000
00000000
00001000
00010000
,
00001000
00000000
00000100
00000000
00000010
00000000
00000100
00000001
,
00000010
00001100
00001001
00000001
,
00000001
00000200
00000000
00000000
00000010
00000000
00001300
00000000
,
00010000
00001000
00100000
00000000
00110000
00000000
00100000
00000000
,
00010000
00000000
01000000
00001000
00010000
00000000
00001000
00000000
,
00020100
00031000
00002100
00003100
,
00001000
00000011
00000110
00001100
,
00011000
00000000
00020000
00000000
00031000
01000000
00100000
00000000
,
11000000
00000000
20000000
00000000
31000000
10000000
01000000
00100000
,
00010000
00000000
00200000
00000000
00301000
00001000
00000100
00000000
,
00000010
00000000
00002000
00000000
00003001
00000100
00001000
00000000
,
00010000
00000000
00001000
00000000
00001000
00001000
00000100
00000000
,
00001010
00000000
00000002
00000000
00000013
00000000
00001000
00010000
,
00100000
00000000
21000000
00000000
30010000
01000000
00100000
00000000
,
10100000
00000000
00200000
00000000
01300000
00000000
00010000
10000000
,
01000000
20010000
30010000
00012000
,
00013000
00110000
00011000
00001100
,
00001010
00000000
00001001
00000001
00000001
00000001
00000001
00000001
,
00000001
00000001
00002000
00000000
00000000
00000000
00000000
00000000
,
00003000
00000000
00000000
00000000
;

//---------------dance-double - Copied from----------------
#NOTES:
     dance-double:
     Copied from:
     Easy:
     3:
     0.256,0.329,0.252,0.235,0.000:
00000000
00000000
00000000
00000000
,
00000000
00000000
00000000
00000000
,
00000000
00000000
00000000
00000000
,
00000000
00000000
00000000
00000000
,
00000000
00010000
00010000
00000000
,
01000000
00001000
00001000
00000000
,
00000100
00000010
00000010
00000000
,
00001000
00000001
00000001
00000000
,
00000100
00002000
01003000
00010000
,
10010000
20000000
31000000
00010000
,
00011000
00000200
00000310
00001000
,
00000101
00000020
00001030
00000100
,
00010000
00002000
01003000
00100000
,
10100000
20000000
30100000
00010000
,
00011000
00010000
00001000
01001000
,
00001000
00020000
00000000
00000000
,
00031000
00000100
00000001
00001001
,
00000000
00000010
00010000
00000100
,
00011000
00010000
01000000
10010000
,
00000000
01000000
00010000
01000000
,
01010000
00001000
00010000
00011000
,
00000000
00001000
00000100
00000010
,
00000110
00000001
00001000
00001100
,
00000000
00000001
00000010
00000100
,
00001100
00010000
00000000
00000000
,
00000000
01000000
00000000
00000000
,
00000000
10000000
00000000
00000000
,
00000000
00100000
00000000
00000000
,
00000000
00010000
00000000
00000000
,
00000000
00001000
00000000
00000000
,
00000000
00000100
00000000
00000000
,
00000000
00000001
00000000
00000000
,
00000000
00000020
00000030
00002000
,
00003000
02000000
03000000
00020000
,
00030000
10010000
00000000
00000000
,
00000000
00000000
00000000
00000000
,
00000000
02000000
03000000
00200000
,
00300000
20000000
30000000
00020000
,
00030000
00100000
00010000
00100000
,
00000000
01000000
10000000
01000000
,
10000000
00020000
00030000
02000000
,
03000000
00100000
10000000
00100000
,
00000000
02000000
03000000
00020000
,
00030000
10000000
10000000
01000000
,
00000000
00200000
00300000
00020000
,
00030000
01000000
00100000
10000000
,
00000000
01000000
00000000
01000000
,
00100000
00000000
00000000
00000000
,
00000000
20010000
30010000
01000000
,
00000000
02100000
03100000
10000000
,
10000000
21000000
31000000
00010000
,
00000000
02010000
03010000
01000000
,
10000000
02100000
03100000
10000000
,
11000000
10000000
00010000
01000000
,
00100000
10000000
10000000
00010000
,
00010000
10000000
01000000
00100000
,
00010000
01000000
01000000
00100000
,
00100000
10100000
01010000
10100000
,
01010000
10010000
10010000
10010000
,
10010000
20020000
00000000
00000000
,
00000000
30030000
00000000
00000000
;
