#TITLE:Angel In The Night;
#SUBTITLE:;
#ARTIST:Basshunter;
#TITLETRANSLIT:;
#SUBTITLETRANSLIT:;
#ARTISTTRANSLIT:;
#GENRE:Electro House;
#CREDIT:;
#MENUCOLOR:;
#METERTYPE:DDR;
#BANNER:[ROUND 3] Angel In The Night.png;
#BACKGROUND:[ROUND 3] Angel In The Night-bg.png;
#LYRICSPATH:[ROUND 3] Angel In The Night.lrc;
#CDTITLE:;
#MUSIC:[ROUND 3] Angel In The Night.mp3;
#OFFSET:-0.251;
#SAMPLESTART:49.920;
#SAMPLELENGTH:14.180;
#SELECTABLE:YES;
#LISTSORT:;
#BPMS:0.000=140.000;
#STOPS:;
#BGCHANGES:;
#ATTACKS:;

//---------------dance-single - ----------------
#NOTES:
     dance-single:
     :
     Hard:
     9:
     0.675,0.726,0.105,0.210,0.476:
0000
0000
0000
0000
,
0000
0000
0000
0000
,
1100
0000
0000
0000
1000
0100
0010
0100
,
1000
0000
0000
0000
0001
0100
0010
0100
,
0001
0000
0000
0000
0010
0001
0100
0010
,
1000
0000
0000
1000
0000
0001
0100
0001
,
0100
0000
0010
0100
0010
0000
1000
0010
,
1000
0000
0001
1000
0010
0100
0001
0010
,
0100
0000
0100
1000
0001
0000
0010
0001
,
1000
0100
0010
0100
1000
0010
1000
0001
,
2002
0000
0000
0000
0000
0000
3003
0000
0000
0000
1000
0000
0001
0100
0001
0000
,
0100
0010
1000
0010
0100
0002
0003
1000
,
0020
0130
0001
0010
0100
2000
3000
0100
,
0020
0031
0010
0001
1000
0200
0300
0010
,
0002
0103
0001
0100
0010
2000
3000
1000
,
0020
0130
0010
1000
0100
2000
3000
0100
,
0020
0031
1000
0100
0010
0200
0300
1000
,
0020
0130
0010
0001
0010
0200
0300
0001
,
0020
0130
1000
0100
0010
0001
1001
1010
,
0010
0100
0010
0100
0001
0010
0100
0010
,
0100
1000
0100
0001
0100
1000
0100
0001
,
0100
0010
0001
0100
0001
1000
0001
0100
,
0010
1000
0100
0010
0001
0100
0010
1000
,
0010
0100
0001
1000
0100
1100
0010
0001
,
1001
0001
1000
0001
0010
1100
1000
0001
,
0101
0010
1000
0010
1000
0110
0001
1000
,
1100
0000
0000
0000
0000
0000
0010
0000
0001
0000
0010
0000
0001
0000
0010
0000
0001
0000
0010
0000
0001
0000
0010
0000
0001
0000
0000
0000
0000
0000
0100
0000
0000
0010
0000
0000
0100
0000
0000
0000
0000
0000
0010
0000
0000
0000
0000
0000
,
2000
0010
0010
0010
,
3010
0000
0000
0000
0000
0000
0010
0100
0010
0100
0010
0100
0010
0100
0010
0100
0010
0100
0010
0000
0000
0000
0000
0000
,
0100
0000
0001
0000
0100
0000
0001
0000
1000
0010
1000
0000
0020
0000
0000
0000
,
0130
0000
0000
0000
0000
0001
0010
0100
1000
0000
0000
0100
0000
0000
1000
0100
,
0000
0100
1000
0000
0000
0000
0001
0000
0010
0000
0001
1000
0001
1000
0001
0000
,
0100
0001
0100
0000
0001
0000
0000
0100
0000
0000
0001
0000
0100
0010
0100
0000
,
0000
0000
0010
1000
0000
1000
0010
0000
0100
0000
0010
1000
0010
0000
0100
0000
,
0010
0100
0001
0000
0001
0100
0000
0000
0010
0000
1000
0000
0100
0000
1000
0000
,
0100
0000
1000
0000
0001
1000
0000
0100
,
1000
0000
0000
0001
0000
0000
1000
0000
0000
0010
0000
0000
1000
0010
1000
0010
1000
0010
1000
0010
1000
0010
1000
0010
,
1000
0000
0001
0000
0100
0000
0001
0000
0000
0000
0100
0000
0001
0000
0100
0001
,
0100
0000
0000
0000
0001
0000
0010
0000
0100
0000
0000
0000
0010
0000
0001
0010
,
0100
0010
0001
0000
0100
0010
0000
0100
,
0010
0000
0100
0010
0000
0010
1000
0000
0010
0000
0100
0001
0100
0000
0010
1000
,
0010
0000
0100
0000
0001
0000
0010
0000
0100
0000
1000
0000
0100
0000
0010
0001
,
0010
0000
0100
0000
1000
0000
0100
0000
1000
0000
0001
0000
0010
0000
0001
0010
,
0001
0010
0001
0010
0001
0010
0001
0010
0001
1000
0100
1000
0100
1000
0100
1000
,
0100
0000
0000
1000
0000
0000
0001
0000
0000
0100
0000
0000
0001
0000
0000
0100
0000
0000
0001
0000
0000
0100
0000
0000
0001
0000
0100
0000
0001
0000
0100
0000
0001
0000
0100
0000
0001
0000
0100
0000
0001
0000
0100
0000
0001
0000
0100
0000
,
0002
0000
0000
0000
0000
0000
0003
0020
0000
0000
0000
0000
,
0030
0000
0000
0000
0200
0000
0000
0000
0000
0000
0000
0000
0000
0000
0000
0000
0000
0000
0000
0000
0000
0000
0000
0000
0300
0000
0000
2000
0000
0000
0000
0000
0000
0000
0000
0000
0000
0000
0000
0000
0000
0000
0000
0000
0000
3000
0000
0000
,
0001
0000
0010
0000
0100
0000
0010
0000
0001
0010
0001
0000
0010
0000
0001
0000
,
1000
0000
0100
0010
0000
0010
0100
1000
0100
0000
0010
0001
0000
0010
0000
0001
,
1000
0000
0010
0000
0000
1000
0010
0000
1000
0000
0100
0010
0100
0010
0100
0000
,
0010
0001
0010
0000
0001
0000
0010
0000
0100
0010
0000
0001
0010
0001
0010
0000
,
0100
0000
1000
0100
0000
0100
1000
0000
0100
0000
0010
0001
0010
0000
0001
0000
,
0100
0000
0000
0000
0010
1000
0010
0000
1000
0000
0010
0000
0100
0000
0001
0000
,
1000
0000
0010
0000
0100
0000
0010
0100
0010
0000
1000
0000
0010
0000
1000
0000
,
0100
0000
0001
0000
0100
0000
0010
0000
0100
0000
1000
0100
0000
0000
0010
0000
,
0001
0000
0000
0000
0011
0000
0000
0000
0000
0000
0010
0000
0001
0000
1000
0010
,
1000
0000
0000
0000
0010
0000
0100
0000
0010
0000
0000
0010
0100
0000
0000
0100
,
0001
0000
0100
0000
0010
0000
0100
0000
0000
0000
0010
0000
1000
0010
0000
0000
,
0100
0000
0001
0010
0000
0010
0001
0000
0100
0000
0010
1000
0010
0000
1000
0000
,
0010
1000
0001
1000
0100
0010
0100
1000
,
0100
0010
0000
0001
0000
0010
0001
0010
0100
0000
1000
0010
0000
0000
0100
0010
,
0100
0000
0001
0000
1000
0000
0001
0000
0000
0000
1000
0000
0000
0001
1000
0010
,
0100
0000
0010
0000
0100
0000
0001
0000
0100
0000
0010
1000
0010
1000
0000
0001
,
2002
0000
0000
0000
,
3003
0000
0000
0000
;

//---------------dance-single - ----------------
#NOTES:
     dance-single:
     :
     Easy:
     3:
     0.267,0.279,0.017,0.087,0.000:
0000
0000
0000
0000
,
0000
0000
0000
0000
,
1000
1000
1000
0000
,
0001
0001
0001
0000
,
1000
1000
1000
0000
,
0001
0001
0001
0000
,
1000
1000
0100
0000
,
0001
0001
0010
0000
,
0001
1000
0001
1000
,
0001
0001
0001
1000
,
2000
0000
3000
0000
,
0000
0001
0001
0010
,
0010
0001
0001
0010
,
0010
0000
0100
1000
,
1000
0100
0100
1000
,
1000
0000
0100
0001
,
0100
0001
0100
0001
,
0100
0000
0010
0100
,
0010
0200
0010
0010
,
0310
1000
1000
1000
,
0001
1000
0001
0001
,
0001
0000
0100
0100
,
0001
0100
0001
0001
,
1000
0000
0010
0010
,
0010
0000
0100
0100
,
0100
0000
1000
0001
,
1000
0001
1000
2000
,
0002
0000
0000
0000
,
0000
0000
0000
3003
,
0001
0010
0002
0003
,
1000
0020
1030
0000
,
0100
0002
0103
0000
,
1000
0200
1300
0000
,
0000
0000
0010
0010
,
0010
0001
0001
0000
,
1000
1000
0100
0100
,
0010
0010
0001
0000
,
1001
0000
1001
1000
,
0001
0001
1000
0001
,
1000
0001
0001
1000
,
0010
0010
1000
0010
,
0010
0000
0100
0001
,
0001
0100
0001
0000
,
1000
0010
0010
1000
,
0010
0100
0100
0010
,
2000
0000
0000
0000
,
0000
0000
0000
3000
,
0001
0001
0010
0001
,
0000
1000
1000
0100
,
1000
0001
0001
1000
,
0001
0001
1000
0001
,
0100
0010
0010
0100
,
0100
0010
0010
0100
,
0001
0001
0001
0001
,
1000
1000
1000
1000
,
0001
0001
0010
0001
,
1000
1000
0100
1000
,
0001
0010
0010
0001
,
1000
0010
0010
1000
,
0001
0100
0100
0001
,
0001
0100
0100
0001
,
1000
1000
1000
1000
,
0001
0001
0001
0001
,
2000
0000
0000
0000
,
3000
0000
0000
0000
;

//---------------dance-single - ----------------
#NOTES:
     dance-single:
     :
     Medium:
     6:
     0.412,0.419,0.044,0.218,0.000:
0000
0000
0000
0000
,
0000
0000
0000
0000
,
0002
0000
0003
0000
0100
0001
0000
0100
,
0002
0000
0003
0000
1000
0010
0000
1000
,
0020
0000
0030
0000
1000
0100
0000
1000
,
0200
0000
0300
0000
0100
0010
0000
0010
,
0002
0000
0003
0000
0001
1000
0000
0001
,
2000
0000
3000
0000
0010
1000
0000
0010
,
2000
0000
3000
0000
1000
0100
0000
0010
,
0200
0000
0300
0000
0001
0100
0000
1000
,
0020
0000
0000
0030
,
0100
0001
0100
0000
0001
0100
0000
0010
,
1000
0010
1000
0000
0010
1000
0000
0010
,
0100
0010
1000
0000
0010
1000
0000
0001
,
0010
0001
0010
0000
0001
0010
0000
0100
,
1000
0001
1000
0000
0001
1000
0000
0001
,
0010
0100
0010
0000
0001
1000
0000
0010
,
1000
0010
1000
0000
0010
0100
0000
0100
,
0010
0100
0010
0100
0010
0100
0010
0100
,
0020
0030
1000
0000
0001
1000
0001
0000
,
1000
0000
0001
0000
1000
0001
1000
0000
,
0010
0000
0100
0000
0010
0100
0010
0000
,
0100
0000
0010
0000
0100
0010
0100
0000
,
0001
0000
0010
0000
0001
0010
0100
2000
,
0000
0000
3000
0000
1000
0100
0010
0002
,
0000
0000
0003
0010
0100
0000
1000
0001
,
0000
0000
0100
0000
0001
0000
1000
2002
,
0000
0000
0000
0000
,
0000
0000
0000
3003
,
1000
0100
1000
0100
1000
0100
1000
0000
,
0001
0010
0001
0010
0001
0010
0001
0000
,
1000
0001
1000
0001
1000
0001
1000
0000
,
0001
0100
0001
0100
0001
0100
0001
0000
,
1000
0010
1000
0010
1000
0010
1000
0000
,
0100
0010
0100
0010
0100
0010
0100
0000
,
0001
1000
0001
1000
0001
1000
0001
0000
,
0100
0001
0100
0001
0100
0010
0100
0000
,
0001
0000
0010
0000
0001
0010
0001
0000
,
1000
0000
0010
0000
1000
0010
1000
0000
,
0010
0000
0100
0000
0010
0100
0010
0000
,
0100
0000
0001
0000
1000
0001
1000
0001
,
2000
3000
0001
0010
,
0100
0000
1000
0100
0000
0000
0000
0000
,
0020
0000
0032
2000
0003
3000
0002
0000
,
0203
0000
0320
2000
0030
3000
0001
2002
,
0000
0000
0000
0000
,
0000
0000
0000
3003
,
1000
0100
1000
0100
1000
0000
0001
0000
,
0010
0000
0100
1000
0100
1000
0100
0000
,
0010
0000
0001
0000
1000
0001
1000
0000
,
0001
0100
0001
0100
0001
0000
0100
0000
,
0010
1000
0010
0000
0010
1000
0010
0000
,
0100
0000
0001
0000
0100
0001
0100
0001
,
0100
0000
0010
0000
0000
1000
0010
1000
,
0010
0100
0001
1000
,
0001
0000
0010
0000
0000
0100
1000
0100
,
1000
0011
1100
0011
,
0000
0000
0001
0100
0001
0000
0100
0000
,
0001
0100
0001
0000
0100
0000
0001
0000
,
1000
0000
0010
0000
1000
0010
1000
0010
,
1000
0000
0010
0000
0100
0001
0100
0001
,
0100
0000
0010
0000
1000
0001
1000
0001
,
1000
0000
0001
0000
0010
0001
1000
0100
,
0020
0000
0000
0000
,
0030
0000
0000
0000
;
