#TITLE:Le code de bonne conduite;
#SUBTITLE:;
#ARTIST:Manresa;
#TITLETRANSLIT:;
#SUBTITLETRANSLIT:;
#ARTISTTRANSLIT:;
#CREDIT:;
#BANNER:Le code de bonne conduite.png;
#BACKGROUND:Le code de bonne conduite-bg.png;
#LYRICSPATH:;
#CDTITLE:;
#MUSIC:Le code de bonne conduite.mp3;
#OFFSET:-2.860;
#SAMPLESTART:25.240;
#SAMPLELENGTH:11.220;
#SELECTABLE:YES;
#DISPLAYBPM:171.000;
#BPMS:0.000=171.015;
#STOPS:;
#BGCHANGES:;

//---------------dance-single - ----------------
#NOTES:
     dance-single:
     :
     Hard:
     8:
     0.602,0.588,0.532,0.247,0.038:
1000
0000
0100
1000
0001
0000
0000
0000
,
0100
0000
0001
1000
0100
0000
0000
0000
,
0010
0001
0100
1000
,
0100
0000
0001
1000
0100
0000
0000
0000
,
0010
0001
0100
0000
1010
0000
0000
0000
,
0010
1000
0100
0000
0011
0000
0000
0000
,
0001
0100
0001
0100
0010
0000
1000
0000
,
0100
0010
0000
0010
0100
0000
1000
0000
,
1001
0000
0001
0100
0001
0000
0000
0000
,
1000
0001
1000
0100
1000
0000
0000
0000
,
0100
0000
0001
0001
0100
0000
1000
1000
,
0100
0000
0010
0001
0200
0000
0300
0000
,
0010
1000
0001
0100
0001
0000
0000
0000
,
0010
0001
1000
0100
1000
0000
0000
0000
,
0001
0000
1000
0001
1000
0010
0100
0001
,
0020
0100
0000
0100
0200
0000
0330
0000
,
1100
0000
0011
0000
1001
0000
1000
0100
,
1000
0001
0100
0010
,
0110
0000
0101
0000
0011
0000
0001
1000
,
0001
0000
1000
0100
0010
0100
1000
0000
,
1100
0000
0101
0000
1100
0000
1000
0001
,
1000
0001
0100
0010
,
0110
0000
1001
0000
0110
0000
0100
0010
,
1000
0000
0000
0001
0000
0000
1000
0000
0020
0000
0000
0000
0030
0000
0000
0000
,
0110
0000
1010
0000
1100
0000
1000
0100
,
1000
0100
0010
0001
,
0011
0000
0101
0000
1010
0000
0010
1000
,
0001
0000
1000
0001
1000
0001
0010
0000
,
0110
0000
0011
0000
1001
0000
1000
0010
,
1000
0001
0100
0010
,
0110
0000
1010
0000
1001
0000
0001
1000
,
0001
0000
0000
1000
0000
0000
0002
0000
0200
0000
0000
0000
0303
0000
0000
0000
,
0001
1000
0001
1000
0100
0000
0000
0000
,
0010
0001
0000
0001
1000
0000
0000
0000
,
0100
0001
0010
0000
0010
0001
1000
0000
,
0010
1000
0000
1000
0001
0000
0000
0000
,
1000
0100
0001
0100
1000
0000
0000
0000
,
0001
0100
1000
0100
0001
0000
0000
0000
,
1000
0010
1000
0010
0100
0001
0100
0001
,
0010
0001
0000
0001
1000
0100
0010
0000
,
0011
0000
1000
0001
1000
0000
0010
0000
,
0110
0000
0010
1000
0001
0000
1000
0000
,
0100
0010
0001
0000
0001
0010
0100
0000
,
0010
0001
1000
0001
0100
0000
0000
0000
,
0010
1000
0001
1000
0100
0000
0000
0000
,
0010
0001
1000
0001
0100
0000
0000
0000
,
0010
1000
0001
0100
0001
0010
0100
1000
,
0002
1000
0000
1000
2000
0000
3003
0000
,
1010
0000
0101
0000
1010
0000
0001
0100
,
0001
1000
0100
0010
,
0110
0000
0011
0000
0110
0000
0100
1000
,
0100
0000
0010
0001
0010
0001
1000
0000
,
1010
0000
1001
0000
0011
0000
1000
0001
,
1000
0001
0010
0100
,
0011
0000
1100
0000
1001
0000
0001
0100
,
1000
0000
0000
0100
0000
0000
0001
0000
2000
0000
0000
0000
3001
0000
0000
0000
,
0011
0000
1001
0000
0101
0000
0001
0100
,
0001
0000
0001
0010
0001
0000
0001
0000
,
1001
0000
1010
0000
1100
0000
1000
0100
,
1000
0000
1000
0010
1000
0001
1000
0001
,
0101
0000
0000
1010
0000
0000
0110
0000
0000
0010
0000
1000
,
0000
0100
0000
0010
0000
0002
0000
2000
0000
3003
0000
0000
,
0011
0000
1100
0000
1001
0000
1000
0010
,
0100
0000
0000
0010
0000
0000
1000
0000
2002
0000
0000
0000
3003
0000
0000
0000
,
1001
0000
0001
0010
0100
0000
0010
0002
,
0000
0023
0000
0031
1000
0010
0100
0000
,
0010
0000
0100
0001
1000
0000
0100
0020
,
0000
0230
0000
2300
0000
3010
1000
0000
,
0001
0100
0001
0010
0100
0000
0010
0002
,
0000
2003
0000
3020
0000
0130
0001
0010
,
0100
0010
0100
1000
0100
0010
0001
2000
,
0000
3002
0000
0203
0000
0000
0310
1000
,
2002
0000
0000
0000
0000
0000
0000
3003
;

//---------------dance-single - ----------------
#NOTES:
     dance-single:
     :
     Medium:
     6:
     0.475,0.484,0.342,0.190,0.005:
1000
0000
0000
1000
0100
0000
0010
0000
,
0001
0000
0000
0001
0100
0000
0010
0000
,
0100
0000
0000
0100
0001
0000
1000
0000
,
0100
0010
0110
0000
,
0100
0000
0000
0100
0010
0000
0001
0000
,
1000
0000
0000
1000
0001
0000
1000
0000
,
0010
0000
0000
0010
0100
0000
0001
0000
,
1000
0000
0100
1000
0001
0000
0000
0000
,
1000
0001
0100
0000
,
0010
0000
0100
0010
0100
0000
0000
0000
,
0010
0100
0010
1000
,
0001
0000
1000
0001
0100
0000
0000
0000
,
0010
0000
0100
0100
0001
0000
0000
0000
,
0010
0000
0001
0001
1000
0000
0000
0000
,
0001
1000
0100
0000
0010
0000
0001
0000
,
1000
0001
2002
3003
,
1001
1001
1001
0000
,
1000
0000
0001
0100
0001
0000
1000
0000
,
1010
1010
1010
0000
,
0001
0000
0100
0001
1000
0000
0001
0000
,
0011
0011
0011
0000
,
0001
0000
1000
0001
1000
0000
0010
0000
,
0110
0110
0110
0000
,
0100
0000
0001
1000
0100
0000
0000
0000
,
1002
1000
1003
0001
,
1000
0000
0100
1000
0100
0000
0000
0000
,
0021
0001
0031
0010
,
0100
0000
1000
0001
0100
0100
0100
0000
,
0210
0010
0310
0100
,
0001
0000
1000
0001
0100
0000
0000
0000
,
2010
0010
3010
0000
,
1000
0000
0000
1000
0000
0000
2000
0000
0002
0000
0000
0000
3003
0000
0000
0000
,
1000
0000
0010
1000
0010
0000
1000
0000
,
0001
1000
0001
0000
,
0010
0000
0001
0010
0001
0000
1000
0000
,
0010
0100
0010
0000
,
0100
0001
0100
0000
0001
0000
1000
0000
,
0100
1000
0100
0000
1000
0000
0000
0000
,
0001
0010
0001
0000
1000
0000
0010
0000
,
0100
0000
0001
0010
0100
0000
0000
0000
,
0010
0000
0001
0001
0002
0000
0003
0000
,
1000
0000
0010
0010
0020
0000
0030
0000
,
1000
0000
0010
1000
0010
0000
0100
0001
,
0100
0001
1001
0000
,
1000
0100
0010
0001
0010
0000
0000
0000
,
0001
0100
0010
1000
0010
0000
0000
0000
,
1000
0100
0001
0100
,
2000
0000
0002
3003
,
0110
0110
0110
0000
,
0010
0000
0001
1000
0001
0000
0100
0000
,
0101
0101
0101
0000
,
0010
0000
1000
0010
1000
0000
0100
0000
,
1100
1100
1100
0000
,
1000
0000
0001
0010
0001
0000
0100
0000
,
1001
1001
1001
0000
,
0010
0000
1000
0100
1000
0000
0001
0000
,
0012
0000
1000
0000
0103
0000
0001
0100
,
0001
0000
1000
0010
1000
0000
0001
0000
,
2001
0000
0010
0000
3100
0000
1000
0100
,
1000
0000
0001
0010
0001
0000
1000
0000
,
1020
0001
1030
0010
,
0100
0001
0010
0001
,
1200
0000
0001
0000
1300
0000
1000
0001
,
0200
0000
0000
0001
0002
0000
0303
0000
,
0001
0000
0000
0001
1000
0000
0001
0000
,
0010
0100
0010
0001
,
0100
0000
0000
0100
0010
0000
1000
0000
,
0100
0001
0100
1000
,
0010
0000
0000
1000
0001
0000
1000
0000
,
0100
0001
0100
1000
,
0001
0000
0000
0010
0001
0000
0100
0000
,
0010
1000
0010
0100
,
2002
0000
0000
0000
0000
0000
0000
3003
;

//---------------dance-single - ----------------
#NOTES:
     dance-single:
     :
     Easy:
     4:
     0.312,0.311,0.038,0.104,0.000:
1000
1000
1000
0000
,
0001
0001
0001
0000
,
0100
0010
0100
0001
,
1000
0100
0010
0000
,
0100
0010
0100
0000
,
0010
0100
0010
0000
,
0001
1000
0001
0100
,
0010
1000
0001
0000
,
1000
1000
1000
0000
,
0001
0001
0001
0000
,
1000
0100
0010
0001
,
1000
0010
0100
0000
,
0001
0100
0001
0000
,
1000
0100
1000
0000
,
0001
1000
0001
1000
,
0010
0010
0100
0000
,
0001
1000
0200
0000
,
0010
0000
1300
0000
,
1000
0001
0200
0000
,
0010
0000
0301
0000
,
1000
0001
2000
0000
,
0010
0000
3001
0000
,
0001
0100
0002
0000
,
0010
0000
1003
0000
,
1000
0010
1000
0000
,
0001
0000
1000
0000
,
0001
0010
0001
0000
,
1000
0000
1001
0000
,
0001
0010
0100
0000
,
0010
0000
0001
0000
,
1000
0010
0100
0000
,
0020
0000
0030
0000
,
1000
0001
1000
0000
,
0001
1000
0001
0000
,
1000
0100
1000
0000
,
0001
0010
0001
0000
,
1000
0010
0100
0000
,
0010
0100
0001
0000
,
0010
0001
1000
0001
,
0100
0010
0100
0000
,
0010
1000
0010
0000
,
0100
0001
0100
0000
,
0001
0001
1000
1000
,
0001
0010
0100
0000
,
0010
0001
1000
0000
,
0001
1000
0010
0000
,
0100
0100
0010
0010
,
0220
0000
0330
0000
,
0010
1000
0100
0000
,
0010
0010
0001
0001
,
1000
0001
0100
0000
,
0010
0010
0100
0100
,
0001
1000
0100
0000
,
0010
0010
0100
0100
,
0010
0001
0100
0000
,
0010
1000
0001
0000
,
1000
1000
1000
0000
,
0001
0010
0001
1000
,
0010
0010
0010
0000
,
0100
0001
0010
0100
,
0010
0010
0010
0000
,
0100
0010
0001
1000
,
0001
0001
0001
0000
,
2002
0000
3003
0000
,
1000
0000
0001
0000
,
1000
0001
0100
0000
,
0010
0000
0100
0000
,
0010
0100
0010
0000
,
0100
0000
0001
0000
,
1000
0001
1000
0100
,
0010
0000
0100
0000
,
0010
0001
1000
0001
,
2002
0000
0000
0000
0000
0000
0000
3003
;

//---------------dance-single - ----------------
#NOTES:
     dance-single:
     :
     Beginner:
     2:
     0.157,0.205,0.047,0.000,0.000: // measure 1
1000
0000
0000
0000
,  // measure 2
0001
0000
0000
0000
,  // measure 3
0100
0000
0010
0000
,  // measure 4
0100
0000
0000
0000
,  // measure 5
0010
0000
0000
0000
,  // measure 6
1000
0000
0000
0000
,  // measure 7
0001
0000
1000
0000
,  // measure 8
0001
0000
0000
0000
,  // measure 9
1000
0000
0000
0000
,  // measure 10
0100
0000
0000
0000
,  // measure 11
0010
0000
0001
0000
,  // measure 12
1000
0000
0000
0000
,  // measure 13
0010
0000
0000
0000
,  // measure 14
0100
0000
0000
0000
,  // measure 15
0001
0000
0100
0000
,  // measure 16
0001
0000
0000
0000
,  // measure 17
1001
0000
0000
0000
,  // measure 18
1000
0000
0001
0000
,  // measure 19
0010
0000
0000
0000
,  // measure 20
0100
0000
0010
0000
,  // measure 21
0001
0000
0000
0000
,  // measure 22
0010
0000
0001
0000
,  // measure 23
1000
0000
0000
0000
,  // measure 24
0110
0000
0000
0000
,  // measure 25
1000
0000
0000
0000
,  // measure 26
0100
0000
0010
0000
,  // measure 27
0100
0000
0000
0000
,  // measure 28
0010
0000
0001
0000
,  // measure 29
0010
0000
0000
0000
,  // measure 30
0001
0000
1000
0000
,  // measure 31
0001
0000
0000
0000
,  // measure 32
1001
0000
0000
0000
,  // measure 33
1000
0000
0001
0000
,  // measure 34
0100
0000
0000
0000
,  // measure 35
0010
0000
0100
0000
,  // measure 36
0001
0000
0000
0000
,  // measure 37
1000
0000
0001
0000
,  // measure 38
1000
0000
0000
0000
,  // measure 39
0001
0000
0010
0000
,  // measure 40
0001
0000
1000
0000
,  // measure 41
0100
0000
0100
0000
,  // measure 42
0100
0000
0000
0000
,  // measure 43
0010
0000
0010
0000
,  // measure 44
0010
0000
0000
0000
,  // measure 45
0001
0000
0001
0000
,  // measure 46
0001
0000
0000
0000
,  // measure 47
1000
0000
1000
0000
,  // measure 48
1000
0000
0000
0000
,  // measure 49
1001
0000
0000
0000
,  // measure 50
0001
0000
0100
0000
,  // measure 51
1000
0000
0000
0000
,  // measure 52
1000
0000
0100
0000
,  // measure 53
0001
0000
0000
0000
,  // measure 54
1000
0000
0010
0000
,  // measure 55
0001
0000
0000
0000
,  // measure 56
0001
0000
0010
0000
,  // measure 57
1000
0000
0001
0000
,  // measure 58
1000
0000
0001
0000
,  // measure 59
0010
0000
0100
0000
,  // measure 60
0010
0000
0100
0000
,  // measure 61
1000
0000
0100
0000
,  // measure 62
0010
0000
0001
0000
,  // measure 63
1000
0000
0001
0000
,  // measure 64
0100
0000
0000
0000
,  // measure 65
0110
0000
0010
0000
,  // measure 66
0100
0000
0001
0000
,  // measure 67
1000
0000
0001
0000
,  // measure 68
1000
0000
1000
0000
,  // measure 69
1000
0000
0001
0000
,  // measure 70
0010
0000
0100
0000
,  // measure 71
0010
0000
0001
0000
,  // measure 72
0100
0000
0100
0000
,  // measure 73
0100
0000
0000
0000
;
