#TITLE:Ladymade Star;
#SUBTITLE:;
#ARTIST:ESTi;
#TITLETRANSLIT:;
#SUBTITLETRANSLIT:;
#ARTISTTRANSLIT:;
#GENRE:Space Idol Pop;
#CREDIT:;
#MENUCOLOR:;
#METERTYPE:DDR;
#BANNER:[ROUND 2] Ladymade Star.png;
#BACKGROUND:[ROUND 2] Ladymade Star-bg.png;
#LYRICSPATH:;
#CDTITLE:;
#MUSIC:[ROUND 2] Ladymade Star.mp3;
#OFFSET:-0.348;
#SAMPLESTART:14.420;
#SAMPLELENGTH:15.000;
#SELECTABLE:YES;
#LISTSORT:;
#BPMS:0.000=136.000;
#STOPS:;
#BGCHANGES:;
#ATTACKS:;

//---------------dance-single - ----------------
#NOTES:
     dance-single:
     TimeSpaceMage:
     Easy:
     3:
     0.242,0.320,0.055,0.235,0.000:
0000
0000
0000
0000
,
0000
0000
0000
0000
,
0000
0000
0000
0000
,
0000
0000
0000
0000
,
1000
1000
1000
0000
,
0001
0001
0001
0000
,
0100
0100
0100
0000
,
0010
0010
0010
0000
,
0100
0100
0100
0001
,
0100
0001
0100
0000
,
1000
1000
1000
0010
,
1000
0010
1000
0000
,
0002
0003
2000
3000
,
0002
0003
1000
1000
,
0020
0030
0200
0300
,
0020
0030
0100
0100
,
0002
0003
0020
0030
,
0002
0003
1000
1000
,
2000
3000
0200
0300
,
2000
0000
0000
3000
,
0001
0000
0001
0000
,
0010
0000
0010
0000
,
1000
0000
1000
0000
,
0001
0000
1000
1000
,
0100
0000
0010
0000
,
0010
0000
0010
0000
,
1000
1000
0100
0010
,
0001
0000
0010
0001
,
2000
0001
0000
0001
,
0000
0001
0000
3001
,
0002
1000
0000
1000
,
0000
1000
0000
1003
,
0200
0010
0000
0010
,
0000
0010
0000
0310
,
0020
0100
0000
0031
,
0000
1000
1001
1001
,
0000
0001
0001
1000
,
1000
1000
0001
0000
,
0000
0010
0010
1000
,
0001
0001
1000
0001
,
0000
0110
0110
0110
,
0110
1000
0001
0000
,
0011
0010
0010
0100
,
0100
0000
1000
0000
,
1000
1000
0010
0010
,
0010
0100
0100
0000
,
0000
0001
1000
0001
,
1000
0001
1000
0010
,
0010
0000
0000
0010
,
1000
0100
0010
0001
,
2000
0000
0000
3000
,
0002
0000
0013
0010
,
0100
0100
0100
0000
,
0001
0001
0001
0000
,
1000
1000
1000
0000
,
1000
1000
1000
0000
,
0001
0001
0001
0000
,
1000
0001
1000
0000
,
0100
0100
0100
0000
,
0010
0001
0001
0000
,
2000
3000
0002
0003
,
2000
3000
0001
0001
,
0200
0300
0002
0003
,
0200
0300
0001
0001
,
2000
3000
0200
0300
,
2000
3000
0100
0100
,
0020
0030
0002
0003
,
0020
0030
0001
0001
,
1000
0000
0000
0000
;

//---------------dance-single - ----------------
#NOTES:
     dance-single:
     TimeSpaceMage:
     Medium:
     6:
     0.392,0.432,0.110,0.407,0.000: // measure 1
0000
0000
0000
0000
,  // measure 2
0000
0000
0000
0000
,  // measure 3
0000
0000
0000
0000
,  // measure 4
0000
0000
0000
0000
,  // measure 5
1100
0000
0100
0000
0100
0000
0100
0110
,  // measure 6
0000
0010
0000
0010
0000
0000
0000
0000
,  // measure 7
0011
0000
0001
0000
0001
0000
0001
1001
,  // measure 8
0000
1000
0001
1000
0001
1000
0001
0000
,  // measure 9
0110
0000
0010
0000
0010
0000
0010
1001
,  // measure 10
0000
0001
0000
0001
0000
0000
0000
0000
,  // measure 11
1001
0000
1000
0000
1000
0000
1000
1010
,  // measure 12
0000
0010
0000
0010
0000
0000
0000
0000
,  // measure 13
0000
0100
0002
0100
0003
0100
0002
0100
,  // measure 14
0003
0100
0001
0100
0001
0100
0001
0000
,  // measure 15
0000
1000
0002
1000
0003
1000
0002
1000
,  // measure 16
0003
1000
0001
1000
0001
1000
0001
0000
,  // measure 17
0000
0001
0020
0001
0030
0001
0020
0001
,  // measure 18
0030
0001
0010
0001
0010
0001
0010
0000
,  // measure 19
0000
1000
0200
1000
0300
1000
0100
2000
,  // measure 20
0000
0000
0000
0000
0000
0000
3000
0100
,  // measure 21
0010
0000
0001
0010
0001
0010
0000
0001
,  // measure 22
0000
1000
0200
0000
0000
0000
0000
0300
,  // measure 23
0000
0100
0010
0100
0010
0001
0010
0001
,  // measure 24
0000
0001
1000
0001
2000
0000
3002
0000
,  // measure 25
0003
0000
1000
0010
1000
0010
0000
0200
,  // measure 26
0000
0001
0302
0000
0000
0000
0000
0003
,  // measure 27
0000
0100
1000
0100
1000
0100
2000
0200
,  // measure 28
0000
0000
0000
3300
,  // measure 29
0000
0100
0001
0100
0001
0000
1000
0010
,  // measure 30
0000
0010
1000
0020
0000
0000
0000
0030
,  // measure 31
0000
0100
0010
0100
0010
0000
1000
0010
,  // measure 32
0000
0010
1000
0002
0000
0000
0000
0003
,  // measure 33
0000
0001
0100
0001
0100
0000
0010
1000
,  // measure 34
0000
0010
1000
0010
0000
0000
0100
0010
,  // measure 35
0200
0000
0001
0002
0000
0000
0000
0000
,  // measure 36
0000
0000
0300
0000
0010
0000
0010
0003
,  // measure 37
0000
0000
0001
0000
1000
0000
0001
2000
,  // measure 38
3001
0000
1000
0002
0000
0000
0003
0000
,  // measure 39
0000
0000
0001
0100
0001
0100
0001
0100
,  // measure 40
0001
0000
0200
0301
0000
1000
0001
1000
,  // measure 41
0000
0020
2030
3200
,  // measure 42
2300
3020
2030
3200
,  // measure 43
0320
0032
0203
0302
,  // measure 44
0023
0230
0320
0230
,  // measure 45
0300
0000
1000
0000
0010
0000
1000
0020
,  // measure 46
1030
0000
0010
2000
0000
0000
3000
0000
,  // measure 47
0000
0000
0001
0010
0001
0010
0001
0010
,  // measure 48
0002
0000
0010
1000
,  // measure 49
0023
0000
0000
0000
0030
0100
1000
0100
,  // measure 50
1000
0100
0010
0001
,  // measure 51
0020
0100
0000
0100
,  // measure 52
0030
1100
0000
1001
,  // measure 53
0001
0000
0001
0000
0001
0000
0001
0011
,  // measure 54
0000
0010
0000
0010
0000
0000
0000
0000
,  // measure 55
0010
0000
0010
0000
0010
0000
0100
0110
,  // measure 56
0000
0100
0000
0100
0000
0000
0000
0000
,  // measure 57
1000
0000
1000
0000
1000
0000
1000
1001
,  // measure 58
0000
0001
0000
0001
0000
0000
0000
0000
,  // measure 59
0001
0000
0001
0000
0001
0000
0001
0101
,  // measure 60
0000
0100
0000
0100
0000
0000
0000
0000
,  // measure 61
0000
0010
2000
0010
3000
0010
2000
0010
,  // measure 62
3000
0010
1000
0010
1000
0010
2000
3000
,  // measure 63
0000
0001
0020
0001
0030
0001
0020
0001
,  // measure 64
0030
0001
0010
0001
0010
0001
0020
0030
,  // measure 65
0000
0100
2000
3001
0000
0100
0002
1003
,  // measure 66
0000
0100
1000
0001
1000
0001
2000
3000
,  // measure 67
0000
0001
0010
0100
0000
1000
0100
1000
,  // measure 68
0000
0001
0010
0001
0010
0001
0010
0001
,  // measure 69
0020
0000
0000
0000
,  // measure 70
0030
0000
0000
0000
;

//---------------dance-single - ----------------
#NOTES:
     dance-single:
     TimeSpaceMage:
     Hard:
     8:
     0.547,0.540,0.204,0.368,0.078:
0000
0000
0000
0000
,
0000
0000
0000
0000
,
0000
0000
0000
0000
,
0000
0000
0000
0000
,
0001
0010
0001
0010
0001
0200
0300
0020
,
0030
0100
0001
0100
0001
0020
0030
0000
,
0100
1000
0100
1000
0100
0020
0030
0020
,
0030
0001
0100
0010
0100
0000
0202
0303
,
1000
0001
1000
0010
0001
2000
3000
0200
,
0300
1000
0100
0001
1000
0200
0300
0000
,
0100
0001
1000
0010
0001
2000
3000
0002
,
0003
0100
0010
0100
0010
0000
2002
3003
,
0001
0010
0100
0010
0001
1000
0100
1000
,
0000
0001
1000
0001
0101
0010
0110
0000
,
1000
0010
0100
0010
1000
0001
0010
0001
,
0000
0010
0100
0010
0110
0001
1001
0000
,
1000
0001
1000
0001
0010
0100
1000
0010
,
0000
1000
0010
1000
1001
0001
0101
0000
,
1000
0010
1000
0010
0100
0001
1000
0100
,
0000
0001
0010
0100
1100
0001
0101
0000
,
0001
0000
0010
0000
0001
0000
1000
0100
0000
0010
0000
0100
1000
0000
0001
0000
,
0000
0000
0001
0000
0100
0000
0010
1000
0000
0010
0000
1000
0010
0000
0100
0000
,
0000
0000
0010
0000
1000
0000
0001
0010
0000
0001
0000
1000
0001
0000
0010
0000
,
0000
0000
0100
0000
0010
0000
0100
0000
0010
0001
0010
0000
1001
0000
0001
0000
,
0100
0000
0010
0000
1000
0000
0010
0100
0000
0010
0000
0100
0001
0000
0010
0000
,
0000
0000
1000
0000
0100
0000
0010
0001
0000
0010
0000
0100
0010
0000
0001
0000
,
0000
0000
1000
0000
0100
1000
0100
0000
0110
0000
0001
0000
0010
0000
0011
0000
,
0000
0000
0010
0001
0010
0000
0100
1000
0200
0000
0000
0000
0020
0000
0330
0000
,
0001
1000
0010
0000
1000
0010
1000
0000
,
1000
0001
0010
0000
0001
0010
0001
1000
,
0001
0100
0010
0000
1000
0010
0100
0000
,
0001
0010
0100
0000
0100
0010
0100
0010
,
0001
0100
1000
0000
0001
0010
1000
0000
,
0001
0100
1000
0000
0001
0010
1000
0001
,
0010
1000
0001
0000
0200
0000
2000
0000
,
0010
0000
0001
0000
0010
0000
0001
3300
,
0000
0000
1001
0000
1100
0000
0010
0001
,
0100
0000
0100
0020
1000
0000
0100
0000
,
1000
0030
0001
1000
0001
1000
0001
0010
,
0100
0000
0100
0010
0000
0001
1000
0010
,
0000
0000
0000
0000
0002
0000
0000
0000
0023
0000
0000
0000
0230
0000
2000
0300
,
0020
0000
3000
0000
0230
0000
0002
0300
0020
0000
0003
0000
0032
0000
0200
0003
,
2000
0000
0300
0000
3002
0000
0020
0003
0200
0000
0030
0000
0302
0000
0000
0003
,
2002
0000
0000
0000
3003
0000
1100
0000
2200
0000
0000
0000
0000
0000
0000
3300
,
0000
0000
0010
0001
0010
0001
0100
0010
,
1000
0001
1000
0020
0000
0000
0000
0000
,
0030
0000
0100
0010
0100
0001
0100
0010
,
1000
0000
0000
0100
0000
0000
0001
0000
0100
0000
0000
0000
0101
0000
0000
0000
,
0220
0000
0000
0000
0330
1000
0010
0001
,
0100
1000
0010
0001
,
0200
0000
0001
0000
0001
0000
0001
0300
,
1000
0100
1000
0100
0010
0001
0010
0100
,
1000
0010
1000
0010
0100
0001
0100
0010
,
1000
0010
0100
0010
2000
0100
0100
3000
,
0010
0001
0010
0100
0010
0001
0100
0010
,
0100
0001
0100
0010
2000
0010
0010
3000
,
0100
0001
0010
0100
0010
0001
0100
0010
,
1000
0010
0100
0010
0001
0010
0200
0300
,
0001
1000
0100
0010
0100
1000
0010
0100
,
0001
0100
0010
0100
1000
0100
0020
0030
,
1000
0010
1000
0001
0010
0100
1000
0100
,
0000
0001
1000
0010
0110
1000
1010
0000
,
0001
0010
0001
0100
1000
0100
0001
0010
,
0000
0001
1000
0100
0110
0001
1001
0000
,
0001
0100
1000
0100
0001
0010
1000
0010
,
0000
0100
0010
0100
1100
0010
0011
0000
,
0001
1000
0001
0100
0010
1000
0010
1000
,
0000
1000
0001
0010
0100
1000
0001
0010
,
0200
0000
0000
0000
,
0300
0000
0000
0000
;
