#TITLE:Grave Consequence;
#SUBTITLE:;
#ARTIST:Tsukasa;
#TITLETRANSLIT:;
#SUBTITLETRANSLIT:;
#ARTISTTRANSLIT:;
#CREDIT:;
#BANNER:Grave Consequence.png;
#BACKGROUND:Grave Consequence-bg.png;
#LYRICSPATH:;
#CDTITLE:;
#MUSIC:Grave Consequence.mp3;
#OFFSET:-0.360;
#SAMPLESTART:48.120;
#SAMPLELENGTH:12.000;
#SELECTABLE:YES;
#DISPLAYBPM:180.000;
#BPMS:0.000=180.000;
#STOPS:;
#BGCHANGES:;

//---------------dance-single - ----------------
#NOTES:
     dance-single:
     :
     Hard:
     9:
     0.692,0.779,0.544,0.181,0.286:
0000
0000
0000
0000
,
0000
0000
0000
0000
,
0000
0000
0000
0000
,
0000
0000
0000
0000
,
1001
0001
1000
1001
0000
0000
0000
1100
,
0000
0000
0000
0000
0000
0000
0000
0000
0000
0000
0001
0000
0000
0100
0000
0000
,
1010
1000
0001
0011
0000
0000
0000
1000
,
0001
0000
0000
0100
0000
0000
0010
0000
1000
0000
0000
0100
0000
0000
0000
0000
,
1000
0100
1000
0100
0010
1000
0010
0001
,
1000
0000
0010
0000
0100
0000
0001
1000
0002
0000
0000
0000
0010
0000
0000
0000
,
1003
0010
1000
0010
0100
1000
0100
0001
,
1000
0100
0010
0001
1000
0010
0010
0010
,
1000
0001
0010
0100
1000
0100
0010
0001
,
1000
0000
0010
0000
0100
0000
0001
1000
0002
0000
0000
0000
0100
0000
0000
0000
,
0013
0001
1000
0100
0010
0100
1000
0100
,
0010
0001
0100
0010
1000
0001
0010
0100
,
1000
1000
1010
0100
0000
0010
0110
0100
,
0001
0000
0000
0001
0000
0000
0010
0000
0100
0000
0000
1000
0000
0000
0010
0000
,
0100
0100
0110
0010
0000
0100
0101
0000
,
0001
0100
1000
0100
0001
0100
1000
0100
,
0001
0001
1001
1000
0000
0100
0110
0100
,
1000
0000
0000
0010
0000
0000
0100
0000
0001
0000
0000
0010
0000
0000
0100
0000
,
1000
1000
1001
0100
0000
1000
1100
0100
,
1000
0000
0000
1000
0000
0000
0010
0000
0101
0000
0101
0000
1002
0000
0000
0000
,
0103
0100
0010
0100
0000
0001
0010
0100
,
1000
1000
0001
1000
0000
0010
0110
0001
,
1000
2000
0010
0001
3000
0100
0010
0001
,
0100
0200
0010
1000
0000
0301
0001
0001
,
1000
1000
1010
0100
0000
0010
1001
0000
,
0010
0010
0101
0001
0000
1000
1001
0000
,
1000
1000
1010
0100
0000
0001
1001
0000
,
0001
1000
0001
1000
0002
0010
0010
0013
,
0101
0001
1000
2100
0000
0000
0001
0001
,
0000
0000
0000
0000
0000
0000
0000
0000
0000
0000
0001
0000
3001
0000
0001
1000
,
0001
0100
0010
1020
0000
0000
0100
0100
,
0000
0000
0000
0000
0000
0000
0000
0000
0000
0000
0130
0000
0010
0100
0010
0100
,
0001
0011
0000
1200
0000
0000
0010
0010
,
0000
0000
0000
0000
0000
1300
0010
0100
,
0001
0000
0101
0000
0000
0110
0000
0000
1010
0000
0000
1001
0000
0000
0011
0000
,
0000
0010
0001
0000
0000
1001
0000
0000
1000
0010
1000
0000
0010
0000
1000
0001
,
2000
0100
0100
0100
,
0100
0000
0000
0000
0100
0000
0000
0000
3100
0000
1000
0000
0010
0000
0100
0010
,
0100
0001
0010
1002
0000
0000
1000
0000
,
1000
0000
0000
0000
0000
0000
1003
0000
0000
0100
0000
0000
0010
0000
0001
0000
1000
0000
0010
0000
1000
0000
0001
0000
,
0000
1001
0000
0012
0000
0000
0010
0000
,
0010
0000
0010
0000
0013
0001
1000
0010
,
0100
0000
0101
0000
0000
1100
0000
0000
1010
0000
0000
0101
0000
0000
1001
0000
,
0000
1000
0100
0000
0000
0100
0000
0010
0000
0010
0001
0000
1000
0001
2000
0001
,
0000
0000
0000
0000
0000
0001
0001
3001
,
1001
0100
0010
1001
0000
1000
0010
0001
,
0000
0001
0010
1000
0000
1000
0100
0010
,
0001
0100
0001
0000
1000
0100
1000
0000
0001
0100
0001
0000
1000
0100
1000
0000
,
0001
0010
0001
0000
1000
0010
1000
0000
0001
0010
0001
0000
1000
0010
1000
0000
,
0001
0010
0100
1001
0000
1000
0100
0001
,
0000
0001
0100
1000
0000
1000
0010
0100
,
0001
0001
0100
1001
0000
1000
0100
0010
,
0000
0001
0100
0010
0000
0100
0010
1000
,
2001
0000
0100
0100
3000
1000
0001
0010
,
1000
0010
0001
0100
1000
0100
0001
0010
,
0001
0010
0001
0000
1000
0010
1000
0000
0001
0100
0001
0000
1000
0100
1000
0000
,
0001
0010
0100
0000
1000
0010
0100
0000
0001
0010
0100
0000
1000
0010
0100
0000
,
0001
1000
0100
0001
0000
0100
0001
0100
,
0000
1000
0100
1000
0000
0010
0100
0001
,
1000
0000
1001
0000
0000
0101
0000
0000
1010
0000
0000
1100
0000
0000
1001
0000
,
0000
0011
0000
0000
0101
0000
0000
1100
0000
0000
1001
0000
0100
0010
0000
2000
,
0002
0000
0000
0000
,
0000
0000
0003
0000
0000
0000
0000
0100
,
0100
0000
0000
0100
0000
0000
0100
0000
0000
0000
0100
0000
0000
0000
3100
0000
,
0000
0000
0000
0000
0000
1000
0000
0010
,
2002
0000
0000
0000
,
0000
3003
0000
0000
,
0000
0000
1000
0000
0000
0001
0000
0000
1000
0000
0000
0001
0000
0000
1000
0000
,
0000
0001
0000
0000
1000
0000
0000
0001
0000
0000
1000
0000
0100
0010
0000
0000
,
0002
0000
0000
0000
,
0000
0003
0000
0000
;

//---------------dance-double - ----------------
#NOTES:
     dance-double:
     :
     Hard:
     9:
     0.667,0.779,0.506,0.172,0.315:
00000000
00000000
00000000
00000000
,
00000000
00000000
00000000
00000000
,
00000000
00000000
00000000
00000000
,
00000000
00000000
00000000
00000000
,
00012000
00000000
01000000
00010000
00000000
00003000
00000000
01010000
,
00000000
00000000
00000000
00000000
,
00021000
00000000
00000100
00001000
00000000
00030000
00000000
00001100
,
00000100
00000000
00000000
00010000
00000000
00000000
00001000
00000000
00100000
00000000
00000000
00010000
00000000
00000000
00000000
00000000
,
10000000
01000000
00100000
01000000
00010000
01000000
00001000
01000000
,
00010000
00000000
01000000
00000000
00100000
00000000
00001000
00010000
00001000
00000000
00010000
00000000
00000100
00000000
00000000
00000000
,
00000010
00000001
00000100
00000010
00001000
00000100
00010000
00000000
,
00100000
10000000
01000000
00100000
00010000
01000000
01000000
01000000
,
00001000
01000000
00001000
00010000
00001000
00000010
00001000
00000001
,
00001000
00000000
00010000
00000000
00100000
00000000
10000000
00010000
10000000
00000000
01000000
00000000
00100000
00000000
00000000
00000000
,
00010000
00100000
01000000
10000000
01000000
00100000
00001000
00010000
,
00000100
00000000
00001000
00000000
00000010
00000000
00000100
00000000
00000001
00000000
00001000
00000000
00000001
00000100
00000000
00000100
,
00000001
00000001
00000100
00000001
00000000
00001000
00001100
00000000
,
00000100
00000000
00000000
00010000
00000000
00000000
00001000
00000000
01000000
00000000
00000000
00001000
00000000
00000000
01000000
00000000
,
10000000
10000000
01000000
00010000
00000000
00100000
00110000
00000000
,
00010000
00100000
10000000
00100000
00010000
01000000
01000000
01000000
,
00010000
00010000
00100000
00001000
00000000
00010000
00011000
00000000
,
00001000
00000000
00000000
01000000
00000000
00000000
00100000
00000000
00010000
00000000
00000000
00000100
00000000
00000000
00000010
00000000
,
00001000
00001000
00000010
00000001
00000000
00000100
00000101
00000000
,
00000010
00001000
00010000
01000000
00100000
10000000
20010000
00000000
,
31000000
01000000
00100000
00010000
01000000
00100000
00010000
00000000
,
00001000
00000000
00001000
00000000
00000100
00000000
00000010
00001000
00000000
00000010
00000100
00000000
00000001
00000000
00001000
00000000
,
00000100
00000100
00000010
00001000
00010000
00100000
00010000
00000000
,
00001000
00000000
00001000
00000000
01000000
00000000
00100000
10000000
00000000
00010000
00100000
00000000
00100000
00000000
00100000
00000000
,
00010000
00010000
10010000
01000000
00000000
00100000
01010000
00000000
,
00001000
00001000
00011000
00010000
00000000
00000100
00001100
00000000
,
00000010
00000010
00001001
00001000
00000000
00000010
00010010
00000000
,
00010000
00001000
00010000
00001000
00020000
00001000
00001000
00031000
,
00011000
00010000
00000010
00001020
00000000
00000000
00000001
00000001
,
00000000
00000000
00000000
00000000
00000000
00000000
00000000
00000000
00000000
00000000
00001000
00000000
00001030
00000000
00000100
00010000
,
00001000
01000000
00100000
10200000
00000000
00000000
00010000
00010000
,
00000000
00000000
00000000
00000000
00000000
00000000
00000000
00000000
00000000
00000000
10300000
00000000
01000000
00100000
00010000
10000000
,
01000000
11000000
00000000
01020000
00000000
00000000
00100000
00100000
,
00000000
00000000
00000000
00000000
00000000
00000000
00000000
00000000
00000000
00000000
01030000
00000000
00001000
00000000
00010000
00001000
,
00010000
00000000
00011000
00000000
00000000
01010000
00000000
00000000
01100000
00000000
00000000
10100000
00000000
00000000
10010000
00000000
,
00000000
00100000
00010000
00000000
00000000
01010000
00000000
00000000
00100000
10000000
00100000
00000000
10000000
00000000
00010000
10000000
,
00200000
00010000
00010000
00010000
,
00010000
00000000
00000000
00000000
00010000
00000000
00000000
00000000
01300000
00000000
00001000
00000000
00010000
00000000
00000100
00000010
,
00000001
00001000
00000100
00001200
00000000
00000000
00001000
00000000
,
00001000
00000000
00000000
00000000
00000000
00000000
00001300
00000000
00000000
00000100
00000000
00000000
00010000
00000000
00001000
00000000
00100000
00000000
00010000
00000000
10000000
00000000
00100000
00000000
,
00000000
10100000
00000000
21000000
00000000
00000000
00010000
00000000
,
00010000
00000000
00010000
00000000
30010000
01000000
00010000
00100000
,
00001000
00000000
00011000
00000000
00000000
00001100
00000000
00000000
00000101
00000000
00000000
00000011
00000000
00000000
00001001
00000000
,
00000000
00001000
00000100
00000000
00000000
00010000
00000000
00001000
00000000
01000000
00010000
00000000
01000000
00100000
02000000
00200000
,
00000000
00000000
00000000
00000000
00300000
00100000
00100000
03100000
,
10020000
00000000
00000000
01030000
00000000
00100000
10000000
00010000
,
00000000
00100000
00010000
10000000
00000000
00100000
01000000
00010000
,
00100000
00001000
00000000
00000000
00001000
00010000
00000000
00000000
00010000
00000100
00000000
00000000
00000100
00000010
00000000
00000000
,
00000001
00000100
00000000
00000000
00000100
00000010
00000000
00000000
00000010
00010000
00000000
00000000
00010000
00001000
00000000
00000000
,
00011000
01000000
00100000
10010000
00000000
00100000
00001000
00010000
,
00000000
00000010
00001000
00000001
00000000
00000010
00000001
00001000
,
00000100
00010000
00100000
00010000
00001000
00000010
00001000
00010000
,
01000000
10000000
00100000
00010000
00001000
00000100
00000001
00000010
,
00000110
00001000
00000001
00001001
00000000
00001000
00000010
00010000
,
00000000
00001000
00100000
00010000
00000000
10000000
00100000
01000000
,
00010000
00100000
00000000
00000000
00100000
00001000
00000000
00000000
00001000
00000100
00000000
00000000
00000100
00000001
00000000
00000000
,
00000010
00000100
00000000
00000000
00000100
00001000
00000000
00000000
00001000
00010000
00000000
00000000
00010000
00100000
00000000
00000000
,
11000000
00010000
01000000
01010000
00000000
01000000
00001000
00010000
,
00000000
00000100
00010000
00001000
00000000
00000010
00000001
00000100
,
00000001
00000000
00000101
00000000
00000000
00001010
00000000
00000000
00011000
00000000
00000000
01010000
00000000
00000000
10100000
00000000
,
00000000
00110000
00000000
00000000
00011000
00000000
00000000
00001100
00000000
00000000
00000011
00000000
00001000
00000100
00000000
00020000
,
00002000
00000000
00000000
00000000
,
00030000
00000000
00000000
00000000
00000000
00000000
00000000
00100000
,
00100000
00000000
00000000
00010000
00000000
00000000
01000000
00000000
00000000
00000000
00100000
00000000
00000000
00000000
00013000
00000000
,
00000000
00000000
00000000
00000000
00000000
00011000
00000000
00110000
,
22000000
00000000
00000000
00000000
,
00000000
33000000
00000000
00000000
,
00000000
00000000
00010000
00000000
00000000
00100000
00000000
00000000
00001000
00000000
00000000
00010000
00000000
00000000
00000010
00000000
,
00000000
00010000
00000000
00000000
00001000
00000000
00000000
00100000
00000000
00000000
00001000
00000000
00010000
00001000
00000000
00001000
,
00020000
00000000
00000000
00000000
,
00000000
00030000
00000000
00000000
;

//---------------dance-single - ----------------
#NOTES:
     dance-single:
     :
     Medium:
     8:
     0.547,0.602,0.363,0.115,0.134:
0000
0000
0000
0000
,
0000
0000
0000
0000
,
0000
0000
0000
0000
,
0000
0000
0000
0000
,
1001
0000
0000
0110
0000
0000
0000
1001
,
0000
0000
0000
0000
0000
0000
0000
0000
0000
0000
0010
0000
0000
0100
0000
0000
,
1001
0000
0000
1010
0000
0000
0000
0200
,
0001
0000
0000
0001
0000
0000
0001
0000
0001
0000
0000
0301
0000
0000
0000
0000
,
1000
0100
0010
0001
1000
0100
0010
0001
,
1000
0100
0010
1000
0001
0000
0000
0000
,
0001
0100
0010
1000
0001
0010
0100
1000
,
0001
0100
1000
0100
0001
0000
1001
0000
,
0001
0100
0010
1000
0001
0100
0010
1000
,
0001
0100
0010
0001
1000
0000
0000
0000
,
1000
0010
0100
0010
1000
0010
0100
0010
,
1000
0001
0010
0100
0010
0001
1000
0001
,
1000
0000
0001
0100
0000
0010
1000
0000
,
0001
0000
1000
0010
0000
0100
0001
0000
,
0100
0000
0010
0001
0000
0010
1000
0000
,
0100
0000
0010
1000
0000
0010
0001
0000
,
1000
0010
0100
1000
0000
0100
0010
0000
,
1000
0001
0010
0100
0000
0010
1000
0000
,
0010
0001
0100
0010
0000
1000
0001
0000
,
0010
0100
1000
0001
0100
0010
0010
0010
,
1000
1100
0001
0101
,
1000
1010
0001
0011
,
1000
0100
1100
0000
0001
0100
0101
0000
,
0010
1000
1010
0000
0001
0010
0100
1000
,
0001
0010
0011
0000
1000
0010
1010
0000
,
0001
0100
0101
0000
1000
0100
1100
0000
,
0001
0010
1100
0000
1000
0010
0101
0000
,
0001
0010
0100
1000
0001
0100
1000
0100
,
0002
0000
0000
0100
0000
0000
0010
0000
,
0000
0000
0000
0000
0000
1000
1000
1000
,
2003
0000
0000
0100
0000
0000
0010
0000
,
0000
0000
0000
0000
0000
0001
0001
0001
,
3001
1001
0000
1001
0000
0000
0100
0010
,
0000
0000
0000
0000
0000
1000
1000
1000
,
1000
0000
0001
0000
0000
0010
0000
0000
1000
0000
0000
0010
0000
0000
0001
0000
,
0000
0000
1000
0000
0000
0010
0000
0000
0001
0000
0010
0000
1000
0000
0100
0000
,
0010
0010
0010
0010
,
0010
0000
0010
0000
0010
0001
0100
1000
,
0100
0001
1000
0100
0000
0000
0100
0000
,
0100
0000
0000
0000
0000
0000
0100
0000
0000
1000
0000
0000
0100
0000
1000
0000
0100
0000
1000
0000
0100
0000
1000
0000
,
0000
0100
0000
0100
0000
0000
0100
0000
,
0100
0100
0100
0100
,
0100
0000
0010
0000
0000
0001
0000
0000
1000
0000
0000
0010
0000
0000
0100
0000
,
0000
0100
1000
0000
0000
1000
0000
0100
0000
0001
0010
0000
0010
0000
0100
0000
,
0200
0000
0000
0000
0000
1000
1000
1000
,
2300
0000
0000
3001
0000
0010
0001
0100
,
0000
0010
1000
0100
0000
0010
0001
0100
,
0101
1100
0101
1100
,
1010
0011
1010
0011
,
0002
0000
0000
0103
0000
0010
1000
0001
,
0000
0010
0001
1000
0000
0010
0100
0001
,
1000
0100
0010
0001
0000
1000
0010
0100
,
0000
0001
0010
0100
0000
1000
0010
0100
,
0020
0000
0000
1030
0000
1000
1000
1000
,
0000
0001
0001
0001
0000
1000
0001
1000
,
1100
0101
1100
0101
,
0011
1010
0011
1010
,
2000
0000
0000
3001
0000
0010
1000
0001
,
0000
0010
0001
1000
0000
0010
0100
0001
,
1000
0000
1000
0000
0000
1000
0000
0000
1000
0000
0000
1000
0000
0000
1000
0000
,
0000
1000
0000
0000
1000
0000
0000
1000
0000
0000
1000
0000
0010
1000
0000
0010
,
2000
0000
0000
0000
,
0000
0000
0000
0000
0000
0000
0000
0001
,
0001
0000
0000
0001
0000
0000
0001
0000
0000
0000
0001
0000
0000
0000
3001
0000
,
0000
0000
0000
0000
0000
0010
0000
0100
,
0220
0000
0000
0000
,
0000
0000
0000
0000
,
0300
0000
0100
0000
0000
0100
0000
0000
0100
0000
0000
0100
0000
0000
0100
0000
,
0000
0100
0000
0000
0100
0000
0000
0100
0000
0000
0130
0000
0001
0010
0000
0000
,
0200
0000
0000
0000
,
0000
0300
0000
0000
;

//---------------dance-single - ----------------
#NOTES:
     dance-single:
     :
     Easy:
     6:
     0.402,0.496,0.553,0.057,0.095: // measure 1
0000
0000
0000
0000
,  // measure 2
0000
0000
0000
0000
,  // measure 3
0000
0000
0000
0000
,  // measure 4
0000
0000
0000
0000
,  // measure 5
1001
0000
0000
1001
0000
0000
0000
0000
,  // measure 6
1000
0010
0100
0001
,  // measure 7
1001
0000
0000
1001
0000
0000
0000
0000
,  // measure 8
0100
1001
1001
0000
,  // measure 9
0001
1000
0001
0000
0001
0100
0001
0000
,  // measure 10
0001
1000
0001
1000
0001
0000
0000
0000
,  // measure 11
1000
0100
0010
0001
,  // measure 12
1000
0010
0100
0001
,  // measure 13
1000
0001
1000
0000
1000
0100
1000
0000
,  // measure 14
1000
0001
1000
0001
1000
0000
0000
0000
,  // measure 15
0010
0010
0100
0001
,  // measure 16
1000
1000
0100
0010
,  // measure 17
0001
0101
1000
1100
,  // measure 18
0001
1000
0001
1000
,  // measure 19
1000
1010
0001
0011
,  // measure 20
0001
0010
0100
1000
,  // measure 21
0001
0101
1000
1100
,  // measure 22
0010
0001
1000
0010
,  // measure 23
0010
1010
0001
0011
,  // measure 24
0001
0100
1000
0100
,  // measure 25
0010
0000
1000
0000
0100
0010
0100
0000
,  // measure 26
1000
0000
0010
0000
0100
0001
0100
0000
,  // measure 27
0001
0000
0010
0000
0100
1000
0100
0000
,  // measure 28
0010
0000
0001
0000
1000
0010
1000
0000
,  // measure 29
0100
0000
0010
0000
0001
1000
0001
0000
,  // measure 30
0100
0000
0010
0000
1000
0100
1000
0000
,  // measure 31
0001
0100
0010
1000
,  // measure 32
0001
0000
0010
0000
0100
1000
0001
1000
,  // measure 33
1001
0000
0000
0110
0000
0000
0110
0000
,  // measure 34
0000
0000
0000
0000
,  // measure 35
1001
0000
0000
0110
0000
0000
0110
0000
,  // measure 36
0000
0000
0000
0000
,  // measure 37
0000
0011
0000
0011
0000
0000
1100
0000
,  // measure 38
0000
0000
0000
0000
0000
0001
1000
0001
,  // measure 39
1000
0000
0001
0000
0000
0100
0000
0000
0010
0000
0000
1000
0000
0000
0001
0000
,  // measure 40
0000
0000
1000
0000
0000
0010
0000
0000
0100
0000
0000
0001
0000
0000
1000
0000
,  // measure 41
1001
0000
0000
0110
0000
0000
1100
0000
,  // measure 42
0000
0000
0000
0000
0000
0110
0000
0000
,  // measure 43
1001
0000
0000
1010
0000
0000
0101
0000
,  // measure 44
0000
0000
0000
0000
0000
0000
0010
1000
0010
1000
0010
1000
,  // measure 45
0000
1010
0000
1010
0000
0000
0101
0000
,  // measure 46
0000
0000
0000
0000
,  // measure 47
0000
0000
1000
0000
0000
0010
0000
0000
0100
0000
0000
0001
0000
0000
1000
0000
,  // measure 48
0000
0000
0001
0000
0000
0010
0000
0000
0100
0000
0000
1000
0000
0000
0001
0000
,  // measure 49
0000
0000
0000
0000
0000
0001
1000
0001
,  // measure 50
1000
0000
0000
1010
0000
0000
0101
0000
,  // measure 51
0000
0000
0000
0000
0000
1000
0100
0010
,  // measure 52
0001
0001
0001
0001
,  // measure 53
1001
1001
1001
1001
,  // measure 54
1010
0000
0000
0101
0000
0000
0000
1100
,  // measure 55
0000
0000
0000
0000
,  // measure 56
1001
0000
0000
0110
0000
0000
0000
1001
,  // measure 57
0000
0000
0000
0000
,  // measure 58
1100
0000
0000
0011
0000
0000
0000
1001
,  // measure 59
0000
0000
0000
0000
,  // measure 60
0010
0010
0010
0010
,  // measure 61
1010
1010
1010
1010
,  // measure 62
1001
0000
0000
1100
0000
0000
0000
0101
,  // measure 63
0000
0000
0000
0000
,  // measure 64
0000
0000
0001
0000
0000
0010
0000
0000
0100
0000
0000
1000
0000
0000
0001
0000
,  // measure 65
0000
0000
1000
0000
0000
0010
0000
0000
0100
0000
0000
0001
0000
0000
1000
0000
,  // measure 66
2002
0000
0000
0000
,  // measure 67
0000
0000
0000
0000
,  // measure 68
0000
0000
0000
0000
0000
0000
0000
3003
,  // measure 69
0000
0000
0000
0000
0000
0000
0000
0010
,  // measure 70
0220
0000
0000
0000
,  // measure 71
0000
0330
0000
0000
,  // measure 72
0000
0000
1000
0000
0000
0100
0000
0000
0010
0000
0000
0001
0000
0000
1000
0000
,  // measure 73
0000
0000
0001
0000
0000
0010
0000
0000
0100
0000
0000
1000
0000
0000
0001
0000
,  // measure 74
2002
0000
0000
0000
,  // measure 75
0000
3003
0000
0000
;
