#TITLE:THE ENCHANTED FAIRY GARDEN;
#SUBTITLE:[Tokyo Disneyland Disney's Fantillution!];
#ARTIST:Fantastic Plastic Machine;
#TITLETRANSLIT:;
#SUBTITLETRANSLIT:;
#ARTISTTRANSLIT:;
#CREDIT:;
#BANNER:;
#BACKGROUND:;
#LYRICSPATH:;
#CDTITLE:;
#MUSIC:04 THE ENCHANTED FAIRY GARDEN [Tokyo Disneyland Disney's Fantillution!].mp3;
#OFFSET:0.180;
#SAMPLESTART:30.430;
#SAMPLELENGTH:12.000;
#SELECTABLE:YES;
#BPMS:0.000=130.000;
#STOPS:;
#BGCHANGES:;

//---------------dance-single - ----------------
#NOTES:
     dance-single:
     :
     Easy:
     4:
     0.292,0.369,0.308,0.298,0.000:
0000
0000
0000
0000
,
0000
0000
0000
0000
,
0000
0000
0000
0000
,
0000
0000
0000
0000
,
0000
0000
1000
0010
,
0001
1000
0100
0100
,
0010
0010
1000
0001
,
0010
0100
2002
0000
,
0000
0003
3001
0010
,
0100
1000
2002
3003
,
0010
0010
0210
0301
,
0120
1030
0201
0301
,
2010
3010
0001
0001
,
1000
1000
1100
0010
,
0010
0100
0101
0010
,
0010
1000
1100
1000
,
1000
0010
0110
0001
,
0100
1000
0100
0001
,
0011
2200
3300
1000
,
0010
0001
0020
1030
,
0100
0010
0000
0101
,
0001
0100
0010
1000
,
1100
1001
0000
1000
,
0100
0010
2002
3003
,
0220
0330
1010
0101
,
1010
1001
2000
3000
,
0000
0001
0002
0003
,
0000
1000
0020
0030
,
0000
0100
0200
0300
,
0000
0010
1000
0100
,
0010
0001
0001
0100
,
1000
0100
0001
0100
,
1000
0100
0002
0013
,
0100
1000
0001
1000
,
1001
1001
0000
0001
,
0010
0100
0020
0031
,
0100
0010
1010
1000
,
0100
0001
0100
1000
,
0110
1001
0000
1000
,
0001
0000
0100
0000
0002
0000
1003
0100
,
0020
0000
0031
0000
0200
0000
0310
1000
,
0200
0000
1300
0000
0002
0000
0103
0010
,
2000
3100
1010
1001
,
0202
0000
0000
0000
,
0000
0000
0303
0000
,
1001
0000
0000
0000
;

//---------------dance-single - ----------------
#NOTES:
     dance-single:
     :
     Medium:
     7:
     0.364,0.416,0.216,0.462,0.062:
0000
0000
0000
0000
,
0000
0000
0000
0000
,
0000
0000
0000
0000
,
0000
0000
0000
0000
,
0000
0000
0000
0000
0001
0100
0010
0000
,
0200
0000
0310
0000
2000
0100
0100
3100
,
0020
0001
0001
0031
0200
0010
0010
0310
,
1000
0001
2002
0000
,
0000
0000
0000
3003
0001
0000
0001
0000
,
1000
0000
1000
1000
0002
0000
0103
0000
,
1010
0110
2020
3030
,
0202
0303
2002
3003
,
1010
0000
0000
0000
0110
0000
0000
0000
1000
0000
0000
0001
0000
0000
0100
0000
,
0000
0000
0010
0000
0000
0010
0000
0000
0100
0000
0000
0001
0000
0000
1000
0000
,
0000
0000
1000
0000
0000
1000
0000
0000
0001
0000
0000
0010
0000
0000
0100
0000
,
0000
0000
1000
0000
0000
1000
0000
0000
0100
0000
0000
0010
0000
0000
0001
0000
,
0000
0000
0001
0000
0000
0100
0000
0000
1000
0000
0000
0000
0100
0000
0000
0000
,
0100
0000
0001
1000
0100
0000
1000
0001
,
0100
2002
3003
0010
,
1000
0000
0001
1001
0000
0100
0100
0100
,
0010
0010
0020
0000
0030
0000
0001
0000
,
1000
0100
1000
0000
0001
0100
0010
0000
,
1010
0202
0303
0001
,
0100
0000
0010
0000
2000
0000
3010
0010
,
0200
0000
0301
0001
0200
0000
0320
0000
,
2030
0000
3001
0000
0000
0001
0100
1000
,
2002
0000
3003
0000
0000
1000
0100
0001
,
2002
0000
3003
0000
0000
0010
1000
0010
,
0200
0302
1003
0001
,
0101
1001
1000
0100
,
0010
0000
0001
0000
0200
0000
0310
0010
,
2000
0000
3100
0100
0020
0000
0032
0000
,
2003
0000
3200
0000
1300
0010
0100
0001
,
0100
0000
0010
1000
0100
0000
0010
0001
,
1001
1001
1000
0001
,
0100
0000
0110
0020
0000
1030
0100
0001
,
0100
1000
0020
0000
0030
0000
0100
0000
,
0001
0000
0100
0010
1000
0000
0010
0001
,
1000
2002
3003
0100
,
1000
0000
0010
0001
0020
0000
0000
0000
,
0032
0000
0203
0000
,
2300
0000
3020
0000
,
0230
0000
0301
0001
,
0001
0000
0000
1000
0000
0000
1000
0000
0000
0000
1000
0000
0000
0100
0000
0000
,
0010
0000
0000
0010
0000
0000
0010
0000
0000
0000
0001
0000
0000
1000
0000
0000
,
1001
0000
0000
0000
;

//---------------dance-couple - ----------------
#NOTES:
     dance-couple:
     :
     Medium:
     5:
     0.419,0.645,0.657,0.000,0.082:
00000000
00000000
00000000
00000000
,
00000000
00000000
00000000
00000000
,
00000000
00000000
00000000
00000000
,
01100110
00000000
00000000
10001000
00000000
01000100
00000000
00000000
,
00010001
00010001
00000000
10001000
01000100
00000000
00000000
00010001
,
00000000
00110011
00000000
00000000
10001000
01000100
00000000
00100010
,
00000001
00000100
00000001
00100000
,
10000000
01000000
00000010
00001000
,
00001000
01000000
00010000
00010000
,
00000100
00000100
00000000
00100000
,
00100000
00000000
00001000
00001000
,
00000000
00010000
00010000
00000000
,
00001001
00000000
00000010
00000100
00000010
00000000
01100000
00000000
,
00010000
10000000
00010000
00000000
00001001
00000000
00000010
00000001
,
00000100
00000000
01100000
00000000
10000000
00010000
01000000
00000000
,
10000000
00000000
00100000
01000000
00000000
00100000
01000000
00000000
00010000
00000000
00000000
00000000
00000001
00000000
00000010
00000100
,
00000000
00000010
00000100
00000000
00001000
00000000
00000000
00000000
00010000
00000000
00100000
01000000
00000000
00100000
01000000
00000000
,
10000000
00000000
00000000
00000000
00001000
00000000
00000010
00000100
00000000
00000010
00000100
00000000
00000001
00000000
00000000
00000000
,
00100000
10000000
01000000
00010000
,
00100000
10010000
00000010
00001000
,
00000100
00000001
00000010
00001001
,
00100000
10000000
01000000
00010000
,
00100000
01000000
00100000
00000000
00000010
00000000
00001000
00000000
,
00000100
00000000
00000001
00000000
00000010
00000100
00000010
00000000
,
10011001
00000000
00000000
01100110
00000000
10011001
00000000
00000000
,
01010101
11001100
00000000
10011001
00000000
00000000
00010000
00000000
,
00000000
00000000
00000100
00000000
,
00000000
10000000
00000000
00000000
,
00000010
00000000
00100000
01000000
,
00010000
00001000
00000001
00000100
,
10000000
01000000
00100000
00000010
,
00001000
00000000
00000001
00000000
00100000
00010000
01000000
00000000
,
00010000
00000000
00000010
00000100
00000010
00000000
00001000
00000000
,
00100000
01000000
00100000
00000000
10000000
00000000
00000001
00000100
,
00000010
00000000
00000000
00000000
00001000
00000000
00000000
00000000
10000000
00000000
00100000
01000000
00000000
00100000
01000000
00000000
,
00010000
00000000
00000000
00000000
00001000
00000000
00000010
00000100
00000000
00000010
00000100
00000000
00000001
00000000
00000000
00000000
,
00010000
00000000
00100000
01000000
00000000
00100000
01000000
00000000
10000000
00000000
00000000
00000000
00000001
00000000
00000010
00000100
,
00000000
00000010
00000100
00000000
00001000
00000000
00000000
00000000
00100010
00000000
00000000
00000000
10001000
00000000
00010001
00000000
,
01000100
00010001
00100010
10011001
,
00100010
01000100
00010001
10001000
00100010
01000100
00010001
01000100
,
00100010
00000000
01000100
00000000
00000000
00100010
00000000
00010001
,
00000000
01000100
00000000
10001000
00100010
01000100
00100010
00000000
,
10001000
00010001
01000100
00010001
10001000
00010001
00100010
01000100
,
10001000
00000000
00010001
00000000
10011001
00000000
00000000
10100000
,
00000000
00000101
00000000
00000000
01010000
00001100
00000000
10011001
;

//---------------dance-solo - ----------------
#NOTES:
     dance-solo:
     :
     Easy:
     3:
     0.261,0.276,0.123,0.000,0.000:
000000
000000
000000
000000
,
000000
000000
000000
000000
,
000000
000000
000000
000000
,
000100
000001
001000
100000
,
000100
000100
000100
100000
,
001000
000001
000100
000100
,
000010
000001
010000
100000
,
000010
000001
100001
010000
,
100000
000010
000001
010000
,
100001
000010
000001
010000
,
100000
000010
100001
000100
,
000010
000100
010000
000100
,
000001
000001
001000
100000
,
100000
001000
000001
000001
,
001000
100000
100000
001000
,
000010
000010
001000
010000
,
010000
100001
000010
000010
,
001000
010000
010000
100001
,
000010
010000
000001
100000
,
001000
001000
000001
100000
,
000010
010000
000100
000100
,
000010
010000
000001
100000
,
001000
001000
000001
100000
,
000010
010000
000100
000100
,
001000
000000
000000
000100
000000
001000
000000
000000
,
000010
010000
000000
000100
000000
000000
100001
000000
,
000010
000010
100001
010000
,
010000
100001
000100
000100
,
100001
001000
001000
100001
,
000010
000010
100001
010000
,
010000
100001
000100
000100
,
001000
000000
000100
000010
,
000001
000100
010000
001000
,
000100
000010
000001
000100
,
010000
001000
000100
000010
,
000001
000100
010000
001000
,
000100
000010
000001
000100
,
010000
001000
000100
010000
,
000100
001000
100000
100000
,
000100
000010
000100
001000
,
000001
000001
000100
010000
,
000100
001000
100000
100000
,
000100
000010
000100
001000
,
000001
000000
000001
000000
000100
000000
000000
001000
,
000000
000100
000000
000000
010000
000010
000000
010000
;

//---------------dance-solo - ----------------
#NOTES:
     dance-solo:
     :
     Medium:
     5:
     0.345,0.415,0.287,0.000,0.000:
000000
000000
000000
000000
,
000000
000000
000000
000000
,
000000
000000
000000
000000
,
000100
000000
100001
000000
000010
010000
000010
000000
,
100000
100000
000000
000010
000100
000000
000000
001000
,
000000
100001
000000
000000
010000
000010
000000
000000
,
000101
000010
001000
000001
,
000100
001000
100100
010000
,
001000
100000
000100
001000
,
101000
000100
010000
100000
,
001000
000100
001001
000100
,
000010
000001
001000
000100
,
010000
000000
001000
000000
010000
000001
100000
000000
,
100000
001000
000010
001000
,
000010
100000
000001
000000
000001
000000
001000
000000
,
000100
000000
001000
000000
000100
100000
000001
000000
,
000001
001000
000100
001000
,
000010
010000
000001
000000
000001
000000
001000
000000
,
000100
010000
000100
010000
000100
010000
000100
000100
,
100100
000000
000101
000000
000100
000010
000100
000010
,
000100
000010
000100
000100
000101
000000
100100
000000
,
100000
001000
100000
001000
100000
001000
100000
100000
,
010100
000000
101000
000000
000001
001000
000001
001000
,
000001
001000
000001
000001
000110
000000
001001
000000
,
010010
000000
000000
001100
000000
100001
000000
000000
,
000010
000010
000000
001000
000000
000000
100001
000000
,
000000
001000
000100
000000
100001
000000
000000
001000
,
000100
000000
100001
000000
000000
000100
001000
000000
,
100001
000000
000000
000100
001000
000000
001010
000000
,
000000
100000
001000
000000
011000
000000
000000
000001
,
001000
000000
001010
000000
000000
100000
001000
000000
,
010010
000000
000100
000001
,
010000
001000
000010
000000
000010
000000
001000
000000
,
000100
000000
100000
000000
000010
001000
010000
000000
,
010000
001000
000100
000001
,
010000
001000
000010
000000
000001
000000
001000
000000
,
000100
000000
100000
000000
000010
001000
010000
000000
,
100000
000000
001000
000000
000100
000001
000100
000010
,
000100
000001
000100
000010
100000
000000
100000
000000
,
000100
100000
000100
010000
000100
100000
000100
010000
,
000001
000000
000001
000000
010000
000010
010000
000100
,
010000
000010
010000
000100
100000
000000
100000
000000
,
000010
010000
000010
000100
000010
010000
000010
000100
,
000001
000000
000001
000000
010010
000000
000000
001100
,
000000
100001
000000
000000
000010
000010
000000
010000
;

//---------------dance-solo - ----------------
#NOTES:
     dance-solo:
     :
     Hard:
     7:
     0.455,0.461,0.759,0.000,0.164:
000000
000000
000000
000000
,
000000
000000
000000
000000
010010
000000
000000
000101
,
000000
100100
000000
000000
000010
000010
000000
010000
,
010000
000000
000000
000000
000100
010000
000001
000000
,
001000
001000
000000
000001
100000
000000
000000
000101
,
000000
100100
000000
000000
100010
010001
000000
001001
,
101000
000100
010000
100000
,
000001
001000
110000
000100
,
000010
000001
100000
001000
,
000011
000100
010000
100000
,
000001
001000
110000
000100
,
000010
000001
100000
001000
,
000100
000000
000001
001000
000000
000001
001000
000000
000010
000000
010000
000000
001000
000000
100000
001000
,
000000
100000
001000
000000
100000
000000
000000
000000
000100
000000
100000
001000
000000
100000
001000
000000
,
010000
000000
000010
000000
001000
000000
000001
001000
000000
000001
001000
000000
000001
000000
000000
000000
,
100000
000000
000001
000100
000000
000001
000100
000000
000010
000000
010000
000000
000100
000000
100000
001000
,
000000
100000
001000
000000
100000
000000
000000
000000
000001
000000
100000
000100
000000
100000
000100
000000
,
010000
000000
000010
000000
000100
000000
000001
001000
000000
000001
001000
000000
000001
000000
000000
000000
,
000101
000000
100100
000000
101000
000000
001001
000001
,
010000
000010
100100
000101
,
001001
000000
101000
100000
000010
000000
010000
000000
,
000110
000000
101000
000000
001001
000000
010100
000100
,
000011
110000
010100
001001
,
101000
000000
000110
000100
110000
000000
000011
000000
,
001000
000000
000000
101000
000000
001001
000000
000000
,
000100
000100
000000
010010
000000
000000
000100
000000
,
000000
100010
010001
000000
000100
000000
000000
101000
,
001001
000000
000100
000000
000000
000101
100100
000000
,
000100
000000
000000
001010
011000
000000
001100
000000
,
000000
000010
000010
000000
001100
000000
000000
010000
,
010000
000000
001100
000000
000000
010000
000010
000000
,
000000
000000
000000
000000
000000
000000
000000
000000
000100
000000
000001
001000
000000
000001
001000
000000
,
000010
000000
010000
000000
000010
000000
100000
001000
000000
100000
001000
000000
100000
000000
000000
000000
,
000100
000000
100000
001000
000000
100000
001000
000000
010000
000000
000010
000000
010000
000000
000001
001000
,
000000
000001
001000
000000
000001
000000
000000
000000
100000
000000
000001
000100
000000
000001
000100
000000
,
000010
000000
010000
000000
000100
000000
100000
001000
000000
100000
001000
000000
100000
000000
000000
000000
,
000001
000000
100000
000100
000000
100000
000100
000000
010000
000000
000010
000000
000100
000000
000001
001000
,
000000
000001
001000
000000
000001
000000
000000
000000
000011
000000
000000
000000
010010
000000
000000
000000
,
110000
000000
100001
100000
000101
000000
101000
000000
,
110000
000000
010010
000000
000011
000000
100001
000001
,
100100
001001
000110
101000
,
001001
000000
010100
010000
000101
000000
100100
000000
,
010100
000000
001001
000000
101000
000000
000110
000010
,
100100
000000
000101
000000
001100
000000
000000
101000
,
000000
001001
000000
000000
000100
000100
000000
010010
;

//---------------dance-single - Copied from Copied f----------------
#NOTES:
     dance-single:
     Copied from Copied f:
     Hard:
     9:
     0.528,0.508,0.277,0.123,0.328:
0000
0000
0000
0000
,
0000
0000
0000
0000
,
0000
0000
0000
0000
,
0000
0000
0000
0000
,
0000
0000
0000
0000
1000
0100
0010
0001
,
0100
0000
0001
0100
0001
0000
0100
0000
0010
0100
0010
0000
1000
0000
0010
0000
,
1000
0010
1000
0000
0001
0000
1000
0000
0001
1000
0001
0000
0100
0001
0100
0000
,
0010
0100
0010
0000
1000
0010
1000
0020
0000
0000
0000
0000
0000
0000
0000
0000
,
0000
0000
0000
0000
1030
0100
0001
0100
,
1000
0010
0100
0001
2000
0000
3001
0000
,
1010
0000
0101
0000
0100
0001
2000
0000
,
3100
0010
0002
0000
0013
0100
1000
0000
,
0110
0000
0000
0000
1001
0000
0000
0000
0010
0000
0000
0011
0000
0000
1001
0000
,
0000
0000
1000
0000
0000
0001
0000
0000
0110
0000
0000
1010
0000
0000
0101
0000
,
0000
0000
0001
0000
0000
1000
0000
0000
0110
0000
0000
1010
0000
0000
0101
0000
,
0000
0000
1000
0000
0000
0010
0000
0000
0110
0000
0000
0101
0000
0000
1001
0000
,
0000
0000
1000
0000
0000
1001
0000
0000
1000
0000
0100
0000
0001
0000
0100
0000
,
1000
0000
0010
0100
0010
0000
0100
0000
0001
0100
0001
0000
0010
0000
0100
0000
,
1000
0000
1001
0000
0001
0100
1000
0100
,
0001
0000
0100
0010
0100
0000
0020
0000
0000
0000
1030
0010
1000
0010
0100
0001
,
0100
0001
1000
0001
2000
0000
0000
0000
3000
0000
0001
0000
0100
0000
0010
0000
,
1000
0000
0001
1000
0001
0000
0100
0000
0010
1000
0010
0000
1000
0000
0010
0000
,
0100
0000
1001
0000
1000
0100
0010
0001
,
0010
0000
0100
0010
0100
0000
0010
0000
0001
0100
0001
0000
0100
0000
1000
0000
,
0100
0010
0100
0000
0001
0000
1000
0000
0100
0001
0100
0000
1000
0001
1000
0000
,
0010
1000
0010
0000
0100
0010
0100
0000
0001
0000
0100
0000
1000
0000
0100
0000
,
0002
0000
0103
0000
0010
1000
0010
0001
,
0020
0000
1030
0000
1000
0100
0010
0001
,
1000
0000
0000
0000
1010
0000
0000
0000
0010
0000
1000
0100
1000
0001
0100
0000
,
0010
0000
0110
0000
0010
1000
0100
0010
,
0001
0000
1000
0001
1000
0000
0001
0000
0010
0100
1000
0000
0010
0000
1000
0000
,
0001
1000
0001
0000
1000
0000
0100
0000
0010
0001
1000
0000
0010
1000
0010
0000
,
1000
0100
0010
0000
0001
0000
0100
0000
0010
0000
1000
0000
0100
0000
0001
0000
,
0100
0000
1000
0001
1000
0000
0010
0000
1000
0010
0100
0000
0010
0000
1000
0000
,
0001
0000
1001
0000
0001
0100
1000
0100
,
0001
0000
1000
0100
1000
0000
0002
0000
0000
0000
1003
0010
1000
0010
0100
0001
,
0100
0001
1000
0001
2000
0000
0000
0000
3001
0000
0010
0000
1000
0000
0010
0000
,
0001
0000
0100
1000
0100
0000
0001
0000
1000
0100
0010
0000
0001
0000
1000
0000
,
0001
0000
0101
0000
1000
0010
0100
0001
,
1000
0000
0001
1000
0001
0000
1000
0000
0001
0100
0010
0000
1000
0000
0100
0000
,
0010
0100
0010
0000
0001
0000
0100
0000
0010
1000
0100
0000
0010
0000
0001
0000
,
1000
0001
1000
0000
0010
0000
1000
0000
0010
0100
0001
0000
1000
0000
0001
0000
,
0010
0001
0010
0000
0001
0000
1000
0000
0001
0010
0001
0000
1000
0100
1000
0000
,
0200
0000
0000
0010
0000
0000
0310
0000
0000
0000
0101
0000
0000
1001
0000
0000
,
0200
0000
0000
0010
0000
0000
0310
0000
0000
0000
1010
0000
0000
0011
0000
0000
,
1001
0000
0000
0000
;

//---------------dance-double - Copied from----------------
#NOTES:
     dance-double:
     Copied from:
     Hard:
     9:
     0.540,0.531,0.359,0.123,0.339: // measure 1
00000000
00000000
00000000
00000000
,  // measure 2
00000000
00000000
00000000
00000000
,  // measure 3
00000000
00000000
00000000
00000000
,  // measure 4
00000000
00000000
00000000
00000000
,  // measure 5
00000000
00000000
00000000
00000000
10000000
01000000
00100000
00010000
,  // measure 6
10000000
00000000
00010000
10000000
00010000
00000000
10000000
00000000
00010000
01000000
00010000
00000000
01000000
00000000
00001000
00000000
,  // measure 7
00010000
00001000
00010000
00000000
00000100
00000000
00000010
00000000
00000001
00000100
00000001
00000000
00001000
00000100
00001000
00000000
,  // measure 8
00000100
00000010
00000100
00000000
00010000
00001000
00010000
00002000
00000000
00000000
00000000
00000000
00000000
00000000
00000000
00000000
,  // measure 9
00000000
00000000
00000000
00000000
00013000
01000000
10000000
01000000
,  // measure 10
00100000
00010000
01000000
00100000
20000000
00000000
30010000
00000000
,  // measure 11
11000000
00000000
00110000
00000000
00012000
00010000
00013000
00000000
,  // measure 12
00001200
00001000
00001300
00000000
00001001
00000000
00000001
00000000
,  // measure 13
00000101
00000000
00000000
00000000
00001010
00000000
00000000
00000000
00001000
00000000
00000000
00001001
00000000
00000000
00000011
00000000
,  // measure 14
00000000
00000000
00001000
00000000
00000000
00000100
00000000
00000000
00011000
00000000
00000000
01010000
00000000
00000000
10100000
00000000
,  // measure 15
00000000
00000000
10000000
00000000
00000000
01000000
00000000
00000000
10010000
00000000
00000000
01010000
00000000
00000000
00110000
00000000
,  // measure 16
00000000
00000000
00001000
00000000
00000000
00010000
00000000
00000000
00011000
00000000
00000000
00010100
00000000
00000000
00001100
00000000
,  // measure 17
00000000
00000000
00000001
00000000
00000000
00000100
00000000
00000000
00001000
00000000
00000100
00000000
00000010
00000000
00001000
00000000
,  // measure 18
00000001
00000000
00001000
00000100
00001000
00000000
00000001
00000000
00000100
00000010
00000100
00000000
00000010
00000000
00001000
00000000
,  // measure 19
00000100
00000000
00011000
00000000
00010000
01000000
00100000
00010000
,  // measure 20
01000000
00000000
00100000
10000000
00100000
00000000
20000000
00000000
00000000
00000000
30010000
01000000
00010000
01000000
00100000
01000000
,  // measure 21
00100000
10000000
00010000
10000000
00020000
00000000
00000000
00000000
10030000
00000000
00100000
00000000
00010000
00000000
00001000
00000000
,  // measure 22
00000100
00000000
00000010
00000100
00000010
00000000
00001000
00000000
00000001
00001000
00000001
00000000
00000100
00000000
00000010
00000000
,  // measure 23
00001000
00000000
00001001
00000000
00000001
00000100
00000010
00001000
,  // measure 24
00000001
00000000
00001000
00000001
00001000
00000000
00000001
00000000
00000010
00001000
00000010
00000000
00001000
00000000
00010000
00000000
,  // measure 25
01000000
00100000
01000000
00000000
00100000
00000000
00010000
00000000
10000000
01000000
10000000
00000000
01000000
00100000
01000000
00000000
,  // measure 26
00100000
00010000
00100000
00000000
00001000
00010000
00001000
00000000
00001000
00000000
00010000
00000000
00001000
00000000
00000100
00000000
,  // measure 27
00000220
00000000
00000330
00000000
00000001
00000100
00001000
00010000
,  // measure 28
00022000
00000000
00033000
00000000
01000000
00100000
00010000
10000000
,  // measure 29
10010000
00000000
00000000
00000000
01010000
00000000
00000000
00000000
00010000
00000000
10000000
01000000
10000000
00010000
01000000
00000000
,  // measure 30
00100000
00000000
10100000
00000000
00100000
10000000
01000000
00100000
,  // measure 31
00010000
00000000
10000000
00010000
10000000
00000000
01000000
00000000
00010000
01000000
00010000
00000000
00001000
00000000
00010000
00000000
,  // measure 32
00001000
00010000
00001000
00000000
00000100
00000000
00000010
00000000
00001000
00000001
00001000
00000000
00000001
00000100
00000001
00000000
,  // measure 33
00001000
00000100
00001000
00000000
00000010
00000100
00000010
00000100
00000010
00000000
00001000
00000000
00000100
00000000
00000001
00000000
,  // measure 34
00000100
00000000
00010000
00001000
00010000
00000000
00010000
00000000
01000000
00100000
01000000
00000000
10000000
00000000
00010000
00000000
,  // measure 35
00110000
00000000
11000000
00000000
00010000
10000000
01000000
00100000
,  // measure 36
00010000
00000000
10000000
01000000
10000000
00000000
00020000
00000000
00000000
00000000
01030000
00100000
10000000
01000000
00100000
00010000
,  // measure 37
10000000
01000000
00100000
00010000
20000000
00000000
00000000
00000000
30100000
00000000
00010000
00000000
00001000
00000000
00010000
00000000
,  // measure 38
00001000
00000000
00000100
00000010
00000100
00000000
00000001
00000000
00001000
00000001
00001000
00000000
00000001
00000000
00000100
00000000
,  // measure 39
00001010
00000000
00001001
00000000
00000001
00000010
00001000
00010000
,  // measure 40
00001000
00000000
01000000
00100000
01000000
00000000
00010000
00000000
10000000
01000000
10000000
00000000
01000000
00000000
00100000
00000000
,  // measure 41
00100000
00010000
10000000
00000000
01000000
00000000
00010000
00000000
00001000
00010000
00001000
00000000
00000100
00000000
00000010
00000000
,  // measure 42
00001000
00000100
00000010
00000000
00000001
00000000
00000100
00000000
00001000
00010000
00001000
00000000
00010000
00000000
01000000
00000000
,  // measure 43
00100000
00010000
10000000
00000000
10000000
00000000
00100000
00000000
01000000
00100000
01000000
00000000
00010000
10000000
00010000
00000000
,  // measure 44
10000000
00000000
00000000
01010000
00000000
00000000
00110000
00000000
00000000
00000000
00001000
00000000
00000000
00010000
00000000
00000000
,  // measure 45
00010100
00000000
00000000
00001100
00000000
00000000
00000110
00000000
00000000
00000000
00000001
00000000
00000000
00001000
00000000
00000000
,  // measure 46
00001001
00000000
00000000
00000000
;

//---------------dance-double - Copied from----------------
#NOTES:
     dance-double:
     Copied from:
     Medium:
     7:
     0.358,0.416,0.390,0.298,0.000:
00000000
00000000
00000000
00000000
,
00000000
00000000
00000000
00000000
,
00000000
00000000
00000000
00000000
,
00000000
00000000
00000000
00000000
,
00000000
00000000
10000000
01000000
,
00010000
10000000
00100000
00010000
,
00000100
00000001
00000100
00001000
,
00010000
00011000
00022000
00000000
,
00000000
00000000
00033000
00000000
00001000
00010000
01000000
00100000
,
00010000
10000000
02000000
03000000
,
00110000
11000000
02000000
03010000
,
00002000
00013000
00020000
00030100
,
00000011
00000000
00001100
00000000
00000001
00000000
00000100
00000010
,
00001000
00000100
00000010
00000001
00000200
00000000
00001300
00000000
,
00020000
01030000
21000000
31000000
,
00210000
00310000
20010000
31000000
,
00110000
01010000
00010000
01000000
,
10000000
00000000
01000000
10000000
01000000
00000000
00010000
00000000
,
00011000
00011000
00000000
00001000
,
00000100
00000000
00000010
00001000
00000000
00001000
00000100
00000010
,
00000001
00001000
00002200
00000000
00003300
00000000
00000001
00000000
,
00000010
00000000
00001000
00000000
00010000
01000000
00100000
00000000
,
00010000
00110000
00000000
10000000
,
01000000
00100000
00210000
00310000
,
02010000
03010000
10100000
01100000
,
01010000
00000000
10010000
00000000
00000000
10000000
01000000
00010000
,
00002000
00000000
00003000
00000000
00000000
00010000
00001000
00000100
,
00000020
00000000
00000030
00000000
00000000
00000001
00000100
00001000
,
00020000
02030000
03100000
10100000
,
01100000
01010000
10000000
01000000
,
00100000
00010000
10000000
00000000
10000000
01000000
00010000
00000000
,
00001000
00010000
00000100
00000000
00000010
00000100
00001000
00000001
,
00000010
00000100
00001000
00000001
00001001
00000000
00000001
00000000
,
00000100
00001000
00010000
00011000
,
01010000
10010000
10000000
01000000
,
10000000
00000000
00100000
01000000
00000000
00010000
01000000
10000000
,
01000000
00010000
02020000
00000000
03030000
00000000
00010000
00000000
,
10000000
00000000
10000000
01000000
00010000
00000000
00001000
00010000
,
00001000
00022000
00033000
00000010
,
00000100
00000001
00001200
00001300
,
00000210
00000310
00000102
00000103
,
00002010
00003100
00021000
00031000
,
00201000
00310000
01000000
10000000
,
01000000
00010000
00011000
00001000
,
00010000
00000100
00000010
00000001
,
00001001
00000000
00000000
00000000
;

//---------------dance-double - Copied from----------------
#NOTES:
     dance-double:
     Copied from:
     Easy:
     4:
     0.312,0.369,0.328,0.339,0.000:
00000000
00000000
00000000
00000000
,
00000000
00000000
00000000
00000000
,
00000000
00000000
00000000
00000000
,
00000000
00000000
00000000
00000000
,
00000000
00000000
10000000
01000000
,
00010000
00001000
00002200
00003300
,
00002002
00003003
00000002
00000203
,
00002300
00023000
00032000
00000000
,
00000000
00000000
00013000
01000000
,
10000000
00010000
20020000
30030000
,
00010000
00010000
20000000
31000000
,
00020000
01030000
20000000
30010000
,
00110000
00011000
00010000
00001000
,
00010000
00001000
00000100
00000010
,
00000100
00000010
00001000
00000010
,
00001000
00000010
00001000
00000001
,
00001000
00000001
00001001
00000001
,
00000100
00001000
00010000
01000000
,
11000000
00110000
00000000
10000000
,
01000000
00000000
00010000
00002000
00000000
00000000
00013000
00000000
,
01000000
00100000
00010000
00011000
,
00001000
00000100
00000010
00000100
,
00000110
00001001
00001000
00000001
,
00000010
00001000
00022000
00033000
,
02002000
03003000
00110000
01010000
,
10100000
10010000
20000000
31000000
,
00010000
00101000
00001000
00000100
,
00000010
00000110
00000001
00000100
,
00001000
00011000
00010000
00001000
,
00020000
01030000
10000000
00010000
,
10000000
00010000
02010000
03010000
,
02100000
03100000
10000000
01000000
,
00010000
00001000
00021000
00031000
,
00000100
00000010
00001000
00000001
,
00001001
00001001
00000000
00000001
,
00000100
00000000
00001000
00020000
00000000
00000000
00031000
00000000
,
00000100
00000010
00001100
00000100
,
00010000
01000000
10000000
00010000
,
01100000
10010000
00000000
10000000
,
00010000
00000000
01000000
00000000
00020000
00000000
10030000
01000000
,
00200000
00000000
00310000
00000000
02000000
00000000
03010000
01000000
,
00020000
00000000
10030000
00000000
02000000
00000000
03010000
00001000
,
00020000
00031000
00000110
00001001
,
00002200
00000000
00000000
00000000
,
00000000
00000000
00003300
00000000
,
00011000
00000000
00000000
00000000
;
