#TITLE:サヤエンドウ;
#SUBTITLE:(ONE PIECE Movie 7 Theme);
#ARTIST:NewS;
#TITLETRANSLIT:Sayaendou;
#SUBTITLETRANSLIT:;
#ARTISTTRANSLIT:;
#CREDIT:348;
#BANNER:Sayaendou Banner.png;
#BACKGROUND:Sayaendou Background.png;
#LYRICSPATH:Sayaendou.lrc;
#CDTITLE:;
#MUSIC:Sayaendou.mp3;
#OFFSET:-0.807;
#SAMPLESTART:41.600;
#SAMPLELENGTH:15.000;
#SELECTABLE:YES;
#DISPLAYBPM:50.000:200.000;
#BPMS:0.000=199.924,96.000=49.981,104.000=49.661,104.500=67.891,105.000=91.361,105.500=113.851,106.000=139.621,106.500=151.021,107.000=164.441,107.500=180.491,108.000=199.924;
#STOPS:;
#BGCHANGES:;

//---------------dance-single - ----------------
#NOTES:
     dance-single:
     :
     Beginner:
     1:
     0.103,0.142,0.010,0.000,0.000:
0000
0000
0000
0000
,
0000
0000
0000
0000
,
0000
0000
0000
0000
,
0000
0000
0000
0000
,
1000
0000
0000
0000
,
0000
0000
0000
0000
,
0001
0000
0000
0000
,
0000
0000
0000
0000
,
1000
0000
0000
0000
,
1000
0000
0000
0000
,
0001
0000
0000
0000
,
0001
0000
0000
0000
,
0100
0000
0000
0000
,
0100
0000
0000
0000
,
0010
0000
0000
0000
,
0010
0000
0000
0000
,
0100
0000
0100
0000
,
0000
0000
0000
0000
,
0010
0000
0010
0000
,
0000
0000
0000
0000
,
1000
0000
1000
0000
,
0000
0000
0000
0000
,
0001
0000
0001
0000
,
0000
0000
0000
0000
,
0100
0000
0000
0000
,
0001
0000
1000
0000
,
0010
0000
0000
0000
,
1000
0000
0000
0000
,
0000
0000
0000
0000
,
0010
0000
0010
0000
,
0010
0000
0000
0000
,
0100
0000
0000
0000
,
0000
0000
0000
0000
,
0001
0000
0001
0000
,
0001
0000
0000
0000
,
0001
0000
0000
0000
,
0000
0000
0000
0000
,
0010
0000
0010
0000
,
0010
0000
0000
0000
,
0100
0000
0000
0000
,
0000
0000
0000
0000
,
1000
0000
1000
0000
,
1000
0000
0000
0000
,
0000
0000
0010
0000
,
0000
0000
0010
0000
,
0000
0000
1000
0000
,
0000
0000
1000
0000
,
0000
0000
0001
0000
,
0000
0000
0001
0000
,
0000
0000
0100
0000
,
0000
0000
0100
0000
,
0010
0000
0000
0000
,
0010
0000
0000
0000
,
0010
0000
0010
0000
,
0010
0000
0000
0000
,
0100
0000
0000
0000
,
0100
0000
0000
0000
,
0100
0000
0100
0000
,
0100
0000
0000
0000
,
0001
0000
0000
0000
,
0000
0000
0000
0000
,
1000
0000
0000
0000
,
0000
0000
0000
0000
,
0001
0001
0000
0000
,
1000
0000
0000
0000
,
0010
0010
0000
0000
,
0100
0000
0000
0000
,
0001
0000
1000
0000
,
0010
0000
0100
0000
,
1001
0000
0000
0000
;

//---------------dance-single - ----------------
#NOTES:
     dance-single:
     :
     Easy:
     3:
     0.248,0.323,0.093,0.175,0.000:
0000
0000
0000
0000
,
0000
0000
0000
0000
,
0000
0000
0000
0000
,
0000
0000
0000
0000
,
1000
0000
1000
0000
,
0000
0000
1000
0000
,
0001
0000
0001
0000
,
0000
0000
0001
0000
,
1000
0000
0100
0000
,
0010
0000
0001
0000
,
1000
0000
0001
0000
,
1000
1000
0010
0000
,
0100
0000
0001
0000
,
1000
0000
0010
0000
,
0100
0000
0010
0000
,
0100
0100
0001
0000
,
1000
0000
0100
0000
,
1000
0000
0000
0001
,
0001
0000
0010
0000
,
0001
0000
0000
0100
,
0100
0000
0000
0010
,
0010
0000
0000
1000
,
0001
0000
0010
0000
,
0100
0000
1000
0000
,
0002
0003
2000
3000
,
0020
0030
0200
0300
,
0002
0000
0000
0003
,
1000
1000
0001
0001
,
0000
0100
0010
0000
,
1000
0000
1010
0000
,
0001
0000
0101
0000
,
0100
0100
0010
0010
,
0000
1000
0001
0000
,
0100
0000
0011
0000
,
0010
0000
1100
0000
,
0001
0010
0010
0001
,
0000
2000
3001
0000
,
1000
0001
1000
0000
,
0010
0100
0010
0000
,
1000
0100
0100
1000
,
0000
0020
0130
0000
,
0001
0010
0100
2000
,
0002
0000
3003
0000
,
0001
0000
1000
0000
,
1000
0000
0001
0000
,
1000
0010
0100
0000
,
0100
0010
1000
0000
,
0010
0000
0100
0000
,
0100
0000
0010
0000
,
0100
0001
0010
0000
,
0010
0001
0100
0000
,
0002
0000
0013
0000
,
0010
0000
0011
0000
,
0200
0000
1300
0000
,
1000
0000
1100
0000
,
0001
0000
0100
0000
,
0010
1000
0001
0000
,
1000
0001
0100
0000
,
0010
0000
1000
0000
,
2000
0000
0000
3000
,
0020
0000
0000
0030
,
0200
0000
0000
0300
,
0002
0000
0000
0003
,
1000
0000
0100
0000
,
0010
0000
0001
0000
,
1001
0000
0000
0100
,
0010
0000
0100
0000
,
0110
0000
0000
0001
,
1000
0000
0001
0000
,
2002
0000
0000
3003
;

//---------------dance-single - ----------------
#NOTES:
     dance-single:
     :
     Medium:
     5:
     0.347,0.466,0.237,0.165,0.000: // measure 1
0000
0000
0000
0000
,  // measure 2
0000
0000
0000
0000
,  // measure 3
0000
0000
0000
0000
,  // measure 4
0000
0000
0000
0000
,  // measure 5
1000
0100
0010
0002
,  // measure 6
0000
1000
1003
0000
,  // measure 7
0010
1000
0001
0200
,  // measure 8
0000
0010
0310
0000
,  // measure 9
1000
0001
0000
0100
,  // measure 10
0010
0100
0000
0001
,  // measure 11
1000
0000
0110
0000
,  // measure 12
0001
1000
1001
0000
,  // measure 13
0001
0000
0001
0000
,  // measure 14
1000
0000
1000
0000
,  // measure 15
0010
0010
0100
0100
,  // measure 16
0010
0000
0110
0000
,  // measure 17
2000
0000
3100
0000
,  // measure 18
1100
0000
0001
0010
,  // measure 19
0002
0000
0013
0001
,  // measure 20
0010
0000
0011
0000
,  // measure 21
1000
0100
0001
0000
,  // measure 22
1000
0010
0001
0000
,  // measure 23
2000
3001
0002
1003
,  // measure 24
0110
0000
0110
0000
,  // measure 25
1000
0100
0010
0000
0001
0010
0100
0000
,  // measure 26
1000
0010
0100
0001
2000
0000
3000
0000
,  // measure 27
0020
0000
0000
0030
,  // measure 28
0100
0001
0100
0110
,  // measure 29
0001
0000
0000
1000
0000
0000
0001
0000
,  // measure 30
1000
1000
0100
0001
,  // measure 31
0100
1000
0001
0001
,  // measure 32
0010
0001
0010
0110
,  // measure 33
0100
0000
0000
0010
0000
0000
0100
0000
,  // measure 34
1000
0100
1000
0010
,  // measure 35
1000
0001
0100
0010
,  // measure 36
1000
0010
1000
1001
,  // measure 37
0010
0000
0000
0100
0000
0000
0010
0000
,  // measure 38
0001
0010
0010
0001
,  // measure 39
0001
0100
1000
0010
,  // measure 40
0001
0010
0001
1001
,  // measure 41
1000
0000
0000
0001
0000
0000
1000
0000
,  // measure 42
0010
0000
0100
0000
0001
1000
0001
0000
,  // measure 43
0220
0000
0000
0330
,  // measure 44
1000
1000
0000
0010
,  // measure 45
0010
0010
0000
0100
,  // measure 46
0100
0000
0001
0000
,  // measure 47
1000
0000
0010
0000
,  // measure 48
0100
0100
0000
0001
,  // measure 49
0001
0001
0000
0010
,  // measure 50
0010
0000
0100
0000
,  // measure 51
1000
0001
1000
0000
,  // measure 52
0002
0010
0100
1003
,  // measure 53
2000
0100
0010
3001
,  // measure 54
1100
0000
0000
0001
,  // measure 55
0101
0000
0000
1000
,  // measure 56
0001
0000
1001
0000
,  // measure 57
0001
0100
0001
0000
,  // measure 58
1000
0010
1000
0001
,  // measure 59
1000
0000
0110
0000
,  // measure 60
1001
0000
0000
0200
0000
0000
0310
0000
,  // measure 61
0000
1000
0001
0000
,  // measure 62
0110
0000
0000
0002
0000
0000
1003
0000
,  // measure 63
0000
0100
0010
0000
,  // measure 64
0001
0000
0001
0000
,  // measure 65
0001
1000
0000
1000
,  // measure 66
0001
0001
1000
1000
,  // measure 67
0000
0011
1010
0000
,  // measure 68
0010
0010
0100
0100
,  // measure 69
0000
0101
1100
0000
,  // measure 70
2002
0000
0000
3003
;

//---------------dance-single - ----------------
#NOTES:
     dance-single:
     :
     Hard:
     7:
     0.533,0.717,0.545,0.257,0.021: // measure 1
0000
0000
0000
0000
,  // measure 2
0000
0000
0000
0000
,  // measure 3
0000
0000
0000
0000
,  // measure 4
0000
0000
0000
0000
,  // measure 5
1001
0000
0010
0100
0001
0000
2000
0000
,  // measure 6
0000
0000
3001
1000
0100
0000
1010
0000
,  // measure 7
0110
0000
0001
0010
0100
0000
0020
0000
,  // measure 8
0000
0000
0130
1000
0001
0000
0011
0000
,  // measure 9
1000
0000
0001
0010
0001
0000
1100
0000
,  // measure 10
0010
0000
0100
0001
0100
0000
0011
0000
,  // measure 11
1000
0000
0001
0100
0001
0000
0110
0000
,  // measure 12
1010
0101
2002
3003
,  // measure 13
0010
0000
1000
0100
1000
0100
1000
0000
,  // measure 14
0001
0010
0001
1000
,  // measure 15
0002
0103
0200
0310
,  // measure 16
0020
0000
0000
0000
1030
0001
1000
0000
,  // measure 17
0001
2000
0000
3001
,  // measure 18
0100
0001
0020
0000
0000
0000
0031
0000
,  // measure 19
1000
0010
0200
0000
0000
0000
0010
0000
,  // measure 20
0302
0010
0100
1003
,  // measure 21
1000
0001
1010
0000
,  // measure 22
0100
0010
0101
0000
,  // measure 23
1000
0000
0100
0000
0010
0001
0010
0000
,  // measure 24
0100
1000
0100
0000
0010
0000
0001
0000
,  // measure 25
1000
0000
0000
0001
0010
0000
0001
0000
0100
0000
0000
0010
0100
0000
0001
0000
,  // measure 26
1000
0000
0001
0010
1000
0000
0001
0100
1000
0000
0100
0000
0010
0000
0001
0000
,  // measure 27
0220
0000
0000
0330
,  // measure 28
1000
1010
0001
0011
,  // measure 29
1000
0000
0010
0100
0000
0100
0001
0000
,  // measure 30
1000
1000
0100
0001
,  // measure 31
1000
0000
0010
0002
0000
0000
1003
0000
,  // measure 32
0001
0101
1000
1100
,  // measure 33
0001
0000
1000
0100
0000
0010
0001
0000
,  // measure 34
2000
0000
3001
0000
0001
0010
0100
0000
,  // measure 35
0020
0000
0001
0031
,  // measure 36
0100
0101
0010
0011
,  // measure 37
1000
0000
0001
1000
0000
1000
0100
0000
,  // measure 38
1000
0000
0001
1000
0001
0000
0010
0000
,  // measure 39
0001
0000
0100
0020
0000
0000
1030
0000
,  // measure 40
0010
1010
0100
1100
,  // measure 41
0001
0000
0100
0001
0000
1000
0010
0000
,  // measure 42
1001
0000
0010
0100
0010
0000
0110
0000
,  // measure 43
2002
3003
0011
1100
,  // measure 44
0001
0000
0000
1000
0000
0000
1001
0000
,  // measure 45
0100
0000
0000
0010
0000
0000
0110
0000
,  // measure 46
0001
0100
1000
0100
,  // measure 47
0001
0010
0001
0100
0001
0000
1100
0000
,  // measure 48
0010
0000
0000
1000
0000
0000
0101
0000
,  // measure 49
0001
0000
0000
0100
0000
0000
1010
0000
,  // measure 50
0001
0000
0001
0000
1000
0100
0010
0000
,  // measure 51
0010
0100
1000
0000
0001
0000
0001
0000
,  // measure 52
2000
3010
0020
0130
,  // measure 53
0001
0010
0001
0000
0010
0000
0100
0000
,  // measure 54
0010
0100
1000
0000
0100
0000
1000
0000
,  // measure 55
0002
0103
0200
0310
,  // measure 56
0001
0000
0010
1000
0010
0000
0001
0000
,  // measure 57
0100
0000
0010
1000
0010
0000
0100
0000
,  // measure 58
0001
1100
0001
1010
,  // measure 59
1000
0101
1000
0011
,  // measure 60
1001
0000
0000
0110
0000
0000
1001
0000
,  // measure 61
0000
1010
0101
1001
,  // measure 62
0110
0000
0000
1001
0000
0000
0110
0000
,  // measure 63
0000
0011
1100
1001
,  // measure 64
0010
0000
0100
0000
0001
1000
0100
0000
,  // measure 65
0100
1000
0010
0000
0010
0100
0001
0000
,  // measure 66
1000
0110
0001
0110
,  // measure 67
1000
0001
1000
0000
0010
0100
0010
0000
,  // measure 68
0100
1001
0010
1001
,  // measure 69
0010
1000
0001
1000
0010
0000
0110
0000
,  // measure 70
2002
0000
0000
3003
;

//---------------dance-single - ----------------
#NOTES:
     dance-single:
     :
     Challenge:
     9:
     0.654,1.000,0.638,0.370,0.062: // measure 1
0000
0000
0000
0000
,  // measure 2
0000
0000
0000
0000
,  // measure 3
0000
0000
0000
0000
,  // measure 4
0000
0000
0000
0000
,  // measure 5
0011
0000
1000
0100
0010
0000
0210
0000
,  // measure 6
0000
0000
0301
0010
1000
0010
0001
0000
,  // measure 7
1100
0000
0010
0100
0001
0000
1002
0000
,  // measure 8
0000
0000
1003
0100
0001
0100
1000
0000
,  // measure 9
0001
0000
1000
0100
0010
0100
1000
0000
,  // measure 10
0010
0000
0100
0001
0010
0001
0100
0000
,  // measure 11
0010
0000
1000
0001
0100
0000
0001
1000
,  // measure 12
0100
1100
0202
0303
,  // measure 13
1000
0000
0001
0010
0100
0010
0001
0000
,  // measure 14
1000
0000
0001
0010
1000
0000
0001
0010
,  // measure 15
1000
0001
1000
0110
,  // measure 16
1000
0100
0001
0000
1000
0100
0001
0000
,  // measure 17
2000
3002
0203
0320
,  // measure 18
1030
0100
0010
0001
1000
0000
0101
0000
,  // measure 19
0020
0000
0130
0100
0002
0000
0103
0100
,  // measure 20
0001
0011
0101
1001
,  // measure 21
0010
1100
0010
0101
,  // measure 22
1000
0010
0100
0000
0100
0001
0010
0000
,  // measure 23
0010
0001
1000
0001
0010
0000
1001
0000
,  // measure 24
0001
1010
1000
0011
,  // measure 25
1000
0000
0000
0100
0000
0000
1000
0000
0002
0000
0000
0000
0010
0000
0010
0000
0013
0000
0000
0001
0000
0000
0010
0000
0200
0000
0000
0000
1000
0000
1000
0000
,  // measure 26
1300
0000
0000
0100
0000
0000
0001
0000
0100
0000
0000
1000
0000
0000
0001
0000
1100
0000
0000
0000
0101
0000
0000
0000
1000
0000
0100
0000
0010
0000
0001
0000
,  // measure 27
2002
0000
0000
0000
0000
0000
0000
3003
,  // measure 28
0011
1010
1100
0101
,  // measure 29
1000
0000
1000
0010
0000
0010
0100
0001
,  // measure 30
1000
0000
0001
0010
1000
0000
0010
0001
,  // measure 31
1000
0000
0002
2000
3003
0000
1001
0000
,  // measure 32
0011
1100
0101
1010
,  // measure 33
0001
0010
0001
0100
0000
0010
1000
0000
,  // measure 34
0002
0000
1003
0000
1000
1000
0100
0000
,  // measure 35
0010
0001
1000
0100
1000
0000
0110
0000
,  // measure 36
0101
1001
1100
1001
,  // measure 37
0010
0000
0010
0100
0000
0100
0001
1000
,  // measure 38
0100
1000
0100
0000
0010
0001
0010
0000
,  // measure 39
0001
0000
0200
0020
0330
0000
0110
0000
,  // measure 40
0011
0110
1100
0110
,  // measure 41
1000
0100
0010
0100
0000
1000
0001
0000
,  // measure 42
1000
0000
0010
0100
0001
0100
0010
0000
,  // measure 43
2002
0000
3003
1001
,  // measure 44
0110
0000
0001
1000
0100
1000
0001
0000
,  // measure 45
0110
0000
1000
0001
0100
0001
1000
0000
,  // measure 46
0020
0000
0230
0000
0301
0010
0010
0000
,  // measure 47
0001
0100
0010
1000
0002
0000
1003
0000
,  // measure 48
1001
0000
0010
0001
1000
0001
0010
0000
,  // measure 49
1001
0000
0100
1000
0001
1000
0100
0000
,  // measure 50
1000
0100
0010
0000
0001
0010
0100
0000
,  // measure 51
1000
0010
0001
1000
0100
0001
1000
0000
,  // measure 52
0002
0010
2003
0100
,  // measure 53
3020
1000
0230
0001
,  // measure 54
0301
0001
0010
0000
0100
0100
1000
0000
,  // measure 55
0001
1000
0100
0010
0001
0000
1001
0000
,  // measure 56
2000
0000
0100
0000
3010
0100
0001
0000
,  // measure 57
0002
0000
0100
0000
0013
0100
1000
0000
,  // measure 58
0002
0000
1003
0000
0100
0001
0100
1000
,  // measure 59
0100
0100
0100
1001
,  // measure 60
0110
0000
0001
0010
0000
0100
1000
0000
,  // measure 61
0000
0001
1000
0000
0011
0000
1010
0000
,  // measure 62
1001
0000
0010
0001
0000
1000
0100
0000
,  // measure 63
0000
0010
0100
0000
1100
0000
0101
0000
,  // measure 64
2000
0000
3001
0100
2000
0000
3100
0001
,  // measure 65
1000
0010
2000
0000
3001
0000
1001
0000
,  // measure 66
0011
0101
1010
1100
,  // measure 67
0010
1000
0001
0100
0001
1000
0010
0000
,  // measure 68
0110
1001
1001
0110
,  // measure 69
1000
0100
0010
0001
0100
0010
1000
0000
,  // measure 70
2002
0000
0000
3003
;

//---------------dance-single - ----------------
#NOTES:
     dance-single:
     :
     Edit:
     9:
     0.732,1.000,0.473,0.278,0.103: // measure 1
0000
0000
0000
0000
,  // measure 2
0000
0000
0000
0000
,  // measure 3
0000
0000
0000
0000
,  // measure 4
0000
0000
0000
0000
,  // measure 5
1000
0100
0010
0001
1000
0000
1001
0000
,  // measure 6
0010
0001
0200
0000
0310
1000
0200
0000
,  // measure 7
1300
0001
0100
0010
1000
0000
0110
0000
,  // measure 8
0001
0010
0100
1000
0000
0100
0010
0001
,  // measure 9
1000
0100
0001
0100
2000
0000
3001
0000
,  // measure 10
0010
0001
1000
0001
0020
0000
0130
0000
,  // measure 11
1000
0100
0001
0000
0001
0100
1000
0000
,  // measure 12
0010
0100
0001
0100
1000
0100
0010
0000
,  // measure 13
0100
0001
1000
0001
0200
0000
0010
0000
,  // measure 14
0301
0010
1000
0010
0002
0000
1000
0000
,  // measure 15
0013
0001
1000
0100
0001
0100
1000
0001
,  // measure 16
0010
1001
0220
0330
,  // measure 17
1000
0000
0001
0010
0001
0100
0002
0000
,  // measure 18
0100
0000
0103
0010
1000
0001
2000
0000
,  // measure 19
0010
0000
3010
0100
0001
1000
0100
0010
,  // measure 20
0001
1000
0001
0000
1100
0000
0101
0000
,  // measure 21
0011
1010
0110
1001
,  // measure 22
0001
0010
0010
0000
0100
0100
1000
0000
,  // measure 23
0001
0010
0001
0100
0001
1000
0001
0100
,  // measure 24
0020
1000
0230
0001
,  // measure 25
0310
0000
1000
0001
0000
0000
0100
0000
0001
0000
0100
0000
0010
0000
1000
0000
0001
0000
1000
0100
0000
0000
0010
0000
0001
0000
0100
0000
1000
0000
0100
0000
,  // measure 26
0001
0000
0000
1000
0000
0000
1001
0000
0010
0000
0000
0100
0000
0000
0110
0000
1000
0000
0010
0000
0100
0000
0001
0000
1000
0100
1000
0000
0001
0010
0001
0000
,  // measure 27
2002
0000
0000
0000
0000
0000
0000
3003
,  // measure 28
0010
0001
0011
0000
1000
0100
1100
0000
,  // measure 29
0001
0010
0100
1000
0000
1000
0001
0000
,  // measure 30
0110
0000
1000
0001
0100
0001
1000
0000
,  // measure 31
0001
0000
0200
0010
0000
0310
0100
0000
,  // measure 32
0010
1000
1010
0000
0001
0100
0101
0000
,  // measure 33
1000
0100
0001
0100
0000
0010
0001
0010
,  // measure 34
0200
0000
0310
0001
1000
0100
0010
0001
,  // measure 35
1000
0010
0100
0001
2000
0000
3001
0000
,  // measure 36
0100
0001
1010
0000
1000
0010
0101
0000
,  // measure 37
1000
0010
1000
0100
0000
0010
0001
0000
,  // measure 38
1001
0000
1000
0100
0010
0100
0001
0100
,  // measure 39
1000
0000
2000
0001
0000
3001
1000
0000
,  // measure 40
0001
0010
1100
0000
1000
0100
0011
0000
,  // measure 41
1000
0001
0100
0010
0000
0010
0100
0001
,  // measure 42
1000
0100
0001
1000
0010
0001
1000
0000
,  // measure 43
2002
0000
0000
0000
0000
0000
0000
3000
,  // measure 44
0000
0013
0001
1000
0100
1000
0001
0020
,  // measure 45
0000
0031
0100
1000
0010
1000
0100
0002
,  // measure 46
0000
1003
0100
0001
1000
0010
0001
1000
,  // measure 47
0011
0000
1100
0000
0001
1000
0010
0200
,  // measure 48
0000
0301
0010
0100
0001
0100
0010
0002
,  // measure 49
0000
1003
0001
0100
0010
0100
0001
2000
,  // measure 50
0000
3001
0010
0001
0010
0100
0010
0100
,  // measure 51
1000
0011
1010
1001
,  // measure 52
0001
0010
1000
0010
0001
0100
1000
0100
,  // measure 53
0001
0010
0100
0010
0001
1000
0100
1000
,  // measure 54
0001
1000
0100
0010
0100
1000
0001
1000
,  // measure 55
0010
0100
0010
0100
0001
0010
0100
1000
,  // measure 56
0001
1000
0001
0100
0001
0100
0010
1000
,  // measure 57
0100
0001
0100
1000
0010
0100
0010
1000
,  // measure 58
0010
0100
0010
0001
0010
0100
0001
1000
,  // measure 59
0001
0100
1000
0100
1000
0100
0001
1000
,  // measure 60
1001
0000
0001
0011
0000
1000
1100
0000
,  // measure 61
0000
0001
1000
0010
0110
0000
1001
0000
,  // measure 62
0110
0000
0100
0101
0000
0010
1010
0000
,  // measure 63
0000
0001
0010
0100
1001
0000
0110
0000
,  // measure 64
1000
0100
0001
0100
1000
0010
0001
0010
,  // measure 65
1000
0100
0001
0100
0001
0100
1000
0001
,  // measure 66
1100
0000
0001
1000
1001
0000
0011
0000
,  // measure 67
1000
0100
0010
0001
1000
0100
0010
0001
,  // measure 68
1010
0000
0010
0100
0110
0000
0101
0000
,  // measure 69
0010
1000
0001
0100
0001
1000
0010
0100
,  // measure 70
2002
0000
0000
3003
;
