#TITLE:New Castle Legions;
#SUBTITLE:;
#ARTIST:Dirty Androids;
#TITLETRANSLIT:;
#SUBTITLETRANSLIT:;
#ARTISTTRANSLIT:;
#CREDIT:;
#BANNER:;
#BACKGROUND:;
#LYRICSPATH:;
#CDTITLE:;
#MUSIC:New Castle Legions.mp3;
#OFFSET:-8.050;
#SAMPLESTART:48.030;
#SAMPLELENGTH:12.800;
#SELECTABLE:YES;
#DISPLAYBPM:120.000:180.000;
#BPMS:0.000=120.000,80.000=150.000,140.000=120.000,144.000=170.000,176.000=180.000;
#STOPS:;
#BGCHANGES:;

//---------------dance-single - ----------------
#NOTES:
     dance-single:
     :
     Hard:
     9:
     0.658,0.604,0.339,0.110,0.330:
1000
0001
1000
0000
0001
0000
0100
0000
0010
0000
1000
0001
0000
0000
0001
0100
,
0000
0010
1000
0000
0001
0000
0010
0000
1000
0000
0010
0001
0000
0000
1000
0001
,
0000
1000
0001
0000
1000
0000
0010
0000
0100
0001
0010
0000
0001
0010
0100
1000
,
0000
1000
0001
0000
0100
0000
0010
0000
2002
0000
0000
0000
3003
0000
0000
0000
,
0101
0000
0001
0000
1000
0000
0000
1100
0000
0000
0100
0000
0010
0000
0001
0000
,
0100
0000
0010
0000
1000
0000
0000
1001
0000
0000
0001
0000
0100
0000
0000
0000
,
0110
0000
0010
0000
1000
0000
0000
1100
0000
0000
0010
0000
0001
0000
1000
0000
,
1000
0000
0100
0000
0001
0000
0000
0101
0000
0000
0100
0000
1000
0000
0001
0000
,
1001
0000
0000
0000
0100
0000
0000
0010
0000
0000
0001
0000
1000
0001
1000
0000
,
0001
0000
0100
0000
1000
0000
0000
1100
0000
0000
0100
0000
0001
0000
1000
0000
,
1001
0000
0000
0000
0001
0000
0000
0011
0000
0000
0010
0000
0001
0000
1000
0000
,
1001
0000
0000
0000
0110
0000
0000
0000
1000
0001
1000
0001
0000
0100
0010
0000
,
1001
0000
1000
0000
0100
0000
0010
0001
0000
0001
1000
0000
0001
0000
0100
0000
,
1000
0000
0100
0000
0010
0000
1000
0010
0000
0010
0100
0000
0001
0010
0001
0000
,
1000
0000
0100
0000
0001
0000
1000
0010
0000
0010
0001
0000
0100
0000
0010
0000
,
1000
0000
0001
0000
0100
0000
0001
0100
0000
0010
1000
0000
0100
0010
0001
1000
,
0001
0000
0000
1000
0100
0000
0010
0001
0000
0001
1000
0000
1001
0000
0000
0000
,
0001
0000
0100
0000
1000
0000
0100
0001
0000
0001
1000
0000
1000
0001
0100
0000
,
0120
0000
0000
0000
2030
0000
0000
0001
3002
0000
0000
0000
0023
0000
0000
0100
,
0130
0000
0100
1000
0000
1000
0001
0000
2000
0000
0000
0001
0000
0000
3001
0000
,
0100
0000
0000
0100
0001
0000
0000
0001
1000
0000
0100
0000
0001
0000
0100
0000
,
1000
0000
0000
1000
0001
0000
0000
0001
0010
0000
0001
0000
1000
0100
1000
0000
,
0001
0000
0000
0001
0100
0000
0000
0100
0010
0000
1000
0000
0001
0000
1000
0000
,
0100
0000
0000
0100
1000
0000
0000
1000
0001
0000
1000
0000
0001
0100
0001
0100
,
0010
0000
0000
1000
0010
0000
0000
0100
0001
0000
1000
0000
0100
0000
0010
0000
,
0001
0000
0000
1000
0100
0000
0000
0010
0001
0000
1000
0000
0001
1000
0001
0000
,
0100
0000
1000
0000
0100
0000
0000
0100
0001
0000
1000
0000
0001
0000
0000
0000
,
1000
0000
0001
0010
0000
0010
0001
1000
0000
1000
0001
0000
1001
0000
0000
0000
,
1001
0000
0110
0000
0010
1000
0100
0010
,
0100
0000
0010
0000
0001
0000
1000
0001
0000
0001
1000
0000
0001
0000
0100
0000
,
0110
0000
0000
0000
1010
0000
0000
1000
0100
0000
0010
0000
0001
0000
0100
0000
,
1000
0000
0100
0000
0001
0000
1000
0001
0000
0001
1000
0000
0001
0010
0100
0000
,
0110
0000
0000
0000
0011
0000
0000
0001
1000
0000
0010
0000
0001
0000
0010
0000
,
1000
0000
0100
0000
0010
0000
0001
1000
0000
1000
0001
0000
0100
0001
0100
0000
,
2010
0000
0000
0000
3001
0000
0000
0002
0010
0000
0000
0000
1003
0000
0000
2000
,
0001
0001
0002
3003
,
1000
0100
0010
0100
1000
0001
0100
0000
,
0001
0000
1000
0010
0000
0010
0100
0000
,
0001
0010
0100
0010
0001
1000
0001
0000
,
1000
0000
0010
0100
0000
0010
0100
0000
,
0010
1000
0100
0000
0010
0001
0100
0000
,
0001
1000
0001
0100
0000
0010
0100
0001
,
0010
0100
0010
0001
1000
0001
0100
0000
,
1010
0000
1000
0001
0000
1000
1001
0000
,
1100
0000
1100
0000
0010
0001
0100
0001
,
1000
0000
1001
0000
0001
0100
1000
0100
,
0010
0000
0110
0000
0100
0001
0010
0100
,
1000
0001
0100
0010
1000
0001
1001
0000
,
1001
0000
0110
0000
0100
0010
1000
0001
,
1000
0000
1100
0000
0100
0010
0001
0010
,
0001
1000
0100
0010
0001
1000
0001
2000
,
0002
0000
0000
3003
,
1001
0000
0001
0100
0010
1000
0100
0010
,
0100
1000
0001
0100
0010
1000
0100
0010
,
0001
0000
1000
0100
0001
0100
1000
0010
,
0100
0001
1000
0010
1000
0001
0100
0000
,
1001
0000
1000
0100
0010
0001
0100
1000
,
0100
0001
0010
0010
0100
1000
0001
0000
,
1000
0010
0100
0010
1000
0001
0010
0100
,
0010
0000
0000
0001
0000
0000
0011
0000
0000
0000
1001
0000
0000
0000
1000
0000
,
0100
0010
0100
1000
0100
0010
0001
0010
,
0100
0010
0001
1000
0001
0100
0010
0000
,
0001
0100
0001
0000
1000
0100
1000
0000
,
0001
1000
0010
0100
0001
0010
0110
0000
,
0100
0000
0100
1000
0000
1000
0001
0000
,
0001
0100
0000
0100
0010
1000
0001
1000
,
1100
0000
0100
0010
0000
0010
0001
0000
,
1000
0100
0010
0001
0100
0010
0100
0100
;

//---------------dance-single - ----------------
#NOTES:
     dance-single:
     :
     Medium:
     7:
     0.494,0.489,0.449,0.161,0.059:
1000
0100
1000
0000
0001
0000
0100
0000
,
0001
1000
0001
0000
1000
0100
1000
0000
,
0100
0010
0100
0000
0010
0000
0001
0000
,
1000
0010
0100
0000
0202
0000
0303
0000
,
1001
0000
0000
0000
0001
0000
0000
1000
0000
0000
0001
0000
0100
0000
0000
0000
,
0010
0000
0000
0000
0100
0000
0000
0010
0000
0000
0100
0000
0001
0000
0000
0000
,
0010
0000
0000
0000
0001
0000
0000
1000
0000
0000
0100
0000
1000
0000
0000
0000
,
0001
0000
0000
0000
1000
0000
0000
0001
0000
0000
0100
0000
0010
0000
0000
0000
,
0110
0000
0000
0000
0100
0000
0000
0100
0000
0000
0100
0000
0001
0000
0000
0000
,
1000
0000
0001
0000
1000
0000
0000
1000
0000
0000
1000
0000
0001
0000
0000
0000
,
0010
0000
0000
0000
0001
0000
0000
0001
0000
0000
0001
0000
1000
0000
0000
0000
,
0110
1001
0220
0330
,
1010
0000
1000
0100
1000
0100
1000
0000
,
0001
0000
0010
0001
0010
0001
0010
0000
,
0001
0000
0100
0001
0100
0010
1000
0000
,
0010
0000
0100
0010
0100
0001
0010
0000
,
0011
0000
0001
0000
1000
0010
0100
0000
,
0001
0000
0010
0001
1000
0100
0010
0000
,
0012
2003
3020
0130
,
2001
0000
0000
0000
0001
0000
0000
0002
0000
0000
0000
0000
3003
0000
0000
0000
,
1001
0000
0101
0000
1000
0010
1000
0000
,
0001
0010
0001
0000
1000
0100
1000
0000
,
0011
0000
1100
0000
0010
0001
0100
0000
,
0010
1000
0100
0000
0010
0100
0010
0000
,
0011
0000
1001
0000
0001
0100
0001
0000
,
1000
0010
0100
0001
,
0010
0000
0100
0000
0010
0001
1000
0000
,
1000
0100
0010
0002
2000
0000
3003
0000
,
1000
0000
0000
0000
0001
0000
0000
1000
0000
0000
0001
0000
0100
0000
0000
0000
,
0010
0000
0000
0000
0100
0000
0000
0001
0000
0000
0100
0000
0001
0000
1000
0000
,
0100
0000
0000
0000
0010
0000
0000
0001
0000
0000
0010
0000
0001
0000
0000
0000
,
1000
0000
0000
0000
0001
0000
0000
0100
0000
0000
0010
0000
1000
0000
0000
0000
,
1001
0000
0000
0000
0101
0000
0000
0001
0000
0000
1000
0000
0001
0000
0000
0000
,
1000
0100
1000
0000
0001
0010
0001
0000
,
2100
3100
0021
0031
,
1002
1003
0220
0330
,
1000
0000
0010
0000
0100
0001
0100
0000
,
0001
0000
0010
0001
0000
0001
1000
0000
,
0001
0000
1000
0000
0100
0010
0100
0000
,
0010
0000
0001
1000
0000
1000
0001
0000
,
0110
0000
0100
0000
0010
1000
0100
0000
,
0010
0000
0100
0010
0000
0010
0001
0000
,
1000
0001
1000
0000
0001
0100
0001
0000
,
1000
0000
0010
1000
0000
1000
0001
0000
,
1001
1001
1001
1001
,
0001
0100
0001
0000
1000
0100
1000
0000
,
0110
0110
0110
0110
,
0010
0001
0100
0000
0010
1000
0100
0000
,
0011
0011
1100
1100
,
1000
0001
1000
0000
0001
0100
0001
0000
,
1010
1010
0101
0101
,
0001
1000
0001
2000
0002
0000
3003
0000
,
1001
0000
0001
0100
0000
0100
0001
0000
,
1000
0000
0100
1000
0000
1000
0100
0000
,
0010
0000
0100
0010
0000
0010
0001
0000
,
1000
0000
0010
0100
0000
0100
0001
1000
,
0100
0000
0010
0001
0000
0001
0010
0000
,
0100
0000
1000
0001
0000
0001
1000
0000
,
0001
0000
0100
0010
0000
0010
0100
0000
,
0001
0000
0000
1000
0000
0000
0002
0000
0000
0000
1003
0000
0000
0000
0000
0000
,
1001
0000
0101
0000
0100
0001
0100
0000
,
0010
0000
1000
0000
0100
1000
0100
0000
,
0110
0010
0011
0001
,
1001
1000
1010
0010
,
0110
0000
0000
1010
0000
0000
1001
0000
,
0000
0011
0000
0000
0110
0000
1001
0000
,
0110
0000
0010
1000
0000
1000
0001
0000
,
1000
0000
0100
0000
0010
0001
0010
0010
;

//---------------dance-single - ----------------
#NOTES:
     dance-single:
     :
     Easy:
     4:
     0.296,0.288,0.136,0.102,0.000:
1000
0001
0100
0100
,
0100
0010
1000
1000
,
1000
0001
0010
0010
,
0010
0002
0003
0000
,
1001
0000
0001
0100
,
0001
0000
1000
0100
,
1000
0100
0001
0100
,
1000
0010
0100
0001
,
0010
0000
0001
0010
,
0001
0000
1000
0010
,
1000
0010
0100
0001
,
0010
0100
0110
0000
,
1001
0000
1000
0001
,
1000
0000
0001
0100
,
0001
0000
1000
0010
,
1000
0001
0010
0100
,
0010
0000
0001
1000
,
0100
0000
0010
0001
,
1001
0000
0110
0000
,
2002
0000
3003
0000
,
1001
0000
0001
0100
,
1000
0100
0001
0010
,
0100
0000
0010
0001
,
1000
0001
0100
0010
,
0100
0000
0010
0100
,
0001
1000
0100
0010
,
0001
0000
0010
0001
,
0200
0000
0000
0301
,
1001
0000
1000
0100
,
0010
0000
0100
0010
,
0001
0010
0001
0100
,
1000
0100
0001
1000
,
1001
0000
0001
0100
,
0001
1000
0100
0010
,
0110
0000
1001
0000
,
2002
0000
0000
3003
,
0001
0001
1000
1000
,
0100
0010
0100
0000
,
0010
0010
0001
0001
,
1000
0001
0100
0000
,
0010
1000
0100
0010
,
0100
0010
0001
0000
,
1000
0001
0100
0010
,
0110
0000
0010
1000
,
0001
0001
0001
0001
,
1000
0100
0010
0100
,
1000
1000
1000
1000
,
0010
0100
0001
0010
,
0100
0100
0100
0100
,
0010
0001
0100
0001
,
0010
0010
0010
0010
,
0220
0000
0000
0330
,
0010
0001
1000
0001
,
0100
0000
0010
0100
,
0010
1000
0100
0010
,
0100
0000
0010
0001
,
1000
0001
0100
1000
,
0100
0000
0010
0100
,
0001
0010
0001
0000
,
2002
0000
0000
3003
,
0001
0100
0010
1000
,
0010
0000
1000
0000
,
0001
0010
0001
1000
,
0100
0000
0010
0000
,
0001
0000
0000
0001
0000
0000
1000
0000
,
0000
1000
0000
0000
0001
0000
0100
0000
,
0001
0000
0000
0001
0000
0000
1000
0000
,
2002
0000
0000
0000
,
3003
0000
0000
0000
;

//---------------dance-single - ----------------
#NOTES:
     dance-single:
     :
     Beginner:
     2:
     0.148,0.170,0.102,0.000,0.000:
1000
0000
0001
0000
,
0100
0000
0010
0000
,
0100
0000
0001
0000
,
1000
0000
0000
0000
,
1001
0000
0001
0000
,
0100
0000
0010
0000
,
0100
0000
0000
0000
,
0010
0000
0000
0000
,
1000
0000
0001
0000
,
1000
0000
0100
0000
,
0010
0000
0000
0000
,
0100
0000
0000
0000
,
1001
0000
0001
0000
,
1000
0000
0100
0000
,
1000
0000
0000
0000
,
0001
0000
0000
0000
,
0100
0000
0001
0000
,
1000
0000
0100
0000
,
0010
0000
0000
0000
,
0100
0000
0000
0000
,
0010
0000
0001
0000
,
1000
0000
0001
0000
,
0100
0000
0010
0000
,
0100
0000
0000
0000
,
0010
0000
1000
0000
,
0010
0000
0100
0000
,
0001
0000
1000
0000
,
0001
0000
0000
0000
,
1000
0000
0100
0000
,
0010
0000
0001
0000
,
1000
0000
0010
0000
,
0100
0000
0001
0000
,
1000
0000
0001
0000
,
1000
0000
0001
0000
,
0100
0000
0010
0000
,
0110
0000
0000
0000
,
1001
0000
0000
0000
,
1000
0000
0001
0000
,
0100
0000
0000
0000
,
0010
0000
0100
0000
,
0001
0000
0000
0000
,
1000
0000
0001
0000
,
0010
0000
0000
0000
,
0100
0000
0010
0000
,
0001
0000
0001
0000
,
1000
0000
1000
0000
,
0010
0000
0010
0000
,
0100
0000
0100
0000
,
0010
0000
1000
0000
,
0001
0000
0100
0000
,
0001
0000
0010
0000
,
0001
0000
0000
0000
,
1001
0000
0000
0000
,
1000
0000
0100
0000
,
0010
0000
0100
0000
,
1000
0000
0000
0000
,
1001
0000
0000
0000
,
0001
0000
0100
0000
,
0010
0000
0100
0000
,
0001
0000
0000
0000
,
1001
0000
0000
0000
,
1000
0000
0100
0000
,
0010
0000
0001
0000
,
0100
0000
0000
0000
,
0110
0000
0000
0000
,
0110
0000
0000
0000
,
1001
0000
1001
0000
,
1001
0000
0000
0000
;

//---------------dance-double - ----------------
#NOTES:
     dance-double:
     :
     Easy:
     4:
     0.287,0.259,0.068,0.085,0.000: // measure 1
10000000
00010000
01000000
00010000
,  // measure 2
00100000
00001000
00010000
00000100
,  // measure 3
00001000
00000100
00000010
00000001
,  // measure 4
00001000
00000020
00000000
00000030
,  // measure 5
00000110
00000000
00000100
00000000
,  // measure 6
00000010
00001000
00000100
00010000
,  // measure 7
00001000
00000000
00010000
00000000
,  // measure 8
00001000
00000000
01000000
00001000
,  // measure 9
01000000
00000000
00100000
00000000
,  // measure 10
10000000
00100000
01000000
00010000
,  // measure 11
00100000
00000000
00001000
00000000
,  // measure 12
00010000
00000000
00000100
00001000
,  // measure 13
00000100
00000000
00000010
00000001
,  // measure 14
00000100
00000000
00000010
00001000
,  // measure 15
00000100
00000000
00001000
00000100
,  // measure 16
00010000
00001000
01000000
00100000
,  // measure 17
01100000
00000000
01000000
00100000
,  // measure 18
10000000
00000000
10000000
00010000
,  // measure 19
10010000
00000000
01100000
00000000
,  // measure 20
20020000
00000000
00000000
30030000
,  // measure 21
10000000
00010000
00100000
00001000
,  // measure 22
00010000
00000100
00001000
00000000
,  // measure 23
00001000
00000100
00000010
00000001
,  // measure 24
00000100
00000010
00000100
00000000
,  // measure 25
00000010
00001000
00000100
00010000
,  // measure 26
00001000
01000000
00010000
00000000
,  // measure 27
01000000
00100000
01000000
00000000
,  // measure 28
20020000
00000000
00000000
30030000
,  // measure 29
00010000
00100000
00001000
00010000
,  // measure 30
00001000
00010000
00000100
00000000
,  // measure 31
00000100
00000010
00000001
00000100
,  // measure 32
00000010
00001000
00000001
00000000
,  // measure 33
00001000
00000010
00001000
00000100
,  // measure 34
00010000
00001000
00010000
00000000
,  // measure 35
00001000
00100000
00001000
00010000
,  // measure 36
00022000
00000000
00000000
00033000
,  // measure 37
00010000
00001000
01000000
00100000
,  // measure 38
01000000
00010000
00100000
00000000
,  // measure 39
00100000
00010000
10000000
01000000
,  // measure 40
00100000
00010000
10000000
00100000
,  // measure 41
01000000
00001000
00010000
00001000
,  // measure 42
00000010
00000001
00000100
00000000
,  // measure 43
00000010
00001000
00000100
00010000
,  // measure 44
00001000
00100000
00001000
00000000
,  // measure 45
00001000
00001000
00001000
00001000
,  // measure 46
00010000
00010000
00010000
00010000
,  // measure 47
01000000
01000000
01000000
01000000
,  // measure 48
10000000
10000000
10000000
10000000
,  // measure 49
00100000
00100000
00100000
00100000
,  // measure 50
01000000
01000000
01000000
01000000
,  // measure 51
00010000
00010000
00010000
00010000
,  // measure 52
20020000
00000000
00000000
30030000
,  // measure 53
10000000
01000000
10000000
00010000
,  // measure 54
00100000
00001000
00010000
00000000
,  // measure 55
00001000
00010000
00000100
00000010
,  // measure 56
00000001
00000100
00000001
00000000
,  // measure 57
00001000
00000010
00001000
00000100
,  // measure 58
00010000
00001000
00100000
00000000
,  // measure 59
00100000
00001000
00010000
00000000
,  // measure 60
00010000
00001000
01000000
00000000
,  // measure 61
00100000
01000000
00010000
00100000
,  // measure 62
01000000
00100000
00010000
00000000
,  // measure 63
00100000
00001000
00100000
00001000
,  // measure 64
00010000
00000100
00001000
00000000
,  // measure 65
00000100
00000010
00000001
00000000
,  // measure 66
00000010
00000001
00000100
00000000
,  // measure 67
00000010
00001000
00000100
00010000
,  // measure 68
00002000
00000000
00000000
00000000
,  // measure 69
00003000
00000000
00000000
00000000
;

//---------------dance-double - ----------------
#NOTES:
     dance-double:
     :
     Medium:
     6:
     0.438,0.460,0.339,0.203,0.000: // measure 1
10000000
01000000
10000000
00000000
00010000
00000000
00100000
00000000
,  // measure 2
00001000
00100000
00001000
00000000
00010000
00000000
00000010
00000000
,  // measure 3
00000100
00000001
00000010
00000000
00000100
00000000
00001000
00000000
,  // measure 4
00000100
00010000
00001000
00020000
00000000
00000000
00030000
00000000
,  // measure 5
00011000
00000000
00001000
00000000
01000000
00001000
01000000
00000000
,  // measure 6
00100000
10000000
00100000
00000000
10000000
00000000
01000000
00000000
,  // measure 7
00020000
00001000
00032000
00000010
,  // measure 8
00003020
00000001
00000002
00000033
,  // measure 9
00001001
00000000
00000001
00000000
00000100
00000010
00001000
00000000
,  // measure 10
00000100
00010000
00001000
00000000
00010000
00001000
01000000
00000000
,  // measure 11
01010000
00000000
10010000
00000000
10000000
01000000
10000000
00000000
,  // measure 12
00110000
00101000
00022000
00033000
,  // measure 13
00010000
00000000
00000100
00000000
00000010
00000100
00001000
00000000
,  // measure 14
00000100
00000000
00000010
00000000
00000001
00000010
00000001
00000000
,  // measure 15
00001001
00000000
00001000
00000000
00000010
00000100
00000001
00000000
,  // measure 16
00002000
00003200
00020000
00030300
,  // measure 17
00011000
00000000
00001000
00000000
01000000
00010000
01000000
00000000
,  // measure 18
00100000
00000000
10000000
00000000
01000000
00100000
01000000
00000000
,  // measure 19
00110000
00100000
00101000
00001000
,  // measure 20
00011000
00010100
00000220
00000330
,  // measure 21
00000010
00000001
00001000
00000001
,  // measure 22
00000100
00000010
00000100
00000000
00000010
00001000
00000010
00000000
,  // measure 23
00001000
00000100
00010000
00001000
,  // measure 24
01000000
00001000
01000000
00000000
01000000
00100000
01000000
00000000
,  // measure 25
00100000
10000000
01000000
00010000
,  // measure 26
01000000
10000000
01000000
00000000
00100000
00010000
00100000
00000000
,  // measure 27
00001000
00010000
00000100
00000010
,  // measure 28
00002002
00000000
00000000
00003003
,  // measure 29
00000001
00000100
00001000
00000000
00001000
00000100
00000001
00000000
,  // measure 30
00001000
00000000
00000100
00000000
00010000
00001000
00010000
00000000
,  // measure 31
00001000
00100000
00010000
00000000
00010000
00100000
00001000
00000000
,  // measure 32
01000000
00000000
00100000
00000000
10000000
01000000
00100000
00000000
,  // measure 33
01000000
00100000
00010000
00000000
00010000
00100000
01000000
00000000
,  // measure 34
00100000
00000000
00001000
00000000
00010000
00001000
00010000
00000000
,  // measure 35
00020200
00030300
00000022
00000033
,  // measure 36
00002002
00000000
00000000
00003003
,  // measure 37
00000001
00000100
00000010
00001000
,  // measure 38
00000100
00000000
00010000
00001000
00000000
00001000
00010000
00000000
,  // measure 39
00001000
01000000
00100000
01000000
,  // measure 40
00010000
00000000
00100000
01000000
00000000
01000000
00100000
00000000
,  // measure 41
00010000
10000000
00010000
00100000
,  // measure 42
00001000
00000000
00010000
00000100
00000000
00000100
00010000
00000000
,  // measure 43
00000100
00000000
00000010
00000000
00000001
00001000
00000001
00000000
,  // measure 44
00001000
00000000
00000010
00001000
00000000
00001000
00000001
00000000
,  // measure 45
00001001
00001001
00001001
00001001
,  // measure 46
00000001
00001000
00000100
00010000
,  // measure 47
00011000
00011000
00011000
00011000
,  // measure 48
00001000
01000000
00010000
10000000
,  // measure 49
10010000
10010000
10010000
10010000
,  // measure 50
10000000
01000000
00100000
00010000
,  // measure 51
00110000
00110000
00101000
00101000
,  // measure 52
00022000
00000000
00000000
00033000
,  // measure 53
00001000
00000000
00100000
00000000
00010000
00100000
00010000
00000000
,  // measure 54
10000000
00000000
01000000
00000000
00100000
00010000
01000000
00000000
,  // measure 55
00100000
00000000
10000000
00000000
00010000
00100000
00010000
00000000
,  // measure 56
00100000
00001000
00100000
00000000
00001000
00010000
00001000
00000000
,  // measure 57
00011000
00000000
00010000
00000000
00000100
00000010
00000100
00000000
,  // measure 58
00000010
00000000
00000001
00000000
00001000
00000001
00001000
00000000
,  // measure 59
00000101
00000001
00001001
00001000
,  // measure 60
00002200
00000000
00000000
00003300
,  // measure 61
00010100
00000000
00000100
00000000
00010000
00001000
00010000
00000000
,  // measure 62
00001000
00000000
01000000
00000000
00010000
01000000
00010000
00000000
,  // measure 63
10000000
01000000
00100000
01000000
,  // measure 64
00100000
00010000
00100000
00000000
00001000
00100000
00001000
00000000
,  // measure 65
00100000
00000000
00000000
00001000
00000000
00000000
00010000
00000000
,  // measure 66
00000000
00000100
00000000
00000000
00000010
00000000
00000001
00000000
,  // measure 67
00001000
00000000
00000000
00000010
00000000
00000000
00000100
00000000
,  // measure 68
00000001
00000000
00001000
00000000
00000100
00010000
00001000
00010000
;

//---------------dance-double - ----------------
#NOTES:
     dance-double:
     :
     Hard:
     9:
     0.690,0.661,0.449,0.161,0.258:
00001000
01000000
00001000
00000000
01000000
00000000
00100000
00000000
10000000
00000000
01000000
00000000
00100000
00000000
00000000
00000000
,
00010000
00100000
00010000
00000000
00100000
00000000
00001000
00000000
00010000
00000000
00000100
00000000
00000010
00000000
00000000
00000000
,
00000001
00000100
00000010
00000000
00001000
00000000
00000100
00000000
00001000
00000100
00010000
00000000
00001000
00000000
01000000
00000000
,
00010000
01000000
00100000
00000000
01000000
00010000
10000000
00000000
00220000
00000000
00000000
00000000
00330000
00000000
00000000
00000000
,
00101000
00000000
00000000
00000000
00011000
00000000
00010000
00001000
00000000
00000000
00010000
00000000
00000100
00000000
00000010
00000000
,
00000002
00000000
00000000
00000000
00000103
00000000
00000100
00000010
00000000
00000010
00001000
00000000
00000100
00000000
00010000
00000000
,
00011000
00000000
00000000
00000000
00101000
00000000
00100000
00010000
00000000
00010000
10000000
00000000
00010000
00000000
00100000
00000000
,
02000000
00000000
00000000
00000000
03100000
00000000
00100000
00001000
00000000
00001000
00010000
00000000
00000100
00010000
00000100
00000000
,
00000110
00000000
00000000
00000000
00001100
00000000
00001000
00000200
00000000
00000000
00000310
00000000
00000001
00000000
00000100
00000000
,
00001000
00000000
00000000
00000000
00001100
00000000
00000100
00020000
00000000
00000000
00130000
00000000
01000000
00000000
10000000
00000000
,
00010000
00000000
00100000
00000000
00001000
00000000
00010000
00002000
00000000
00000000
00013000
00000000
00001000
00000000
00000010
00000000
,
00000011
00000000
00000000
00000000
00001100
00000000
00000000
00000000
00000100
00010000
00001000
00010000
00000000
00001000
01000000
00000000
,
01001000
00000000
00000000
00000000
01010000
00000000
01000000
00010000
00000000
00010000
10000000
00000000
01000000
00000000
00100000
00000000
,
01100000
00000000
00000000
00000000
00110000
00000000
00100000
00001000
00000000
00001000
00010000
00000000
00000100
00010000
00000100
00000000
,
00000110
00000000
00000100
00000000
00000110
00000000
00000000
00001100
00000000
00000000
00000100
00000000
00010000
00001000
00010000
00000000
,
00001000
00000000
00000100
00000000
00000001
00000000
00000010
00000100
00000000
00000100
00010000
00000000
00001000
01000000
00001000
01000000
,
00200000
00000000
00000000
20300000
00000000
00000000
30010000
00000000
10000000
00000000
01000000
00000000
00100000
00000000
00010000
00000000
,
00100000
00000000
00001000
00000000
00010000
00000000
00000100
00010000
00000000
00010000
00000100
00000000
00000010
00000000
00000001
00000000
,
00000102
00000000
00000000
00000000
00001003
00000000
00000000
00001000
00001200
00000000
00000000
00000000
00010300
00000000
00000000
00010000
,
00011000
00000000
00001000
00000000
01001000
00000000
00000000
01000000
02010000
00000000
00000000
10000000
00000000
00000000
03010000
00000000
,
10010000
00000000
00000000
00000000
11000000
00000000
00000000
01000000
00010000
00000000
00001000
00000000
00010000
00000000
00000100
00000000
,
00000010
00000000
00000001
00000000
00000100
00000000
00000010
00001000
00000000
00001000
00000010
00000000
00001000
00000000
00000100
00000000
,
00010100
00000000
00011000
00000000
00001000
00100000
00001000
00100000
,
00010000
00000000
01000000
00000000
00100000
00000000
10000000
00100000
00000000
01000000
00010000
00000000
00100000
00010000
10000000
00000000
,
10010000
00000000
00010000
00100000
00001000
00010000
00000100
00000010
,
00000100
00000000
00001000
00000000
00000001
00000000
00000100
00000001
00000000
00000001
00001000
00000000
00001100
00000000
00000000
00000000
,
00010100
00000000
00011000
00001000
00010000
00001000
01000000
00100000
,
10000000
00000000
10000000
00010000
00000000
00010000
00100000
00001000
00000000
00010000
00001000
00000000
00011000
00000000
00000000
00000000
,
00010100
00000000
00001100
00000000
00001000
00000100
00000001
00000100
,
00001000
00000000
00000100
00000000
00010000
00000000
00001000
01000000
00000000
01000000
00010000
00000000
10000000
00000000
01000000
00000000
,
11000000
00000000
00000000
00000000
00110000
00000000
00010000
00100000
00000000
00100000
00001000
00000000
00000010
00000000
00000001
00000000
,
00001000
00000000
00000010
00000000
00000100
00000000
00000001
00000100
00000000
00000010
00001000
00000000
00000100
00010000
00000100
00000000
,
00010100
00000000
00000000
00000000
00011000
00000000
00000000
00001000
01000000
00000000
00010000
00000000
01000000
00000000
00001000
00000000
,
00010000
00000000
00001000
00000000
00010000
00000000
00000100
00001000
00000000
00001000
00000001
00000000
00000100
00000000
00000010
00000000
,
00000120
00000100
00000130
00000000
00002010
00000010
00003010
00000000
,
00000210
00002300
00020000
00033000
,
00001000
01000000
00010000
10000000
01000000
00100000
01000000
00000000
,
00100000
00000000
00010000
10000000
00000000
10000000
00010000
00000000
,
01000000
00010000
00100000
00001000
00010000
00001000
00010000
00000000
,
00000100
00001000
00000001
00000100
00000000
00000010
00000100
00000010
,
00001000
00000100
00010000
00001000
01000000
00010000
10000000
00000000
,
00010000
00100000
00001000
00010000
00000000
00010000
00001000
00000000
,
00000010
00000001
00000100
00000000
00000010
00001000
00000100
00000000
,
00001000
00000100
00010000
00001000
01000000
00100000
01100000
00000000
,
01000000
00010000
01000000
00010000
00100000
01000000
00100000
00000000
,
00100000
00001000
00100000
00001000
00010000
00000100
00010000
00000000
,
00000100
00000010
00000001
00000000
00000010
00000001
00001000
00000000
,
00000010
00001000
00000010
00010000
00000100
00010000
00001000
00000000
,
00011000
00001000
01000000
10000000
01000000
00001000
00010000
00000000
,
00011000
00010000
00000100
00000001
00000100
00010000
00001000
00000000
,
00010000
00000100
00000010
00000001
00000100
00001000
00000100
00000001
,
00000010
00000100
00010000
00001000
01000000
00100000
01100000
00000000
,
00100000
10000000
00100000
10000000
01000000
00100000
00010000
00100000
,
00001000
00010000
00000100
00000010
00000100
00001000
00000001
00000000
,
00000001
00000100
00001000
00000100
00000001
00000010
00000100
00001000
,
00000100
00010000
00100000
10000000
00010000
10000000
01000000
00000000
,
00100000
00001000
00010000
00001000
00000010
00000001
00000100
00000010
,
00000100
00000001
00001000
00000100
00010000
00001000
01000000
00000000
,
00100000
10000000
01000000
00000000
00100000
00010000
01000000
00000000
,
01100000
00000000
00000000
10010000
00000000
00000000
01100000
00000000
00000000
00000000
20020000
00000000
00000000
00000000
30030000
00000000
,
10000000
01000000
00100000
01000000
00100000
00010000
00100000
01000000
,
00100000
00001000
00010000
00000100
00000010
00000001
00000100
00001000
,
00000100
00000001
00001000
00000100
00010000
00001000
00100000
00010000
,
10000000
00010000
01000000
00100000
01000000
00010000
00110000
00000000
,
00101000
00000000
00100000
00001000
00000000
00001000
00010000
00000000
,
00010000
00000100
00000000
00000100
00000010
00000001
00000100
00000010
,
00001010
00000000
00000000
00001100
00000000
00000000
00010100
00000000
,
00010000
00001000
00010000
00001000
01000000
00010000
01000000
01000000
;
