#TITLE:MATADOR;
#SUBTITLE:;
#ARTIST:cranky;
#TITLETRANSLIT:;
#SUBTITLETRANSLIT:;
#ARTISTTRANSLIT:;
#GENRE:Rave;
#CREDIT:;
#MENUCOLOR:;
#METERTYPE:DDR;
#BANNER:matador-logo.png;
#BACKGROUND:matador-bg.png;
#LYRICSPATH:;
#CDTITLE:;
#MUSIC:matador.ogg;
#OFFSET:0.010;
#SAMPLESTART:15.640;
#SAMPLELENGTH:12.440;
#SELECTABLE:YES;
#LISTSORT:;
#BPMS:0.000=168.000;
#STOPS:;
#BGCHANGES:;
#ATTACKS:;

//---------------dance-single - ----------------
#NOTES:
     dance-single:
     :
     Hard:
     9:
     0.645,0.585,0.573,0.257,0.242:
0000
0000
0000
0000
,
0000
0000
0000
0000
,
0000
0000
0000
0000
,
0000
0000
0000
0000
,
0010
0000
0000
0000
0000
0100
0000
1000
,
1000
0000
0000
0000
,
1000
0000
0000
0000
0000
0010
0000
0100
,
0101
0000
0000
0001
1001
0000
0000
1000
,
1100
0000
0000
0100
0110
0000
0000
0010
,
0011
0000
0000
0001
1001
0000
0000
0100
,
0001
0000
1000
0000
0100
1000
0100
0000
0000
0000
0000
0000
,
0100
0000
0110
0000
0010
0001
0010
0100
,
1000
0000
1100
0000
1000
0001
1000
0100
,
1000
0000
1001
0000
0001
0100
1000
0100
,
0001
0011
0110
1100
,
0001
0000
0101
0000
0100
0010
1000
0010
,
0100
0000
0110
0000
0010
1000
0100
0001
,
0100
0000
1100
0000
0100
0010
0100
1000
,
0001
0000
0000
0200
0000
0000
0020
0000
0000
0000
0000
0000
0330
0000
0000
0000
,
1000
0000
0101
0000
1000
0001
0100
0001
,
1000
0000
0101
0000
1000
0100
0010
0001
,
0100
0000
1001
0000
0100
0010
1000
0100
,
1000
1100
1001
1010
,
0010
0000
1100
0000
0010
0001
0010
1000
,
0100
0000
0011
0000
0100
1000
0001
0100
,
0001
0000
1100
0000
0001
0100
0010
1000
,
0100
0000
0000
0020
0000
0000
0002
0000
0000
0000
0000
0000
0033
0000
0000
0000
,
0001
0100
0010
1000
0100
1000
0010
0100
,
0002
2003
3200
0320
,
0130
1000
0010
0100
0001
0100
0010
1000
,
0200
0320
0032
2003
,
3001
0001
1000
1000
0001
0001
0100
0010
,
2000
3200
2300
3020
,
1030
0100
0001
1000
0010
0001
1000
0100
,
0001
0100
1000
0010
0200
0000
0300
0000
,
0001
0000
0000
0001
0010
0000
0000
0010
0100
0000
0000
0100
1000
0000
0000
1000
,
0010
0000
0000
0010
0100
0000
0000
0100
0001
0000
1000
0000
1000
0000
0000
0000
,
0100
0000
0000
0100
0010
0000
0000
0010
0100
0000
0000
0100
1000
0000
0000
1000
,
0010
0000
0000
0010
0100
0000
0000
0100
0001
0000
0010
0000
0010
0000
0000
0000
,
0001
0000
0000
0100
0001
0000
0000
0001
1000
0000
0000
1000
0100
0000
0000
0100
,
0001
0000
0000
0001
0100
0000
0000
0100
1000
0000
0001
0000
0001
0000
0000
0000
,
1000
0001
0100
0000
0001
1000
0100
0000
,
0010
0000
0001
0010
0001
0000
1000
0001
2000
0000
0000
0000
3000
0000
0000
0000
,
1100
0000
0000
0000
1001
0000
0000
1000
0001
0000
1000
0000
0000
0000
0010
0000
,
0100
0000
0000
0000
0110
0000
0000
0010
1000
0000
0001
0000
0001
0000
0000
0000
,
0100
0000
0000
0000
0101
0000
0000
0001
1000
0000
0001
0000
0000
0000
1000
0000
,
0100
0000
0000
0000
0110
0000
0000
0010
0001
0000
1000
0000
1000
0000
0000
0000
,
1001
0000
0000
0000
0001
0000
0000
1000
0100
0000
0000
0000
0001
0000
0000
1000
,
0010
0000
0000
0000
0001
0000
0000
1000
0100
0000
0010
0000
0001
0000
0100
0000
,
0020
2030
3002
0203
,
0310
0000
0000
1001
1001
0000
0000
0101
,
0101
0000
0000
0011
0011
0000
0000
1100
,
1100
0000
0000
1001
1001
0000
0000
0100
,
1000
0000
0001
0000
0010
0100
1000
0000
0000
0000
0000
0000
,
0100
0000
0000
0000
0110
0000
0000
0100
0010
0000
0001
0000
0010
0000
0100
0000
,
1000
0000
0000
0000
1100
0000
0000
0001
1000
0000
0001
0000
1000
0000
0100
0000
,
1000
0000
0000
0000
1001
0000
0000
1000
0001
0000
0100
0000
1000
0000
0100
0000
,
0001
0011
0110
1100
,
0001
0000
0000
0000
0101
0000
0000
0001
0100
0000
0010
0000
1000
0000
0010
0000
,
0100
0000
0000
0000
0110
0000
0000
0100
0010
0000
1000
0000
0100
0000
0001
0000
,
0100
0000
0000
0000
1100
0000
0000
1000
0100
0000
0010
0000
0100
0000
1000
0000
,
0001
0000
0000
0200
0000
0000
0020
0000
0000
0000
0000
0000
0330
0000
0000
0000
,
1000
0000
0000
0000
0101
0000
0000
0001
1000
0000
0001
0000
0100
0000
0001
0000
,
1000
0000
0000
0000
0101
0000
0000
0010
1000
0000
0100
0000
0010
0000
0001
0000
,
0100
0000
0000
0000
1001
0000
0000
0001
0100
0000
0010
0000
1000
0000
0100
0000
,
1000
1100
1001
1010
,
0010
0000
0000
0000
1100
0000
0000
1000
0010
0000
0001
0000
0010
0000
1000
0000
,
0100
0000
0000
0000
0011
0000
0000
1000
0100
0000
1000
0000
0001
0000
0100
0000
,
0001
0000
0000
0000
1100
0000
0000
1000
0001
0000
0100
0000
0010
0000
1000
0000
,
0100
0000
0000
0020
0000
0000
0002
0000
0030
0000
0003
0000
0000
0000
0000
0000
;

//---------------dance-single - ----------------
#NOTES:
     dance-single:
     :
     Medium:
     6:
     0.478,0.550,0.217,0.158,0.064:
0000
0000
0000
0000
,
0000
0000
0000
0000
,
0000
0000
0000
0000
,
0000
0000
0000
0000
,
1000
0000
0000
0000
0000
0001
0000
1000
,
0001
0000
0000
0000
,
0100
0000
0000
0000
0000
0010
0000
0100
,
0010
0000
0000
1000
0001
0000
0000
1000
,
0010
0000
0000
1000
0100
0000
0000
0010
,
0001
0000
0000
0010
0100
0000
0000
0010
,
1000
0000
0010
0000
0001
0010
0001
0000
0000
0000
0000
0000
,
0001
0000
0101
0000
0100
0001
0100
0000
,
0010
0000
1000
0000
0100
1000
0100
0000
,
0010
0000
0110
0000
0010
0001
0010
0000
,
1002
0103
2001
3100
,
1000
0000
1100
0000
1000
0001
1000
0000
,
0010
0000
0100
0000
0001
0100
0001
0000
,
1000
0000
1001
0000
1000
0100
1000
0000
,
0010
0000
0000
0100
0000
0000
0010
0000
0000
0000
0000
0000
0000
0000
0000
0000
,
1000
0101
1000
0001
,
0100
0000
0100
0000
0010
1000
1000
0000
,
0001
1100
0001
1000
,
0100
0000
0100
0000
0010
0001
0001
0000
,
0100
1001
0010
1000
,
0100
0000
0100
0000
1000
0001
0001
0000
,
0010
1001
0100
1000
,
0001
0000
0000
1000
0000
0000
0002
0000
0000
0000
0000
0000
0003
0000
0000
0000
,
0001
1000
0001
0100
,
0001
0010
0010
0010
,
0100
1000
0001
1000
,
0010
0100
0100
0100
,
0001
0010
1000
0010
,
0001
1000
1000
1000
,
0100
0001
1000
0010
,
0001
1000
0001
0000
,
0100
1000
0010
0100
,
0001
0000
0000
0000
0010
0000
0000
0001
0010
0000
0001
0000
0001
0000
0000
0000
,
0100
0010
1000
0100
,
0010
0000
0000
0000
0001
0000
0000
1000
0100
0000
1000
0000
1000
0000
0000
0000
,
0001
0001
0100
0100
,
0010
0000
0000
0000
0010
0000
0000
1000
0001
0000
0010
0000
0010
0000
0000
0000
,
0100
1000
0001
0100
,
0010
0000
1000
0001
0020
0000
0030
0000
,
0100
0000
1000
0000
0001
0002
0000
0003
,
0100
0000
0110
0000
0010
1000
0010
0000
,
0100
0000
0001
0000
1000
2000
0000
3000
,
0100
0000
0110
0000
0010
0001
0010
0000
,
0200
1300
0002
0103
,
0020
0000
0130
0000
1000
0001
1000
0100
,
2000
3020
0230
0302
,
0013
0000
0000
0100
1000
0000
0000
0001
,
0010
0000
0000
0001
0100
0000
0000
0010
,
1000
0000
0000
0100
0010
0000
0000
0100
,
1000
0000
0001
0000
1000
0001
1000
0000
0000
0000
0000
0000
,
0001
0000
0101
0000
0100
0001
0100
0100
,
0010
0000
1000
0000
0100
1000
0100
0100
,
0010
0000
0110
0000
0010
0001
0010
0010
,
1002
0103
2001
3100
,
1000
0000
1100
0000
1000
0001
1000
1000
,
0010
0000
0100
0000
0001
0100
0001
0001
,
1000
0000
1001
0000
1000
0100
1000
1000
,
0010
0000
0000
0100
0000
0000
0010
0000
0000
0000
0000
0000
0000
0000
0000
0000
,
1000
0000
0101
0000
1000
1000
0001
0001
,
0100
0000
0100
0000
0010
1000
1000
0001
,
0001
0000
1100
0000
0001
0001
1000
1000
,
0100
0000
0100
0000
0010
0001
0001
1000
,
0100
0000
1001
0000
0010
0001
1000
0001
,
0100
0000
0100
0000
1000
0100
0001
0001
,
0010
0000
1001
0000
0100
0001
1000
1000
,
0001
0000
0000
1000
0000
0000
0002
0000
0000
0000
0003
0000
0000
0000
0000
0000
;

//---------------dance-single - ----------------
#NOTES:
     dance-single:
     :
     Easy:
     5:
     0.363,0.480,0.257,0.089,0.000: // measure 1
0000
0000
0000
0000
,  // measure 2
0000
0000
0000
0000
,  // measure 3
0000
0000
0000
0000
,  // measure 4
0000
0000
0000
0000
,  // measure 5
1000
0000
0000
0000
0000
0000
0000
0001
,  // measure 6
1000
0000
0000
0000
,  // measure 7
0010
0000
0000
0000
0000
0000
0000
0001
,  // measure 8
1000
0000
0000
0001
1000
0000
0000
0001
,  // measure 9
0010
0000
0000
0001
0010
0000
0000
1000
,  // measure 10
0001
0000
0000
1000
0001
0000
0000
1000
,  // measure 11
0020
0000
0130
0000
,  // measure 12
0001
0001
0001
0000
,  // measure 13
0010
0010
0010
0000
,  // measure 14
0100
0100
0100
0000
,  // measure 15
1000
1000
1000
1000
,  // measure 16
0010
0010
0010
0000
,  // measure 17
0100
0100
0100
0000
,  // measure 18
0001
0001
0001
0000
,  // measure 19
2000
0000
0000
3100
0000
0000
0000
0000
,  // measure 20
1100
1000
0001
0000
,  // measure 21
1001
0001
0010
0000
,  // measure 22
0110
0100
1000
0000
,  // measure 23
1001
1000
0001
0000
,  // measure 24
0101
0100
0010
0000
,  // measure 25
0110
0100
0001
0000
,  // measure 26
1001
1000
0100
0000
,  // measure 27
0020
0000
0000
0031
0000
0000
0000
0000
,  // measure 28
0001
0100
0010
1000
,  // measure 29
0100
1000
0010
0010
,  // measure 30
1000
0100
0010
0001
,  // measure 31
0100
0001
0010
0010
,  // measure 32
0100
0100
1000
0001
,  // measure 33
0100
0001
0001
0001
,  // measure 34
1000
0100
0001
0100
,  // measure 35
1000
1000
1001
0000
,  // measure 36
1000
0010
0100
0010
,  // measure 37
0001
0010
1000
1000
,  // measure 38
0001
0010
0100
0010
,  // measure 39
1000
0010
0001
0001
,  // measure 40
0100
0100
1000
1000
,  // measure 41
0001
0010
1000
0000
,  // measure 42
1000
0100
0001
1000
,  // measure 43
0100
0001
1000
0000
,  // measure 44
0101
0101
1000
0000
,  // measure 45
0100
0010
0100
0000
,  // measure 46
1100
1100
0001
0000
,  // measure 47
0100
0010
0100
0000
,  // measure 48
0002
0003
2000
3000
,  // measure 49
0200
0300
0010
0100
,  // measure 50
1000
0010
0100
0001
,  // measure 51
1000
0000
0000
0001
1000
0000
0000
0001
,  // measure 52
0010
0000
0000
0001
0010
0000
0000
0001
,  // measure 53
1000
0000
0000
0001
1000
0000
0000
1000
,  // measure 54
0200
0000
0310
0000
,  // measure 55
0001
0001
1001
0000
,  // measure 56
0010
0010
0011
0000
,  // measure 57
0100
0100
1100
0000
,  // measure 58
1000
1000
1000
1001
,  // measure 59
0010
0010
0110
0000
,  // measure 60
0100
0100
0101
0000
,  // measure 61
0001
0001
1001
0000
,  // measure 62
2000
0000
0000
3100
0000
0000
0000
0000
,  // measure 63
1100
0000
1000
0000
0001
1000
0001
0000
,  // measure 64
1001
0000
0001
0000
0010
0100
0010
0000
,  // measure 65
0110
0000
0100
0000
1000
0001
1000
0000
,  // measure 66
1001
0000
1000
0000
0001
1000
0001
0000
,  // measure 67
0101
0000
0100
0000
0010
0100
0010
0000
,  // measure 68
0110
0000
0100
0000
0001
1000
0001
0000
,  // measure 69
1001
1000
0100
0010
,  // measure 70
0002
0000
0000
1003
0000
0000
0000
0000
;
