J.BerkowitzJ.BerkowitzJ.Berkowitz#TITLE:Fury;
#SUBTITLE:;
#ARTIST:Sugar Donut;
#TITLETRANSLIT:;
#SUBTITLETRANSLIT:;
#ARTISTTRANSLIT:;
#GENRE:;
#CREDIT:;
#BANNER:;
#BACKGROUND:;
#LYRICSPATH:;
#CDTITLE:;
#MUSIC:Fury.ogg;
#OFFSET:0.012;
#SAMPLESTART:42.700;
#SAMPLELENGTH:15.420;
#SELECTABLE:YES;
#DISPLAYBPM:135.000;
#BPMS:0.000=135.000,31.000=270.000,32.000=135.000,210.000=132.001,214.000=122.300,216.000=130.000;
#STOPS:31.000=0.222
;
#BGCHANGES:;
#KEYSOUNDS:;

//---------------dance-single - J.Berkowitz----------------
#NOTES:
     dance-single:
     J.Berkowitz:
     Hard:
     7:
     0.494,0.473,0.405,0.260,0.101,290.000,42.000,27.000,0.000,0.000,0.000:
0000
0000
0000
0000
,
0000
0000
0000
0000
,
0000
0000
0000
0000
,
0000
0000
0000
0000
,
1001
0000
0000
0000
0000
0000
0000
0010
,
0110
0000
0000
0000
0000
0000
0000
0000
0000
0000
0000
0000
0000
0000
0010
1000
,
0010
0000
0110
0000
,
0001
0000
1000
0000
0001
0000
1000
0000
0001
1000
0001
1000
0001
0000
0000
0000
,
0010
0100
1000
0020
0000
0031
1000
0200
,
0000
0301
1000
0020
0000
1030
0100
0000
,
0010
0001
1000
0200
0000
1300
0010
0002
,
0000
1003
0100
0020
0000
1030
0100
0000
,
0010
0001
0100
0002
0000
1003
0100
0002
,
0000
0103
1000
0200
0000
1300
0001
0000
,
0100
0010
1000
0002
0000
0013
1000
0020
,
0000
0031
0100
0010
0000
1000
1001
0000
,
0010
0100
0001
0010
0001
1000
0010
0100
,
0001
1000
0100
0010
0001
1000
0010
0100
,
0110
0000
0010
1000
0001
0010
0000
0011
,
0000
0001
0100
0010
1000
0100
0010
0110
,
0000
0001
1000
0010
0100
0001
1000
0100
,
0010
0100
1000
0010
0100
0001
1000
0100
,
1100
0000
1000
0010
0100
0001
0000
0011
,
0000
0001
1000
0010
0100
0002
0000
0003
,
0011
1001
1010
0110
,
0100
0002
0000
0013
0001
1000
0010
0000
,
0101
1100
0110
0011
,
0001
2000
0000
3010
0100
0010
1000
0000
,
1100
0011
1001
1010
,
0010
0200
0000
0301
0010
0100
1000
0000
,
1010
0110
1001
1100
,
0100
0020
0000
0031
1000
0010
0100
0001
,
2000
0000
0000
3000
,
0200
0000
0000
0300
,
0020
0000
0000
0030
,
0002
0000
1000
1003
,
0001
0000
0100
0000
0010
0000
1000
0100
0000
0100
1000
0000
0010
0000
0100
0000
,
0001
0000
1000
0000
0100
0000
0010
0001
0000
0001
0010
0000
0100
0000
1000
0000
,
0010
0000
0100
0000
0010
0000
1000
0001
0000
0001
1000
0000
0010
0000
0100
0000
,
0001
0000
0010
0000
0001
0000
0100
0000
0010
0000
1000
0100
1000
0000
0010
0000
,
0100
0000
0001
0000
1000
0000
0100
0010
0000
0010
0100
0000
1000
0000
0010
0000
,
0100
0000
0001
0000
1000
0000
0001
0100
0000
0100
0001
0000
0010
0000
0001
0000
,
1000
0000
0010
0000
0100
0000
0010
1000
0000
1000
0010
0000
0100
0000
0001
0000
,
1000
0001
0010
0001
2002
0000
3003
0000
,
1010
0110
1010
1001
,
0001
0020
0000
0031
1000
0010
0100
0000
,
0101
1010
0011
1100
,
1000
0020
0000
0130
0010
1000
0100
0000
,
1001
0110
1100
0101
,
0100
0002
0000
1003
0100
0010
0001
0000
,
0011
1100
1010
0101
,
0001
2000
0000
3010
0100
0010
1000
0100
,
0020
0000
0000
0030
,
0001
0000
0000
1000
0000
0000
0010
0000
0000
0100
0000
0000
0001
0000
1000
0000
0001
0000
1000
0000
0001
0000
1000
0000
,
0001
0000
0000
0000
0000
0000
1000
0001
1000
0000
0000
0000
0000
0000
0000
0000
;

//---------------dance-single - J.Berkowitz----------------
#NOTES:
     dance-single:
     J.Berkowitz:
     Challenge:
     10:
     0.685,0.840,0.366,0.077,0.925,452.000,38.000,8.000,63.000,0.000,1.000:
0000
0000
0000
0000
,
0000
0000
0000
0000
,
0000
0000
0000
0000
,
0000
0000
0000
0000
,
1100
0001
0001
0001
0001
0001
0001
0001
,
1100
0000
0001
0000
0001
0000
0001
0000
0001
0000
0001
0000
0001
0000
1000
0100
,
1100
0001
0001
0001
1100
0001
0001
0001
,
1001
0000
1001
0000
1001
0000
1001
0000
1000
0100
0010
0001
0100
0000
0000
0000
,
0010
0000
0100
0000
0001
0000
0010
0001
0000
1000
0010
0000
0100
0000
0001
0000
,
0010
0000
0100
0000
1000
0000
0010
0100
0000
0001
1000
0000
0100
0000
0010
0000
,
0100
0000
1000
0000
0010
0000
0100
0001
0000
0010
0001
0000
1000
0000
0001
0000
,
0010
0000
0100
0000
1000
0000
0001
1000
0000
0010
0100
0010
1000
0001
0010
0100
,
1000
0000
0100
0000
0010
0000
0001
1000
0000
0010
0100
0000
0010
0000
1000
0000
,
0001
0000
0010
0000
0100
0000
1000
0001
0000
0010
0001
0000
0100
0000
0010
0000
,
1000
0000
0100
0000
0010
0000
0100
1000
0000
0010
0100
0000
0001
0000
1000
0000
,
0100
0000
1000
0000
0001
0000
0100
0010
1000
0010
0000
0010
0000
0010
0000
0010
,
1000
0000
1000
0001
0000
0001
0100
0000
0100
0010
0000
0010
1000
0000
1000
0001
,
0010
0000
0010
0001
0000
0001
0100
0000
0100
0010
0000
0010
1000
0000
1000
0100
,
0010
0000
0010
0100
0000
0100
1000
0000
1000
0001
0000
0001
0100
0000
0100
0010
,
1000
0000
1000
0001
0000
0001
0010
0000
0010
0100
0000
0100
1000
0000
1000
0010
,
1000
0000
0100
0010
0000
0001
0100
0000
0010
1000
0000
0001
0010
0000
0001
0100
,
0010
0000
1000
0100
0000
0010
0001
0000
0100
0010
0000
1000
0001
0000
0010
0001
,
1000
0000
0010
0100
0000
0010
1000
0000
0100
0010
0000
0001
1000
0000
0010
0100
,
0001
0000
0010
0001
0000
0100
0010
0000
1000
0001
0000
0010
0001
0100
0010
1000
,
0001
1010
0101
0011
,
0001
0000
1000
0000
0010
0000
0100
0001
0000
0100
0010
0000
1000
0000
0001
0000
,
0011
1100
1010
0101
,
0001
0000
0010
0000
0100
0000
1000
0010
0000
1000
0001
0010
0100
1000
0100
0010
,
0001
1100
0011
1010
,
0010
0000
0100
0000
0001
0000
0010
0001
0000
1000
0010
0000
0100
0000
0001
0000
,
1010
0101
0011
1010
,
0010
0000
0100
0000
0001
0000
0010
0001
0000
0100
0010
0000
1000
0000
0001
0000
,
0020
M000
0M00
000M
0M00
M000
000M
0M00
0000
000M
0M00
M000
000M
M000
0M00
000M
,
M030
0M00
00M0
000M
0M00
00M0
000M
M000
0000
0M00
00M0
M000
000M
00M0
0M00
M000
,
000M
0M00
00M0
0M00
000M
M000
000M
0M00
00M0
0000
0M00
00M0
000M
M000
0M00
00M0
,
M000
000M
00M0
000M
M000
00M0
000M
0M00
M010
000M
0M00
M000
001M
M000
0M00
00M0
,
M001
0010
0100
1000
0001
0100
0010
2000
0000
3010
0100
0001
1000
0100
0010
0100
,
1000
0001
0100
0010
1000
0010
0100
0002
0000
0013
0001
1000
0010
0100
0010
1000
,
0100
0010
0001
0010
0100
1000
0001
0200
0000
0310
0100
0001
0010
0001
1000
0010
,
0100
0001
1000
0100
0010
0100
1000
0001
0010
0001
1000
0010
0100
0010
1000
0100
,
0010
0100
1000
0001
0100
0010
0100
0002
0000
0013
0001
1000
0010
0100
0010
1000
,
0100
0010
0100
1000
0001
0100
0010
2000
0000
3010
1000
0001
0010
0001
0100
0010
,
0100
0001
1000
0100
0010
0001
0010
0200
0000
1300
0001
0100
0010
1000
0001
0010
,
0100
0000
0000
0000
1000
0000
0000
0000
0010
0000
0000
0000
1000
0000
0000
0000
0001
0000
0000
0000
0010
0000
0000
0000
0001
0000
0000
0000
1000
0000
0000
0000
0M4M
0000
0000
0000
0000
0000
0000
0000
0000
0000
0000
0000
0000
0000
0000
0000
0000
0000
0000
0000
0000
0000
0000
0000
0000
0000
0000
0000
0000
0000
0000
0030
,
1001
0110
1010
0101
,
0001
0000
1000
0000
0010
0000
0100
0001
0000
1000
0100
0000
0010
0000
0001
0000
,
1010
0101
1100
1010
,
0010
0000
0100
0000
0001
0000
0010
0001
0000
0100
0010
1000
0010
0100
0001
0100
,
0010
1001
0110
0011
,
0001
0000
1000
0000
0010
0000
0100
0001
0000
0100
0010
0000
1000
0000
0001
0000
,
1010
0101
0110
1001
,
1000
0000
0010
0000
1000
0000
0001
0010
0000
0001
0100
0010
1000
0010
0100
0001
,
0020
0000
0000
0000
0000
0000
0000
0000
0100
0000
0000
0100
0000
0000
0130
0000
,
0010
0000
0000
0001
0000
0000
1000
0000
0000
0100
0000
0000
0010
0000
0000
0001
0000
0000
1000
0000
0000
0100
0000
0000
0010
0000
0000
0000
0001
0000
0000
0000
1000
0000
0000
0000
0010
0000
0000
0000
0100
0000
0000
0000
0001
0000
0000
0000
,
1001
0000
0000
0000
0000
0000
1000
0001
1000
0000
0000
0000
0000
0000
0000
0000
;

//---------------dance-single - J.Berkowitz----------------
#NOTES:
     dance-single:
     J.Berkowitz:
     Medium:
     6:
     0.406,0.420,0.173,0.173,0.024,259.000,18.000,18.000,0.000,0.000,0.000:
0000
0000
0000
0000
,
0000
0000
0000
0000
,
0000
0000
0000
0000
,
0000
0000
0000
0000
,
1000
0000
1000
0000
1000
0000
1000
0001
,
0100
0000
0100
0000
0100
0000
0100
0010
,
1000
0000
1000
0001
0010
0000
0010
0001
,
0100
0010
0100
0010
1000
0001
1000
0000
,
0001
0100
0001
0100
0000
0010
1000
0010
,
0000
1000
0100
1000
0000
0001
1000
0000
,
0010
0100
0010
0100
0000
0001
0010
0001
,
0000
1000
0100
1000
0000
0010
0100
0000
,
0001
0010
0001
0010
0000
0100
1000
0100
,
0000
1000
0010
1000
0000
0100
0010
0000
,
0001
1000
0001
1000
0000
0100
0010
0100
,
0000
1000
0100
1000
0000
0001
0100
0000
,
0010
0000
1000
0000
0001
0010
0100
0000
,
0010
0000
0001
0000
0100
0010
1000
0000
,
2002
0000
3003
0000
0100
0010
0000
1000
,
0000
0001
1000
0000
0010
0100
0010
0100
,
0001
0000
0010
0000
0100
1000
0001
0000
,
0100
0000
0010
0000
1000
0100
0010
0000
,
0202
0000
0303
0000
0001
1000
0000
0010
,
0000
0100
0001
0000
0010
0100
1000
0000
,
1001
0100
1001
0010
,
1000
0100
0000
0010
0100
1000
0001
0000
,
0101
0010
1100
0010
,
1000
0001
0000
0010
0001
1000
0010
0000
,
1100
0001
0101
1000
,
0010
1000
0000
0100
0010
0100
1000
0000
,
1010
0001
0011
1000
,
0010
0100
0000
0001
0010
0001
1000
0010
,
0200
0000
0000
0000
,
0000
0000
0000
0000
,
0000
0000
0000
0000
,
0000
0000
0001
0301
,
1000
0001
0100
0002
0000
1003
0100
2000
,
0000
3010
0100
0020
0000
1030
0001
0010
,
0001
0100
0010
2000
0000
3100
0010
0002
,
0000
0013
0100
2000
0000
3010
0100
0001
,
1000
0100
0010
0200
0000
1300
0010
0200
,
0000
0301
0010
0200
0000
1300
0001
0100
,
0010
1000
0001
0020
0000
0031
1000
0020
,
0000
1030
0010
0100
0002
0000
0003
0000
,
0011
0100
1010
0100
,
0001
1000
0000
0100
0010
0100
1000
0000
,
1010
0001
0011
1000
,
0100
0010
0000
0001
0100
0010
0100
0000
,
1001
0100
1001
0010
,
1000
0010
0000
1000
0100
0010
0001
0000
,
0110
1000
0110
0001
,
0010
0001
0000
1000
0010
0100
0001
0000
,
0020
0000
0000
0030
,
0001
0000
0000
1000
0000
0000
0001
0000
0000
1000
0000
0000
0001
0000
1000
0000
0001
0000
1000
0000
0001
0000
1000
0000
,
0001
0000
0000
0000
0000
0000
1000
0001
1000
0000
0000
0000
0000
0000
0000
0000
;

//---------------dance-single - J.Berkowitz----------------
#NOTES:
     dance-single:
     J.Berkowitz:
     Easy:
     4:
     0.241,0.315,0.010,0.087,0.024,165.000,1.000,9.000,0.000,0.000,0.000:
0000
0000
0000
0000
,
0000
0000
0000
0000
,
0000
0000
0000
0000
,
0000
0000
0000
0000
,
1000
0000
0000
0000
,
0001
0000
0000
0000
,
1000
0000
0001
0000
,
1000
0001
1000
0001
,
1000
0000
0100
0000
,
0020
0001
0130
0000
,
0010
0000
0001
0000
,
2000
0010
3001
0000
,
1000
0000
0100
0000
,
0020
0100
0031
0000
,
1000
0000
0010
0000
,
0002
0010
1003
0000
,
0100
1000
0001
0000
,
0100
0001
0010
0000
,
0001
0100
0010
0000
,
1000
0001
1000
0000
,
0100
1000
0001
0000
,
0100
0010
1000
0000
,
0001
0010
0100
0000
,
1000
0010
2000
3000
,
0001
0001
0001
0001
,
0010
0100
1000
0010
,
0100
0100
0100
0100
,
0001
1000
0100
1000
,
0010
0010
0010
0010
,
0100
0001
1000
0100
,
1000
1000
1000
1000
,
0010
0100
0001
0010
,
0200
0000
0000
0000
,
0000
0000
0000
0000
,
0000
0000
0000
0000
,
0000
0000
1000
1300
,
0010
0100
0001
1000
,
0100
0010
0100
1000
,
0001
0100
0010
0100
,
0001
0010
0100
1000
,
0010
0100
0001
1000
,
0100
0010
0100
1000
,
0001
0100
0010
1000
,
0001
0010
2002
3003
,
1000
1000
1000
1000
,
0010
0100
0001
0010
,
0100
0100
0100
0100
,
0010
0100
1000
0001
,
0010
0010
0010
0010
,
0001
0100
0010
1000
,
0001
0001
0001
0001
,
0100
0010
1000
0001
,
0020
0000
0000
0030
,
0001
0000
0000
1000
0000
0000
0001
0000
0000
1000
0000
0000
0001
0000
1000
0000
0001
0000
1000
0000
0001
0000
1000
0000
,
0001
0000
0000
0000
0000
0000
1000
0001
1000
0000
0000
0000
0000
0000
0000
0000
;

//---------------dance-single - J.Berkowitz----------------
#NOTES:
     dance-single:
     J.Berkowitz:
     Beginner:
     1:
     0.113,0.131,0.029,0.000,0.000,79.000,3.000,0.000,0.000,0.000,0.000: // measure 1
0000
0000
0000
0000
,  // measure 2
0000
0000
0000
0000
,  // measure 3
0000
0000
0000
0000
,  // measure 4
0000
0000
0000
0000
,  // measure 5
1000
0000
0000
0000
,  // measure 6
0001
0000
0000
0000
,  // measure 7
0100
0000
0000
0000
,  // measure 8
0010
0000
0000
0000
,  // measure 9
1000
0000
0000
0000
,  // measure 10
0010
0000
0000
0000
,  // measure 11
0100
0000
0000
0000
,  // measure 12
0001
0000
0000
0000
,  // measure 13
0010
0000
0000
0000
,  // measure 14
0001
0000
0000
0000
,  // measure 15
1000
0000
0000
0000
,  // measure 16
0010
0000
0000
0000
,  // measure 17
0100
0000
0000
0000
,  // measure 18
0001
0000
0000
0000
,  // measure 19
1000
0000
0000
0000
,  // measure 20
0100
0000
0000
0000
,  // measure 21
0010
0000
0000
0000
,  // measure 22
0100
0000
0000
0000
,  // measure 23
1000
0000
0000
0000
,  // measure 24
0001
0000
0000
0000
,  // measure 25
1000
1000
1000
1000
,  // measure 26
1000
0000
0000
0000
,  // measure 27
0100
0100
0100
0100
,  // measure 28
0100
0000
0000
0000
,  // measure 29
0010
0010
0010
0010
,  // measure 30
0010
0000
0000
0000
,  // measure 31
0001
0001
0001
0001
,  // measure 32
0001
0000
0000
0000
,  // measure 33
1001
0000
0000
0000
,  // measure 34
0001
0000
0000
0000
,  // measure 35
1000
0000
0000
0000
,  // measure 36
0001
0000
0001
0001
,  // measure 37
0001
0000
0000
0000
,  // measure 38
1000
0000
0000
0000
,  // measure 39
0010
0000
0000
0000
,  // measure 40
0100
0000
0000
0000
,  // measure 41
0001
0000
0000
0000
,  // measure 42
1000
0000
0000
0000
,  // measure 43
0100
0000
0000
0000
,  // measure 44
1000
0000
0000
0000
,  // measure 45
0010
0010
0010
0010
,  // measure 46
0010
0000
0000
0000
,  // measure 47
0100
0100
0100
0100
,  // measure 48
0100
0000
0000
0000
,  // measure 49
0001
0001
0001
0001
,  // measure 50
0001
0000
0000
0000
,  // measure 51
1000
1000
1000
1000
,  // measure 52
1000
0000
0000
0000
,  // measure 53
0100
0000
0000
0000
,  // measure 54
1000
0000
0001
0000
,  // measure 55
1001
0000
1001
0000
;
