#TITLE:Flux;
#SUBTITLE:;
#ARTIST:BLOC PARTY.;
#TITLETRANSLIT:;
#SUBTITLETRANSLIT:;
#ARTISTTRANSLIT:;
#CREDIT:;
#BANNER:Flux.png;
#BACKGROUND:Flux-bg.png;
#LYRICSPATH:Flux.lrc;
#CDTITLE:;
#MUSIC:Flux.mp3;
#OFFSET:-6.433;
#SAMPLESTART:50.600;
#SAMPLELENGTH:12.000;
#SELECTABLE:YES;
#DISPLAYBPM:152.000;
#BPMS:0.000=152.000;
#STOPS:;
#BGCHANGES:;

//---------------dance-single - Adamn----------------
#NOTES:
     dance-single:
     Adamn:
     Hard:
     8:
     0.569,0.642,0.217,0.561,0.123:
0000
0000
0000
0000
,
0000
0000
0000
0000
,
0000
0000
0000
0000
,
0000
0000
0000
0000
,
0020
1000
0100
1000
,
0230
0010
0001
0010
,
0302
0100
1000
0010
,
2003
0100
0001
0010
,
3200
1000
0010
0001
,
0320
1000
0001
0100
,
0032
0100
0010
0203
,
2300
0100
0001
0100
,
3010
0000
1000
0000
0100
0001
0010
0000
,
0100
1000
0010
0000
0100
0001
0010
0020
,
0001
0030
0101
0000
0010
0000
1100
0000
,
0010
0000
1001
0000
0100
0000
1001
0001
,
0100
0000
0010
1000
0100
0001
0100
1000
,
0010
0000
1010
0000
0100
0001
0010
0100
,
1000
0101
1000
1100
,
0001
0000
0101
0000
0001
0000
1001
0001
,
0100
0000
0001
0010
1000
0010
0001
0100
,
0010
0000
0101
0000
0010
1000
0100
0020
,
0001
0030
1100
0000
0001
0000
0110
0000
,
1000
0000
0101
0000
1000
0000
0110
0001
,
1000
0000
0010
0100
0001
0010
1000
0010
,
0001
0000
1001
0000
0010
0100
0001
0010
,
0100
0000
1100
0000
0010
0001
1000
0100
,
0110
0110
0110
0000
,
0002
0000
0103
0010
2000
0000
3100
0010
,
0002
0000
0103
0010
2000
0000
3100
0010
,
2000
0000
3010
0001
0200
0000
0310
1000
,
0002
0000
0013
0100
2000
0000
3010
0100
,
0002
0000
0013
1000
0020
0000
1030
0010
,
0200
0000
1300
0001
0200
0000
0301
1000
,
2000
0100
3002
0010
,
2000
0000
0000
3003
,
0020
0000
0130
1000
0002
0000
0103
0010
,
0200
0000
1300
0100
2000
0000
3100
0001
,
2000
0000
3100
0010
0002
0000
0013
0100
,
0020
0000
0130
1000
0020
0000
0031
0010
,
2000
0000
3001
0010
2000
0000
3001
0100
,
0020
0000
0031
0100
2000
0000
3100
0001
,
0020
0001
0230
0001
,
2000
0000
3300
0000
,
1000
0000
0010
0100
0001
0010
1000
0010
,
0001
0100
0010
1000
0100
0001
0100
2000
,
0001
0000
0100
3000
0010
1000
0100
0010
,
0001
0000
1100
0000
1000
0100
0101
0000
,
0001
0000
0010
0100
1000
0010
0100
0100
,
0010
0000
0101
0000
1000
0100
0001
0100
,
1000
0000
1001
0000
0001
0100
1000
0100
,
0002
0010
1000
0103
,
0010
0000
0101
0000
0020
1000
0000
0100
,
0000
0001
0000
0100
0000
1000
0000
0130
,
0010
0000
1000
0001
0010
0001
0100
1000
,
0100
0001
1000
0000
0100
1000
0010
1000
,
0001
0000
0011
0000
1000
0100
0010
0001
,
1000
0010
0100
1000
0100
0001
0010
1000
,
0010
0001
0100
0010
1000
0100
0001
1000
,
1001
0101
1100
0000
,
2000
0000
0000
0010
3100
0000
0001
0000
0020
0000
0000
0100
1030
0000
0010
0000
,
0200
0000
0000
0001
1300
0000
0100
0000
0020
0000
0000
0001
0130
0000
0010
0000
,
0002
0000
0000
0010
1003
0000
0100
0000
0020
0000
0000
0001
0130
0000
1000
0000
,
0200
0000
0000
0010
1300
0000
0100
0000
0020
0000
0000
0001
0130
0000
0001
0000
,
2000
0000
0000
0100
3001
0000
0100
0000
0020
0000
0000
0001
0130
0000
0010
0000
,
2000
0000
0000
0001
3010
0000
0100
0000
0020
0000
0000
0001
0130
0000
0010
0000
,
2000
0000
0000
0100
3010
0000
0001
0000
0200
0000
0000
0001
1300
0000
0001
1000
,
0100
0000
0000
0010
0100
0000
0010
0100
1000
0000
0000
0010
0100
0000
0010
0100
,
0002
0000
0000
1000
0103
0000
0010
0000
0200
0000
0000
1000
0310
0000
0100
0000
,
0020
0000
0000
0100
0031
0000
0010
0000
0002
0000
0000
1000
0103
0000
0001
0000
,
0200
0000
0000
1000
0310
0000
0100
0000
2000
0000
0000
0100
3010
0000
1000
0000
,
0002
0000
0000
0010
0103
0000
1000
0000
0002
0000
0000
0100
0013
0000
1000
0000
,
0002
0000
0000
0010
1003
0000
0010
0000
0200
0000
0000
0010
0301
0000
1000
0000
,
0020
0000
0000
0100
0031
0000
1000
0000
0200
0000
0000
0010
0301
0000
1000
0000
,
0002
0000
0000
0100
0013
0000
1000
0000
0200
0000
0000
0001
1300
0000
0010
0000
,
0002
0000
1003
0000
0010
1000
0001
0100
,
0202
0000
0000
0000
,
0000
0000
0000
0000
,
0303
0000
0000
0000
;

//---------------dance-single - Adamn----------------
#NOTES:
     dance-single:
     Adamn:
     Easy:
     3:
     0.265,0.321,0.165,0.539,0.000:
0000
0000
0000
0000
,
0000
0000
0000
0000
,
0000
0000
0000
0000
,
0000
0000
0000
0000
,
0020
0000
0000
0000
,
0230
0000
0000
0000
,
0302
0000
0000
0000
,
2003
0000
0000
0000
,
3200
0000
0000
0000
,
0320
0000
0000
0000
,
0032
0000
0000
0000
,
2003
0000
0000
3000
,
1001
0000
0100
0000
,
1000
0000
0100
0000
,
0001
0011
0000
0011
,
1000
1010
0000
1010
,
1000
0000
0001
0000
,
0100
0000
0010
0000
,
1000
0001
1000
0001
,
0100
0010
0100
0010
,
1000
0000
0100
0000
,
0010
0000
0001
0000
,
1000
1100
0000
1100
,
0001
0101
0000
0101
,
0010
0000
0100
0000
,
1000
0000
0001
0000
,
0100
0000
0010
0000
,
0110
0110
0110
0000
,
2000
0000
3200
0000
,
0320
0000
0032
0000
,
2003
0000
3020
0000
,
0230
0000
0302
0000
,
2003
0000
3200
0000
,
0302
0000
0203
0000
,
2300
0000
3002
0000
,
0203
0000
0300
0000
,
0020
0000
2030
0000
,
3002
0000
0203
0000
,
2300
0000
3200
0000
,
0302
0000
0023
0000
,
0230
0000
2300
0000
,
3020
0000
0230
0000
,
0302
0000
2003
0000
,
3020
0000
0030
0000
,
1001
0000
0100
0000
,
0010
0000
0010
1000
,
0001
1001
0000
1001
,
0110
1001
0000
1000
,
0010
0000
0100
0000
,
0001
0000
1000
0000
,
1000
1100
0001
0101
,
1000
1000
0001
0001
,
2000
0000
0001
0000
,
0010
0000
0100
0000
,
3001
0000
0010
0000
,
0100
0001
0101
0000
,
1002
0000
0100
0000
,
0010
0000
0100
0000
,
1003
0010
0100
0001
,
1000
0100
0010
0001
,
2000
0000
3200
0000
,
0320
0000
0032
0000
,
2003
0000
3020
0000
,
0032
0000
0023
0000
,
2030
0000
3002
0000
,
0203
0000
0320
0000
,
2030
0000
3002
0000
,
0023
0000
0030
0000
,
0200
0000
2300
0000
,
3020
0000
0230
0000
,
0302
0000
2003
0000
,
3200
0000
0302
0000
,
0203
0000
2300
0000
,
3020
0000
0230
0000
,
0302
0000
0023
0000
,
0230
0000
0300
0000
,
2002
0000
0000
0000
,
0000
0000
0000
0000
,
3003
0000
0000
0000
;

//---------------dance-single - Adamn----------------
#NOTES:
     dance-single:
     Adamn:
     Medium:
     5:
     0.342,0.426,0.479,0.254,0.000:
0000
0000
0000
0000
,
0000
0000
0000
0000
,
0000
0000
0000
0000
,
0000
0000
0000
0000
,
1000
0010
1000
0010
,
0100
0001
0100
0001
,
1000
0100
1000
0100
,
0001
0100
0001
0100
,
0010
0001
0010
0001
,
1000
0100
1000
0100
,
1000
0010
1000
0010
,
0001
0010
0001
0010
,
1000
0001
0100
0010
,
1000
1001
0000
0101
,
0010
1001
0000
1100
,
0010
1001
0000
0100
,
0010
1000
0001
0010
,
0100
1100
0000
0001
,
1000
0010
0100
0001
,
1000
0001
1000
0001
,
0010
0100
1000
0001
,
0100
0010
1000
0001
,
0010
0021
0000
0031
,
0010
0011
0000
0001
,
1000
0010
0100
0001
,
1000
0100
0010
0001
,
1000
1001
0000
0001
,
0010
0010
0010
0010
,
0110
0000
1100
0000
,
0101
0000
0011
0000
,
1010
0000
1100
0000
,
0101
0000
0011
0000
,
1100
0000
1010
0000
,
0101
0000
0011
0000
,
1001
0000
0110
0000
,
2002
0000
0000
3003
,
1100
0000
1010
0000
,
0011
0000
0101
0000
,
1100
0000
1010
0000
,
0011
0000
0101
0000
,
1010
0000
0101
0000
,
1100
0000
0011
0000
,
1001
0000
0110
0000
,
2002
0000
0000
3003
,
1000
0100
0001
0100
,
2000
0100
3002
0100
,
0013
0000
0110
0000
0100
0001
1000
0000
,
0010
0000
0110
0000
0100
1000
0001
0000
,
0010
1000
0001
0100
,
0002
0010
2003
0010
,
3100
1000
0010
0100
,
0001
1000
0001
1000
,
1001
0100
0010
0001
,
1001
0100
0010
1000
,
1001
0100
0010
0001
,
1001
0100
0010
1000
,
1001
0100
0010
1000
,
1010
0100
0010
0001
,
0011
0100
0010
1000
,
1001
1001
0110
0110
,
2002
0003
0200
0300
,
0020
0030
0200
0300
,
3002
0000
0200
0300
,
0020
0030
0200
0300
,
2003
0000
0200
0300
,
0020
0030
0200
3300
,
0011
0100
1010
0100
,
2002
0000
0000
3003
,
0200
0000
0020
0030
,
0002
0003
2000
3000
,
0320
0000
2000
3000
,
0200
0300
0002
0033
,
1010
1000
1001
0001
,
0101
0100
0110
0010
,
1010
0000
0101
0000
,
2002
0000
0000
3003
,
1001
0000
0000
0000
;

//---------------dance-double - Adamn----------------
#NOTES:
     dance-double:
     Adamn:
     Easy:
     3:
     0.257,0.321,0.127,0.539,0.000:
00000000
00000000
00000000
00000000
,
00000000
00000000
00000000
00000000
,
00000000
00000000
00000000
00000000
,
00000000
00000000
00000000
00000000
,
00200000
00000000
00000000
00000000
,
02300000
00000000
00000000
00000000
,
03002000
00000000
00000000
00000000
,
00023000
00000000
00000000
00000000
,
00030200
00000000
00000000
00000000
,
00002300
00000000
00000000
00000000
,
00003020
00000000
00000000
00000000
,
00000230
00000000
00000000
00000000
,
00000301
00000000
00000010
00000000
,
00000100
00000000
00001000
00000000
,
00010000
00000000
00100000
00000000
,
01000000
00000000
10000000
00000000
,
00010000
00000000
01000000
00000000
,
00100000
00000000
00010000
00000000
,
00001000
00000000
00000100
00000000
,
00000001
00000000
00000010
00000000
,
00000100
00000000
00010000
00000000
,
00100000
00000000
10000000
00000000
,
10000000
11000000
00000000
11000000
,
00010000
01010000
00000000
01010000
,
00100000
00000000
01000000
00000000
,
00001000
00000000
00010000
00000000
,
00000100
00000000
00000010
00000000
,
00000110
00000110
00000110
00000000
,
00002000
00000000
00003200
00000000
,
00000320
00000000
00000032
00000000
,
00002003
00000000
00003200
00000000
,
00020300
00000000
00032000
00000000
,
02003000
00000000
03020000
00000000
,
00230000
00000000
00302000
00000000
,
02003000
00000000
23000000
00000000
,
32000000
00000000
03000000
00000000
,
00200000
00000000
20300000
00000000
,
30020000
00000000
02030000
00000000
,
23000000
00000000
32000000
00000000
,
03020000
00000000
00230000
00000000
,
00302000
00000000
00023000
00000000
,
00030200
00000000
00002300
00000000
,
00003020
00000000
00000032
00000000
,
00000023
00000000
00000030
00000000
,
00001001
00000000
00000100
00000000
,
00000010
00000010
00001000
00010000
,
00011000
00100000
00000000
10010000
,
01100000
10010000
00000000
10000000
,
00100000
01000000
00010000
10000000
,
00010000
10000000
00000000
00000000
,
00010000
00011000
00001000
00011000
,
00010000
00000100
00010000
00001000
,
00020000
00000000
00001000
00000000
,
00000100
00000000
00030010
00000000
,
00010000
00000000
00100000
00000000
,
01000000
00010000
01010000
00000000
,
01002000
00000000
01000000
00000000
,
00100000
00000000
01003000
00000000
,
10000000
00100000
01000000
00010000
,
00100000
00001000
00010000
00010000
,
00020000
00000000
02030000
00000000
,
03200000
00000000
00320000
00000000
,
00032000
00000000
00003200
00000000
,
00000320
00000000
00000032
00000000
,
00000203
00000000
00020300
00000000
,
00032000
00000000
00203000
00000000
,
02300000
00000000
03020000
00000000
,
00230000
00000000
00300000
00000000
,
00002000
00000000
00003200
00000000
,
00000320
00000000
00000032
00000000
,
00002003
00000000
00003200
00000000
,
00020300
00000000
00032000
00000000
,
02003000
00000000
03020000
00000000
,
00230000
00000000
00302000
00000000
,
00023000
00000000
00230000
00000000
,
20300000
00000000
30000000
00000000
,
20020000
00000000
00000000
00000000
,
00000000
00000000
00000000
00000000
,
30030000
00000000
00000000
00000000
;

//---------------dance-double - Adamn----------------
#NOTES:
     dance-double:
     Adamn:
     Medium:
     5:
     0.330,0.398,0.382,0.292,0.000:
00000000
00000000
00000000
00000000
,
00000000
00000000
00000000
00000000
,
00000000
00000000
00000000
00000000
,
00000000
00000000
00000000
00000000
,
10000000
00100000
10000000
00100000
,
01000000
00010000
01000000
00010000
,
00001000
00000010
00001000
00000010
,
00000100
00000001
00000100
00000001
,
00001000
00000100
00001000
00000100
,
00010000
00001000
00010000
00001000
,
00100000
10000000
00100000
10000000
,
00010000
01000000
00010000
01000000
,
10000000
00010000
01000000
00100000
,
10000000
10010000
00000000
00100000
,
00001000
00011000
00000000
00000010
,
00010000
00011000
00000000
00001000
,
00100000
00010000
10000000
00100000
,
01000000
11000000
00000000
00110000
,
00100000
00001000
01000000
00001000
,
00010000
00000100
00001000
00000010
,
00000001
00000010
00001000
00000100
,
00000010
00000001
00001000
00000100
,
00010000
00012000
00000000
00013000
,
00100000
00110000
00000000
00010000
,
10000000
00100000
01000000
00010000
,
00001000
00000010
00000100
00000001
,
00001000
00001001
00000000
00001000
,
00100000
00100000
00100000
00100000
,
01100000
00000000
01100000
00000000
,
00110000
00000000
00110000
00000000
,
00011000
00000000
00011000
00000000
,
00001100
00000000
00001100
00000000
,
00000110
00000000
00000110
00000000
,
00000011
00000000
00000011
00000000
,
00001001
00000000
00001100
00000000
,
00022000
00000000
00000000
00033000
,
00000110
00000000
00000110
00000000
,
00001100
00000000
00001100
00000000
,
00011000
00000000
00011000
00000000
,
00110000
00000000
00110000
00000000
,
01100000
00000000
01100000
00000000
,
11000000
00000000
11000000
00000000
,
10010000
00000000
00110000
00000000
,
00022000
00000000
00000000
00033000
,
00001000
00000100
00000001
00000100
,
00002000
00000100
00003002
00000100
,
00000013
00000000
00000110
00000000
00000100
00000001
00001000
00000000
,
00000010
00000000
00000110
00000000
00000100
00001000
00010000
00000000
,
00100000
10000000
00010000
01000000
,
00020000
00100000
20030000
00100000
,
31000000
10000000
00100000
01000000
,
00010000
00000000
00100000
00000000
00001000
00010000
00001000
00000000
,
00011000
00000100
00000010
00000001
,
00001001
00000100
00001000
00010000
,
10010000
01000000
00010000
00001000
,
00001001
00000010
00001000
00010000
,
10010000
00000000
00100000
00000000
00010000
00001000
00000010
00000000
,
00001001
00000000
00000010
00000000
00001000
00010000
00100000
00000000
,
01010000
00000000
00100000
00000000
10000000
00010000
01000000
00000000
,
10010000
10010000
01100000
00000000
,
00200000
00000000
00002000
00003000
,
00020000
00030000
00002000
00003000
,
00020000
00300000
20000000
30000000
,
00200000
00300000
00002000
00003000
,
00000020
00030000
00000002
00000003
,
00000200
00000300
00002000
00003000
,
00020000
00000030
00200000
00030000
,
20000000
00300000
00000000
00000000
,
00020000
30000000
02000000
03000000
,
00002000
00003000
00000200
00000300
,
00000020
00030000
00002000
00003000
,
00000200
00000300
00000002
00000003
,
00002000
00000030
00000200
00000300
,
00000020
00000030
00200000
00300000
,
00020000
00003000
02000000
00030000
,
20000000
03000000
00000000
30000000
,
10010000
00000000
00000000
00000000
;

//---------------dance-double - Adamn----------------
#NOTES:
     dance-double:
     Adamn:
     Hard:
     8:
     0.528,0.525,0.254,0.120,0.007:
00000000
00000000
00000000
00000000
,
00000000
00000000
00000000
00000000
,
00000000
00000000
00000000
00000000
,
00000000
00000000
00000000
00000000
,
00020000
01000000
00100000
01000000
,
00230000
00010000
00001000
00010000
,
00302000
00100000
01000000
00010000
,
02003000
00100000
00001000
00010000
,
03002000
00100000
00010000
00000010
,
00023000
00000100
00000010
00100000
,
00030020
00000100
00001000
00020030
,
00230000
00010000
10000000
00010000
,
10300000
00000000
01000000
00000000
00100000
00100000
00100000
00000000
,
00001000
00001000
00001000
00000000
00000010
00000010
00000010
00000001
,
00000010
00001010
00000100
00011000
,
00000100
00010010
00001000
00010100
,
00000100
00000000
00001001
00000000
00000001
00000100
00001000
00010000
,
00010000
00000000
00011000
00000000
00010000
00100000
10000000
01000000
,
00010000
00000000
01010000
00000000
00010000
01000000
00010000
00000000
,
01000000
10000000
00100000
00000000
01000000
00010000
00100000
00000000
,
00001000
00000000
01000000
00001000
00010000
00000100
00000010
00000001
,
00000100
00000000
00001010
00000000
00000100
00010000
00001000
00000200
,
00000010
00000300
00011000
00000000
00000010
00000000
00001100
00000000
,
00010000
00000000
00001010
00000000
00010000
00000000
00000100
00000010
,
00001000
00000000
00010000
01000000
00100000
00001000
00010000
00001000
,
00000100
00000000
00000010
00000000
00001000
00000001
00000100
00001000
,
00010000
00000000
00110000
00000000
00100000
00001000
00100000
00010000
,
00011000
00011000
00011000
00000000
,
00001000
01000000
00100000
10000000
01000000
00100000
00001000
00000000
,
00010000
00000100
00000010
00000001
00000100
00000010
00010000
00001000
,
00010000
00000100
00000010
00001000
00000010
00000001
00000100
00000000
,
00001000
00010000
00001000
01000000
00100000
00010000
00100000
00000000
,
10000000
01000000
00010000
01000000
00100000
00010000
00100000
00000000
,
00001000
00000100
00000001
00000100
00000010
00000001
00000010
00000000
,
00001010
00001000
00011000
00010000
,
01010000
00000000
00000000
00000000
01000000
00000000
00000000
00000000
01000000
00000000
00000000
00000000
01000000
00000000
00100000
10000000
,
00100000
01000000
00010000
00100000
00001000
00000010
00000001
00000000
,
00000010
00000001
00000100
00000010
00010000
00100000
10000000
00010000
,
01000000
00100000
00010000
00001000
00000100
00000010
00000001
00000000
,
00000001
00000010
00000100
00001000
00010000
00100000
01000000
00000000
,
10000000
01000000
00010000
00100000
01000000
00010000
00001000
00000010
,
00000001
00000010
00001000
00000010
00000001
00000100
00000010
00001000
,
00001100
00010000
00011000
00100000
,
10010000
00000000
00000000
00000000
00100000
00000000
00000000
00000000
01000000
00000000
00000000
00000000
00010000
00000000
10000000
00010000
,
10000000
00000000
00100000
00000000
00010000
00010000
00010000
00000000
,
00001000
00001000
00001000
00000000
00000010
00000010
00000010
00000200
,
00001000
00000000
00000010
00000000
00001300
00000010
00010000
00001000
,
02000000
00000000
00100000
00000000
03010000
00100000
01000000
10000000
,
00010000
00000000
10010000
00000000
00100000
01000000
00001000
00010000
,
00000100
00000001
00000100
00001000
00000010
00000100
00000001
00001000
,
00000100
00000000
00001001
00000000
00010000
00001000
00010000
00100000
,
00010000
00000000
00011000
00000000
00000100
00001000
00001100
00000100
,
00001000
00000000
00000101
00000000
00000010
00002000
00000000
00010000
,
00000000
00000010
00000000
00000100
00000000
00000010
00000000
00013000
,
00000000
01000000
00010000
00100000
01000000
10000000
00100000
01000000
,
00010000
00000000
00110000
00000000
00100000
00001000
00011000
00000000
,
00001000
00000000
00001100
00000000
00000010
00000001
00000100
00001000
,
00000000
00010000
00100000
01000000
10000000
01000000
00010000
00100000
,
01000000
00010000
01000000
00010000
00001000
00010000
00001000
00010000
,
00011000
00011000
00011000
00000000
,
00001000
00010000
00100000
01000000
00010000
10000000
01000000
00100000
,
00010000
01000000
10000000
01000000
00010000
00100000
10000000
00100000
,
00010000
01000000
00001000
00010000
00000100
00001000
00000010
00000100
,
00000001
00000010
00000100
00001000
00020000
00000000
00100000
00000000
,
00031000
00000100
00000001
00000100
00001000
00000010
00000001
00000010
,
00001000
00010000
01000000
00100000
10000000
01000000
00100000
00010000
,
01000000
10000000
01000000
00100000
10000000
00010000
00100000
00001000
,
01000000
00010000
00100000
00001000
00000100
00000000
00000110
00000000
,
00010000
00001000
00000100
00000010
00001000
00000001
00000010
00000100
,
00001000
00000010
00000001
00000010
00001000
00000100
00000001
00000100
,
00001000
00000010
00010000
00001000
00100000
00010000
01000000
00100000
,
10000000
01000000
00100000
00010000
00002000
00000000
00000100
00000000
,
00013000
00100000
10000000
00100000
00010000
01000000
10000000
01000000
,
00010000
00001000
00000010
00000100
00000001
00000010
00000100
00001000
,
00000010
00000001
00000010
00000100
00000001
00001000
00000100
00010000
,
00000010
00001000
00000100
00010000
00100000
00000000
01100000
00100000
,
02000000
00000000
00000000
00000000
,
00000000
00000000
00000000
00000000
,
03000000
00000000
00000000
00000000
;

//---------------dance-single - Adamn----------------
#NOTES:
     dance-single:
     Adamn:
     Edit:
     10:
     0.747,0.759,0.621,0.097,0.344:
0000
0000
0000
0000
,
0000
0000
0000
0000
,
0000
0000
0000
0000
,
0000
0000
0000
0000
,
0001
0000
0100
0000
0010
0000
1000
0001
1000
0000
0100
0000
0010
0000
0000
0000
,
1000
0000
0100
0000
0010
0000
0001
1000
0001
0000
0100
0000
0010
0000
0110
0000
,
1000
0000
0100
0000
0010
0000
0001
1000
0001
0000
0100
0000
0010
0000
0000
0000
,
1000
0000
0100
0000
0010
0000
0001
1000
0001
0000
0100
0000
0010
0000
1000
0000
,
0001
0000
0010
0000
0100
0000
1000
0001
1000
0000
0010
0000
0100
0000
0000
0000
,
1000
0000
0010
0000
0100
0000
0001
1000
0001
0000
0100
0000
0010
0000
1000
0000
,
0001
0000
0010
0000
0100
0000
1000
0001
1000
0000
0010
0000
0100
0000
0000
0000
,
1000
0000
0010
0000
0100
0000
0001
1000
0001
0000
0010
0000
0100
0000
1000
0000
,
0001
0100
0001
0100
0001
0100
0001
0100
0001
0000
1000
0000
0100
0000
0010
0000
,
0001
1000
0010
0100
0001
0100
1000
0100
,
0002
0000
0100
0000
0013
0001
0100
0010
,
2000
0000
0100
0000
3010
1000
0001
0100
,
0010
1000
0010
1000
0010
1000
0010
1000
0010
0000
0100
0000
0001
0000
0010
0000
,
0100
1000
0010
0100
0001
0010
1000
0010
,
0002
0000
0100
0000
0013
0001
1000
0010
,
0101
0000
1100
0000
0101
0010
1100
0000
,
0010
0100
0010
0100
0001
0100
0001
0100
0010
0000
1000
0000
0100
0000
0010
0000
,
0001
1000
0010
0100
0001
0010
1000
0010
,
0002
0000
0100
0000
0013
0100
1000
0010
,
0200
0000
1000
0000
0310
1000
1010
0000
,
0001
1000
0001
1000
0010
1000
0010
1000
0001
0000
1000
0000
0100
0000
0010
0000
,
0001
0010
0100
0001
0100
1000
0010
0100
,
0002
0010
1003
1100
,
0011
0011
0011
0000
,
0001
0000
1000
0000
1001
0000
0001
0010
0001
0000
1000
0000
1001
0000
0000
0000
,
0100
0000
0010
0000
0110
0000
0100
0001
0100
0000
0010
0000
0110
0000
0100
0000
,
0001
0000
1000
0000
1001
0000
0001
0100
0001
0000
1000
0000
1001
0000
0000
0000
,
1000
0000
0010
0000
0110
0000
1000
0010
1000
0000
0010
0000
0110
0000
0000
0000
,
0001
0000
0010
0000
0011
0000
1000
0001
1000
0000
0001
0000
0011
0000
0000
0000
,
1000
0000
0010
0000
1010
0000
0001
1000
0001
0000
1000
0000
1010
0000
0000
0000
,
0001
0000
1000
0000
1100
0000
0001
0010
0001
0000
1000
0000
1100
0000
0000
0000
,
0100
0000
0010
0000
1001
0000
1000
0100
1000
0000
0001
0000
1001
0000
0100
0010
,
1000
0000
0010
0000
1001
0000
0100
1000
0100
0000
0010
0000
1001
0000
0000
0000
,
0100
0000
0010
0000
1010
0000
0001
0100
0001
0000
1000
0000
1010
0000
0001
0000
,
0010
0000
0001
0000
0011
0000
1000
0100
1000
0000
0001
0000
0011
0000
0000
0000
,
0001
0000
1000
0000
1100
0000
0001
0010
0001
0000
1000
0000
1100
0000
0000
0000
,
1000
0000
0100
0000
0110
0000
1000
0001
1000
0000
0100
0000
0110
0000
0000
0000
,
0100
0000
0010
0000
0110
0000
0001
1000
0001
0000
0100
0000
0110
0000
0000
0000
,
0010
0000
0100
0000
1001
0000
0010
0100
0010
0000
1000
0000
1001
0000
0000
0000
,
0010
0000
0001
0000
1001
0000
0100
0010
0100
0000
0001
0000
1001
0000
0100
0000
,
0010
0001
0010
0001
0010
0001
0010
0001
1000
0100
1000
0100
1000
0100
1000
0100
,
0010
0001
0100
1000
0100
0001
0010
0100
,
2000
0000
0001
0000
3100
0010
0100
1000
,
0010
0001
1000
0020
0100
0100
0130
0000
,
0010
1000
0010
1000
0010
1000
0010
1000
0001
0100
0001
0100
0001
0100
0001
0100
,
0010
1000
0100
0001
0100
1000
0010
0100
,
0002
0000
1000
0000
0013
0100
1000
0010
,
0100
0001
1100
0000
1010
0001
0101
0000
,
1000
0100
1000
0100
0010
0001
0010
0001
1000
0010
1000
0010
0100
0001
0100
0001
,
1000
0001
0010
0100
1000
0010
0001
0010
,
2000
0000
0001
0000
3100
0010
0001
0100
,
2000
0000
0001
0000
3100
0001
0010
0100
,
1000
0010
1000
0010
0100
0001
0100
0001
1000
0100
1000
0100
0001
0100
0001
0100
,
1000
0010
0001
0010
1000
0100
0010
0001
,
1000
0010
0100
1000
0100
0001
0010
0100
,
1001
0110
1001
0000
,
0001
0000
0010
0000
1100
0000
1000
0010
0100
0000
0001
0000
1100
0000
0000
0000
,
1000
0000
0010
0000
0101
0000
0001
0010
0100
0000
1000
0000
0101
0000
0100
0000
,
0001
0000
0010
0000
0011
0000
1000
0010
0100
0000
0001
0000
0011
0000
0000
0000
,
1000
0000
0010
0000
1010
0000
0001
0010
0100
0000
1000
0000
1010
0000
0000
0000
,
1000
0000
0001
0000
0110
0000
0010
1000
0001
0000
1000
0000
0110
0000
0000
0000
,
0100
0000
0010
0000
1001
0000
0001
0100
0010
0000
0100
0000
1001
0000
0000
0000
,
0001
0000
0100
0000
1010
0000
0010
0100
0001
0000
0100
0000
1010
0000
1000
0010
,
0001
0000
0010
0000
0011
0000
1000
0100
0001
0000
0100
0000
0101
0000
0001
1000
,
0100
0000
0100
0000
0110
0000
0100
0010
0100
0000
0100
0000
0110
0000
0000
0000
,
0001
0000
0001
0000
1001
0000
0001
0100
0001
0000
0001
0000
1001
0000
0100
0000
,
0010
0000
0010
0000
1100
0000
0001
0010
0100
0000
1000
0000
1100
0000
0000
0000
,
0010
0000
0010
0000
0101
0000
1000
0010
0100
0000
0001
0000
0101
0000
0000
0000
,
1000
0000
0010
0000
0011
0000
1000
0100
0001
0000
0010
0000
0011
0000
0000
0000
,
0001
0000
0100
0000
1100
0000
0001
0010
1000
0000
0100
0000
1100
0000
0000
0000
,
0101
0000
0010
0000
1100
0000
0001
1000
0001
0000
0010
0000
1100
0000
0000
0000
,
1010
0000
0100
0000
0011
0000
1000
0001
1000
0000
0100
0000
0011
0000
0001
1000
,
2002
0000
0000
0000
,
0000
0000
0000
0000
,
3003
0000
0000
0000
;
